  0
SECTION
  2
HEADER
  9
$ACADVER
  1
AC1009
  9
$INSBASE
 10
0.0
 20
0.0
 30
0.0
  9
$EXTMIN
 10
-400.076668
 20
-644.504826
 30
0.0
  9
$EXTMAX
 10
641.547883
 20
400.064035
 30
0.000005
  9
$LIMMIN
 10
-400.076668
 20
-644.504826
  9
$LIMMAX
 10
641.547883
 20
400.064035
  9
$ORTHOMODE
 70
     1
  9
$REGENMODE
 70
     1
  9
$FILLMODE
 70
     1
  9
$QTEXTMODE
 70
     0
  9
$MIRRTEXT
 70
     0
  9
$DRAGMODE
 70
     2
  9
$LTSCALE
 40
50.0
  9
$OSMODE
 70
     0
  9
$ATTMODE
 70
     1
  9
$TEXTSIZE
 40
200.0
  9
$TRACEWID
 40
1.0
  9
$TEXTSTYLE
  7
STANDARD
  9
$CLAYER
  8
TEAM-MAS
  9
$CELTYPE
  6
BYLAYER
  9
$CECOLOR
 62
   256
  9
$DIMSCALE
 40
0.0
  9
$DIMASZ
 40
20.0
  9
$DIMEXO
 40
10.0
  9
$DIMDLI
 40
1.0
  9
$DIMRND
 40
0.0
  9
$DIMDLE
 40
0.0
  9
$DIMEXE
 40
1.0
  9
$DIMTP
 40
0.0
  9
$DIMTM
 40
0.0
  9
$DIMTXT
 40
35.0
  9
$DIMCEN
 40
1.0
  9
$DIMTSZ
 40
0.0
  9
$DIMTOL
 70
     0
  9
$DIMLIM
 70
     0
  9
$DIMTIH
 70
     0
  9
$DIMTOH
 70
     0
  9
$DIMSE1
 70
     0
  9
$DIMSE2
 70
     0
  9
$DIMTAD
 70
     0
  9
$DIMZIN
 70
     0
  9
$DIMBLK
  1

  9
$DIMASO
 70
     1
  9
$DIMSHO
 70
     0
  9
$DIMPOST
  1

  9
$DIMAPOST
  1

  9
$DIMALT
 70
     0
  9
$DIMALTD
 70
     2
  9
$DIMALTF
 40
25.4
  9
$DIMLFAC
 40
1.0
  9
$DIMTOFL
 70
     0
  9
$DIMTVP
 40
0.0
  9
$DIMTIX
 70
     0
  9
$DIMSOXD
 70
     0
  9
$DIMSAH
 70
     0
  9
$DIMBLK1
  1

  9
$DIMBLK2
  1

  9
$DIMSTYLE
  2
TEAM
  9
$DIMCLRD
 70
     9
  9
$DIMCLRE
 70
     9
  9
$DIMCLRT
 70
    11
  9
$DIMTFAC
 40
1.0
  9
$DIMGAP
 40
7.0
  9
$LUNITS
 70
     2
  9
$LUPREC
 70
     1
  9
$SKETCHINC
 40
1.0
  9
$FILLETRAD
 40
30.0
  9
$AUNITS
 70
     0
  9
$AUPREC
 70
     0
  9
$MENU
  1
ROPLANS
  9
$ELEVATION
 40
0.0
  9
$PELEVATION
 40
0.0
  9
$THICKNESS
 40
0.0
  9
$LIMCHECK
 70
     0
  9
$BLIPMODE
 70
     1
  9
$CHAMFERA
 40
0.0
  9
$CHAMFERB
 40
0.0
  9
$SKPOLY
 70
     0
  9
$TDCREATE
 40
2450392.957851
  9
$TDUPDATE
 40
2457897.615079
  9
$TDINDWG
 40
2.270104
  9
$TDUSRTIMER
 40
2.270104
  9
$USRTIMER
 70
     1
  9
$ANGBASE
 50
0.0
  9
$ANGDIR
 70
     0
  9
$PDMODE
 70
     0
  9
$PDSIZE
 40
0.0
  9
$PLINEWID
 40
0.0
  9
$COORDS
 70
     2
  9
$SPLFRAME
 70
     0
  9
$SPLINETYPE
 70
     6
  9
$SPLINESEGS
 70
     8
  9
$ATTDIA
 70
     0
  9
$ATTREQ
 70
     0
  9
$HANDLING
 70
     1
  9
$HANDSEED
  5
E9
  9
$SURFTAB1
 70
    36
  9
$SURFTAB2
 70
    36
  9
$SURFTYPE
 70
     6
  9
$SURFU
 70
     6
  9
$SURFV
 70
     6
  9
$UCSNAME
  2

  9
$UCSORG
 10
0.0
 20
0.0
 30
0.0
  9
$UCSXDIR
 10
1.0
 20
0.0
 30
0.0
  9
$UCSYDIR
 10
0.0
 20
1.0
 30
0.0
  9
$PUCSNAME
  2

  9
$PUCSORG
 10
0.0
 20
0.0
 30
0.0
  9
$PUCSXDIR
 10
1.0
 20
0.0
 30
0.0
  9
$PUCSYDIR
 10
0.0
 20
1.0
 30
0.0
  9
$USERI1
 70
     0
  9
$USERI2
 70
     0
  9
$USERI3
 70
     0
  9
$USERI4
 70
     0
  9
$USERI5
 70
     0
  9
$USERR1
 40
0.0
  9
$USERR2
 40
0.0
  9
$USERR3
 40
0.0
  9
$USERR4
 40
0.0
  9
$USERR5
 40
0.0
  9
$WORLDVIEW
 70
     1
  9
$SHADEDGE
 70
     0
  9
$SHADEDIF
 70
    70
  9
$TILEMODE
 70
     1
  9
$MAXACTVP
 70
    16
  9
$PLIMCHECK
 70
     0
  9
$PEXTMIN
 10
-0.805942
 20
0.005011
 30
0.0
  9
$PEXTMAX
 10
20.250094
 20
11.356329
 30
0.0
  9
$PLIMMIN
 10
0.0
 20
0.0
  9
$PLIMMAX
 10
12.0
 20
9.0
  9
$UNITMODE
 70
     0
  9
$VISRETAIN
 70
     0
  9
$PLINEGEN
 70
     0
  9
$PSLTSCALE
 70
     0
  0
ENDSEC
  0
SECTION
  2
TABLES
  0
TABLE
  2
VPORT
 70
     2
  0
VPORT
  2
*ACTIVE
 70
     0
 10
0.0
 20
0.0
 11
1.0
 21
1.0
 12
120.735608
 22
-122.220395
 13
0.0
 23
0.0
 14
1.0
 24
1.0
 15
50.0
 25
50.0
 16
0.0
 26
0.0
 36
1.0
 17
0.0
 27
0.0
 37
0.0
 40
1051.056866
 41
1.88601
 42
50.0
 43
0.0
 44
0.0
 50
0.0
 51
0.0
 71
     0
 72
   100
 73
     1
 74
     1
 75
     0
 76
     0
 77
     0
 78
     0
  0
ENDTAB
  0
TABLE
  2
LTYPE
 70
     2
  0
LTYPE
  2
CONTINUOUS
 70
     0
  3
Solid Line
 72
    65
 73
     0
 40
0.0
  0
LTYPE
  2
31
 70
     0
  3

 72
    65
 73
     4
 40
2.1
 49
1.5
 49
-0.3
 49
0.0
 49
-0.3
  0
ENDTAB
  0
TABLE
  2
LAYER
 70
     8
  0
LAYER
  2
0
 70
     0
 62
     7
  6
CONTINUOUS
  0
LAYER
  2
DEFPOINTS
 70
     0
 62
     7
  6
CONTINUOUS
  0
LAYER
  2
TEAM-BODY
 70
     0
 62
     2
  6
CONTINUOUS
  0
LAYER
  2
TEAM-AXE
 70
     0
 62
    10
  6
31
  0
LAYER
  2
TEAM-MAS
 70
     0
 62
     9
  6
CONTINUOUS
  0
LAYER
  2
TEAM-TXT
 70
     0
 62
    11
  6
CONTINUOUS
  0
LAYER
  2
TEAM-DET1
 70
     0
 62
     4
  6
CONTINUOUS
  0
LAYER
  2
TEAM-INSP
 70
     0
 62
     5
  6
CONTINUOUS
  0
ENDTAB
  0
TABLE
  2
STYLE
 70
     2
  0
STYLE
  2
STANDARD
 70
     0
 40
0.0
 41
1.0
 50
0.0
 71
     0
 42
200.0
  3
txt
  4

  0
STYLE
  2
TEAM
 70
     0
 40
0.0
 41
0.8
 50
15.0
 71
     0
 42
7.0
  3
ROMANS.shx
  4

  0
ENDTAB
  0
TABLE
  2
VIEW
 70
     0
  0
ENDTAB
  0
TABLE
  2
UCS
 70
     0
  0
ENDTAB
  0
TABLE
  2
APPID
 70
     1
  0
APPID
  2
ACAD
 70
     0
  0
ENDTAB
  0
TABLE
  2
DIMSTYLE
 70
     1
  0
DIMSTYLE
  2
TEAM
 70
     0
  3

  4

  5

  6

  7

 40
0.0
 41
20.0
 42
10.0
 43
1.0
 44
1.0
 45
0.0
 46
0.0
 47
0.0
 48
0.0
140
35.0
141
1.0
142
0.0
143
25.4
144
1.0
145
0.0
146
1.0
147
7.0
 71
     0
 72
     0
 73
     0
 74
     0
 75
     0
 76
     0
 77
     0
 78
     0
170
     0
171
     2
172
     0
173
     0
174
     0
175
     0
176
     9
177
     9
178
    11
  0
ENDTAB
  0
ENDSEC
  0
SECTION
  2
BLOCKS
  0
BLOCK
  8
0
  2
$MODEL_SPACE
 70
     0
 10
0.0
 20
0.0
 30
0.0
  3
$MODEL_SPACE
  1

  0
ENDBLK
  5
CB
  8
0
  0
BLOCK
 67
     1
  8
0
  2
$PAPER_SPACE
 70
     0
 10
0.0
 20
0.0
 30
0.0
  3
$PAPER_SPACE
  1

  0
ENDBLK
  5
C9
 67
     1
  8
0
  0
BLOCK
  8
0
  2
*D0
 70
     1
 10
0.0
 20
0.0
 30
0.0
  3
*D0
  1

  0
LINE
  5
43
  8
0
  6
BYBLOCK
 62
     9
 10
12410.0
 20
3600.0
 30
0.0
 11
12624.97
 21
3600.0
 31
0.0
  0
LINE
  5
44
  8
0
  6
BYBLOCK
 62
     9
 10
12410.0
 20
4400.0
 30
0.0
 11
12624.97
 21
4400.0
 31
0.0
  0
LINE
  5
45
  8
0
  6
BYBLOCK
 62
     9
 10
12623.97
 20
3620.0
 30
0.0
 11
12623.97
 21
3917.166667
 31
0.0
  0
LINE
  5
46
  8
0
  6
BYBLOCK
 62
     9
 10
12623.97
 20
4380.0
 30
0.0
 11
12623.97
 21
4082.833333
 31
0.0
  0
SOLID
  5
47
  8
0
  6
BYBLOCK
 62
     9
 10
12620.636667
 20
3620.0
 30
0.0
 11
12627.303333
 21
3620.0
 31
0.0
 12
12623.97
 22
3600.0
 32
0.0
 13
12623.97
 23
3600.0
 33
0.0
  0
SOLID
  5
48
  8
0
  6
BYBLOCK
 62
     9
 10
12620.636667
 20
4380.0
 30
0.0
 11
12627.303333
 21
4380.0
 31
0.0
 12
12623.97
 22
4400.0
 32
0.0
 13
12623.97
 23
4400.0
 33
0.0
  0
TEXT
  5
49
  8
0
  6
BYBLOCK
 62
    11
 10
12641.47
 20
3924.166667
 30
0.0
 40
35.0
  1
800.00
 50
90.0
  0
POINT
  5
4A
  8
DEFPOINTS
  6
BYBLOCK
 62
     0
 10
12400.0
 20
3600.0
 30
0.0
  0
POINT
  5
4B
  8
DEFPOINTS
  6
BYBLOCK
 62
     0
 10
12400.0
 20
4400.0
 30
0.0
  0
POINT
  5
4C
  8
DEFPOINTS
  6
BYBLOCK
 62
     0
 10
12623.97
 20
4400.0
 30
0.0
  0
ENDBLK
  5
4E
  8
0
  0
BLOCK
  8
0
  2
*D1
 70
     1
 10
0.0
 20
0.0
 30
0.0
  3
*D1
  1

  0
LINE
  5
51
  8
0
  6
BYBLOCK
 62
     9
 10
12200.0
 20
3754.186791
 30
0.0
 11
12200.0
 21
3477.448629
 31
0.0
  0
LINE
  5
52
  8
0
  6
BYBLOCK
 62
     9
 10
12400.0
 20
3590.0
 30
0.0
 11
12400.0
 21
3477.448629
 31
0.0
  0
LINE
  5
53
  8
0
  6
BYBLOCK
 62
     9
 10
12180.0
 20
3478.448629
 30
0.0
 11
12160.0
 21
3478.448629
 31
0.0
  0
LINE
  5
54
  8
0
  6
BYBLOCK
 62
     9
 10
12420.0
 20
3478.448629
 30
0.0
 11
12440.0
 21
3478.448629
 31
0.0
  0
SOLID
  5
55
  8
0
  6
BYBLOCK
 62
     9
 10
12180.0
 20
3481.781962
 30
0.0
 11
12180.0
 21
3475.115295
 31
0.0
 12
12200.0
 22
3478.448629
 32
0.0
 13
12200.0
 23
3478.448629
 33
0.0
  0
SOLID
  5
56
  8
0
  6
BYBLOCK
 62
     9
 10
12420.0
 20
3481.781962
 30
0.0
 11
12420.0
 21
3475.115295
 31
0.0
 12
12400.0
 22
3478.448629
 32
0.0
 13
12400.0
 23
3478.448629
 33
0.0
  0
TEXT
  5
57
  8
0
  6
BYBLOCK
 62
    11
 10
12224.166667
 20
3460.948629
 30
0.0
 40
35.0
  1
200.00
  0
POINT
  5
58
  8
DEFPOINTS
  6
BYBLOCK
 62
     0
 10
12200.0
 20
3764.186791
 30
0.0
  0
POINT
  5
59
  8
DEFPOINTS
  6
BYBLOCK
 62
     0
 10
12400.0
 20
3600.0
 30
0.0
  0
POINT
  5
5A
  8
DEFPOINTS
  6
BYBLOCK
 62
     0
 10
12400.0
 20
3478.448629
 30
0.0
  0
ENDBLK
  5
5C
  8
0
  0
BLOCK
  8
0
  2
*D2
 70
     1
 10
0.0
 20
0.0
 30
0.0
  3
*D2
  1

  0
LINE
  5
5F
  8
0
  6
BYBLOCK
 62
     9
 10
12410.0
 20
3600.0
 30
0.0
 11
12512.198041
 21
3600.0
 31
0.0
  0
LINE
  5
60
  8
0
  6
BYBLOCK
 62
     9
 10
12245.102297
 20
3800.0
 30
0.0
 11
12512.198041
 21
3800.0
 31
0.0
  0
LINE
  5
61
  8
0
  6
BYBLOCK
 62
     9
 10
12511.198041
 20
3580.0
 30
0.0
 11
12511.198041
 21
3560.0
 31
0.0
  0
LINE
  5
62
  8
0
  6
BYBLOCK
 62
     9
 10
12511.198041
 20
3820.0
 30
0.0
 11
12511.198041
 21
3840.0
 31
0.0
  0
SOLID
  5
63
  8
0
  6
BYBLOCK
 62
     9
 10
12507.864707
 20
3580.0
 30
0.0
 11
12514.531374
 21
3580.0
 31
0.0
 12
12511.198041
 22
3600.0
 32
0.0
 13
12511.198041
 23
3600.0
 33
0.0
  0
SOLID
  5
64
  8
0
  6
BYBLOCK
 62
     9
 10
12507.864707
 20
3820.0
 30
0.0
 11
12514.531374
 21
3820.0
 31
0.0
 12
12511.198041
 22
3800.0
 32
0.0
 13
12511.198041
 23
3800.0
 33
0.0
  0
TEXT
  5
65
  8
0
  6
BYBLOCK
 62
    11
 10
12528.698041
 20
3624.166667
 30
0.0
 40
35.0
  1
200.00
 50
90.0
  0
POINT
  5
66
  8
DEFPOINTS
  6
BYBLOCK
 62
     0
 10
12400.0
 20
3600.0
 30
0.0
  0
POINT
  5
67
  8
DEFPOINTS
  6
BYBLOCK
 62
     0
 10
12235.102297
 20
3800.0
 30
0.0
  0
POINT
  5
68
  8
DEFPOINTS
  6
BYBLOCK
 62
     0
 10
12511.198041
 20
3800.0
 30
0.0
  0
ENDBLK
  5
6A
  8
0
  0
BLOCK
  8
0
  2
*D3
 70
     1
 10
0.0
 20
0.0
 30
0.0
  3
*D3
  1

  0
LINE
  5
2A
  8
0
  6
BYBLOCK
 62
     9
 10
11600.0
 20
3590.0
 30
0.0
 11
11600.0
 21
3372.045699
 31
0.0
  0
LINE
  5
2B
  8
0
  6
BYBLOCK
 62
     9
 10
12400.0
 20
3590.0
 30
0.0
 11
12400.0
 21
3372.045699
 31
0.0
  0
LINE
  5
2C
  8
0
  6
BYBLOCK
 62
     9
 10
11620.0
 20
3373.045699
 30
0.0
 11
11917.166667
 21
3373.045699
 31
0.0
  0
LINE
  5
2D
  8
0
  6
BYBLOCK
 62
     9
 10
12380.0
 20
3373.045699
 30
0.0
 11
12082.833333
 21
3373.045699
 31
0.0
  0
SOLID
  5
2E
  8
0
  6
BYBLOCK
 62
     9
 10
11620.0
 20
3376.379032
 30
0.0
 11
11620.0
 21
3369.712365
 31
0.0
 12
11600.0
 22
3373.045699
 32
0.0
 13
11600.0
 23
3373.045699
 33
0.0
  0
SOLID
  5
2F
  8
0
  6
BYBLOCK
 62
     9
 10
12380.0
 20
3376.379032
 30
0.0
 11
12380.0
 21
3369.712365
 31
0.0
 12
12400.0
 22
3373.045699
 32
0.0
 13
12400.0
 23
3373.045699
 33
0.0
  0
TEXT
  5
30
  8
0
  6
BYBLOCK
 62
    11
 10
11924.166667
 20
3355.545699
 30
0.0
 40
35.0
  1
800.00
  0
POINT
  5
31
  8
DEFPOINTS
  6
BYBLOCK
 62
     0
 10
11600.0
 20
3600.0
 30
0.0
  0
POINT
  5
33
  8
DEFPOINTS
  6
BYBLOCK
 62
     0
 10
12400.0
 20
3600.0
 30
0.0
  0
POINT
  5
34
  8
DEFPOINTS
  6
BYBLOCK
 62
     0
 10
12400.0
 20
3373.045699
 30
0.0
  0
ENDBLK
  5
36
  8
0
  0
ENDSEC
  0
SECTION
  2
ENTITIES
  0
POLYLINE
  5
20
  8
TEAM-BODY
 66
     1
 10
0.0
 20
0.0
 30
0.0
 70
     1
  0
VERTEX
  5
D1
  8
TEAM-BODY
 10
-265.0
 20
-335.0
 30
0.0
  0
VERTEX
  5
D2
  8
TEAM-BODY
 10
265.0
 20
-335.0
 30
0.0
 42
0.414214
  0
VERTEX
  5
D3
  8
TEAM-BODY
 10
335.0
 20
-265.0
 30
0.0
  0
VERTEX
  5
D4
  8
TEAM-BODY
 10
335.0
 20
265.0
 30
0.0
 42
0.414214
  0
VERTEX
  5
D5
  8
TEAM-BODY
 10
265.0
 20
335.0
 30
0.0
  0
VERTEX
  5
D6
  8
TEAM-BODY
 10
-265.0
 20
335.0
 30
0.0
 42
0.414214
  0
VERTEX
  5
D7
  8
TEAM-BODY
 10
-335.0
 20
265.0
 30
0.0
  0
VERTEX
  5
D8
  8
TEAM-BODY
 10
-335.0
 20
-265.0
 30
0.0
 42
0.414214
  0
SEQEND
  5
D9
  8
TEAM-BODY
  0
POLYLINE
  5
22
  8
TEAM-DET1
 66
     1
 10
0.0
 20
0.0
 30
0.0
 70
     1
  0
VERTEX
  5
DA
  8
TEAM-DET1
 10
-265.0
 20
-305.0
 30
0.0
  0
VERTEX
  5
DB
  8
TEAM-DET1
 10
265.0
 20
-305.0
 30
0.0
 42
0.414214
  0
VERTEX
  5
DC
  8
TEAM-DET1
 10
305.0
 20
-265.0
 30
0.0
  0
VERTEX
  5
DD
  8
TEAM-DET1
 10
305.0
 20
265.0
 30
0.0
 42
0.414214
  0
VERTEX
  5
DE
  8
TEAM-DET1
 10
265.0
 20
305.0
 30
0.0
  0
VERTEX
  5
DF
  8
TEAM-DET1
 10
-265.0
 20
305.0
 30
0.0
 42
0.414214
  0
VERTEX
  5
E0
  8
TEAM-DET1
 10
-305.0
 20
265.0
 30
0.0
  0
VERTEX
  5
E1
  8
TEAM-DET1
 10
-305.0
 20
-265.0
 30
0.0
 42
0.414214
  0
SEQEND
  5
E2
  8
TEAM-DET1
  0
TEXT
  5
24
  8
TEAM-TXT
 10
-292.024229
 20
248.702191
 30
0.0
 40
30.0
  1
team 141201
 41
0.8
 51
15.0
  7
TEAM
  0
POLYLINE
  5
27
  8
TEAM-BODY
 66
     1
 10
0.0
 20
0.0
 30
0.0
 70
     1
  0
VERTEX
  5
E3
  8
TEAM-BODY
 10
-400.0
 20
-400.0
 30
0.0
  0
VERTEX
  5
E4
  8
TEAM-BODY
 10
400.0
 20
-400.0
 30
0.0
  0
VERTEX
  5
E5
  8
TEAM-BODY
 10
400.0
 20
400.0
 30
0.0
  0
VERTEX
  5
E6
  8
TEAM-BODY
 10
-400.0
 20
400.0
 30
0.0
  0
SEQEND
  5
E7
  8
TEAM-BODY
  0
DIMENSION
  5
28
  8
TEAM-MAS
  2
*D3
 10
400.0
 20
-626.954301
 30
0.0
 11
0.0
 21
-626.954301
 31
0.0
 12
-12000.0
 22
-4000.0
 32
0.0
 13
-400.0
 23
-400.0
 33
0.0
 14
400.0
 24
-400.0
 34
0.0
  0
LINE
  5
37
  8
TEAM-AXE
 10
200.0
 20
-200.0
 30
0.0
 11
235.102297
 21
-200.0
 31
0.0
  0
CIRCLE
  5
3A
  8
TEAM-BODY
 10
200.0
 20
-200.0
 30
0.0
 40
20.0
  0
CIRCLE
  5
3B
  8
TEAM-DET1
 10
200.0
 20
-200.0
 30
0.0
 40
25.0
  0
LINE
  5
3C
  8
TEAM-AXE
 10
200.0
 20
-200.0
 30
0.0
 11
164.041369
 21
-200.0
 31
0.0
  0
LINE
  5
3D
  8
TEAM-AXE
 10
200.0
 20
-200.0
 30
0.0
 11
200.0
 21
-235.813209
 31
0.0
  0
LINE
  5
3E
  8
TEAM-AXE
 10
200.0
 20
-200.0
 30
0.0
 11
200.0
 21
-164.787169
 31
0.0
  0
CIRCLE
  5
3F
  8
TEAM-INSP
 10
0.0
 20
0.0
 30
0.0
 40
7.1
  0
DIMENSION
  5
41
  8
TEAM-MAS
  2
*D0
 10
623.97
 20
400.0
 30
0.0
 11
623.97
 21
0.0
 31
0.0
 12
-12000.0
 22
-4000.0
 32
0.0
 13
400.0
 23
-400.0
 33
0.0
 14
400.0
 24
400.0
 34
0.0
 50
90.0
  0
DIMENSION
  5
4F
  8
TEAM-MAS
  2
*D1
 10
400.0
 20
-521.551371
 30
0.0
 11
300.0
 21
-521.551371
 31
0.0
 12
-12000.0
 22
-4000.0
 32
0.0
 13
200.0
 23
-235.813209
 33
0.0
 14
400.0
 24
-400.0
 34
0.0
  0
DIMENSION
  5
5D
  8
TEAM-MAS
  2
*D2
 10
511.198041
 20
-200.0
 30
0.0
 11
511.198041
 21
-300.0
 31
0.0
 12
-12000.0
 22
-4000.0
 32
0.0
 13
400.0
 23
-400.0
 33
0.0
 14
235.102297
 24
-200.0
 34
0.0
 50
90.0
  0
ENDSEC
  0
EOF
