  0
SECTION
  2
HEADER
  9
$ACADVER
  1
AC1009
  9
$INSBASE
 10
0.0
 20
0.0
 30
0.0
  9
$EXTMIN
 10
-402.952339
 20
-66.506828
 30
0.0
  9
$EXTMAX
 10
534.571677
 20
204.799827
 30
0.000005
  9
$LIMMIN
 10
-402.952339
 20
-66.506828
  9
$LIMMAX
 10
534.571677
 20
204.799827
  9
$ORTHOMODE
 70
     1
  9
$REGENMODE
 70
     1
  9
$FILLMODE
 70
     1
  9
$QTEXTMODE
 70
     0
  9
$MIRRTEXT
 70
     0
  9
$DRAGMODE
 70
     2
  9
$LTSCALE
 40
50.0
  9
$OSMODE
 70
     0
  9
$ATTMODE
 70
     1
  9
$TEXTSIZE
 40
200.0
  9
$TRACEWID
 40
1.0
  9
$TEXTSTYLE
  7
STANDARD
  9
$CLAYER
  8
TEAM-MAS
  9
$CELTYPE
  6
BYLAYER
  9
$CECOLOR
 62
   256
  9
$DIMSCALE
 40
0.0
  9
$DIMASZ
 40
20.0
  9
$DIMEXO
 40
10.0
  9
$DIMDLI
 40
1.0
  9
$DIMRND
 40
0.0
  9
$DIMDLE
 40
0.0
  9
$DIMEXE
 40
1.0
  9
$DIMTP
 40
0.0
  9
$DIMTM
 40
0.0
  9
$DIMTXT
 40
35.0
  9
$DIMCEN
 40
1.0
  9
$DIMTSZ
 40
0.0
  9
$DIMTOL
 70
     0
  9
$DIMLIM
 70
     0
  9
$DIMTIH
 70
     0
  9
$DIMTOH
 70
     0
  9
$DIMSE1
 70
     0
  9
$DIMSE2
 70
     0
  9
$DIMTAD
 70
     0
  9
$DIMZIN
 70
     0
  9
$DIMBLK
  1

  9
$DIMASO
 70
     1
  9
$DIMSHO
 70
     0
  9
$DIMPOST
  1

  9
$DIMAPOST
  1

  9
$DIMALT
 70
     0
  9
$DIMALTD
 70
     2
  9
$DIMALTF
 40
25.4
  9
$DIMLFAC
 40
1.0
  9
$DIMTOFL
 70
     0
  9
$DIMTVP
 40
0.0
  9
$DIMTIX
 70
     0
  9
$DIMSOXD
 70
     0
  9
$DIMSAH
 70
     0
  9
$DIMBLK1
  1

  9
$DIMBLK2
  1

  9
$DIMSTYLE
  2
TEAM
  9
$DIMCLRD
 70
     9
  9
$DIMCLRE
 70
     9
  9
$DIMCLRT
 70
    11
  9
$DIMTFAC
 40
1.0
  9
$DIMGAP
 40
7.0
  9
$LUNITS
 70
     2
  9
$LUPREC
 70
     1
  9
$SKETCHINC
 40
1.0
  9
$FILLETRAD
 40
30.0
  9
$AUNITS
 70
     0
  9
$AUPREC
 70
     0
  9
$MENU
  1
ROPLANS
  9
$ELEVATION
 40
0.0
  9
$PELEVATION
 40
0.0
  9
$THICKNESS
 40
0.0
  9
$LIMCHECK
 70
     0
  9
$BLIPMODE
 70
     1
  9
$CHAMFERA
 40
0.0
  9
$CHAMFERB
 40
0.0
  9
$SKPOLY
 70
     0
  9
$TDCREATE
 40
2450392.957851
  9
$TDUPDATE
 40
2457897.615079
  9
$TDINDWG
 40
2.270104
  9
$TDUSRTIMER
 40
2.270104
  9
$USRTIMER
 70
     1
  9
$ANGBASE
 50
0.0
  9
$ANGDIR
 70
     0
  9
$PDMODE
 70
     0
  9
$PDSIZE
 40
0.0
  9
$PLINEWID
 40
0.0
  9
$COORDS
 70
     2
  9
$SPLFRAME
 70
     0
  9
$SPLINETYPE
 70
     6
  9
$SPLINESEGS
 70
     8
  9
$ATTDIA
 70
     0
  9
$ATTREQ
 70
     0
  9
$HANDLING
 70
     1
  9
$HANDSEED
  5
91
  9
$SURFTAB1
 70
    36
  9
$SURFTAB2
 70
    36
  9
$SURFTYPE
 70
     6
  9
$SURFU
 70
     6
  9
$SURFV
 70
     6
  9
$UCSNAME
  2

  9
$UCSORG
 10
0.0
 20
0.0
 30
0.0
  9
$UCSXDIR
 10
1.0
 20
0.0
 30
0.0
  9
$UCSYDIR
 10
0.0
 20
1.0
 30
0.0
  9
$PUCSNAME
  2

  9
$PUCSORG
 10
0.0
 20
0.0
 30
0.0
  9
$PUCSXDIR
 10
1.0
 20
0.0
 30
0.0
  9
$PUCSYDIR
 10
0.0
 20
1.0
 30
0.0
  9
$USERI1
 70
     0
  9
$USERI2
 70
     0
  9
$USERI3
 70
     0
  9
$USERI4
 70
     0
  9
$USERI5
 70
     0
  9
$USERR1
 40
0.0
  9
$USERR2
 40
0.0
  9
$USERR3
 40
0.0
  9
$USERR4
 40
0.0
  9
$USERR5
 40
0.0
  9
$WORLDVIEW
 70
     1
  9
$SHADEDGE
 70
     0
  9
$SHADEDIF
 70
    70
  9
$TILEMODE
 70
     1
  9
$MAXACTVP
 70
    16
  9
$PLIMCHECK
 70
     0
  9
$PEXTMIN
 10
-0.805942
 20
0.005011
 30
0.0
  9
$PEXTMAX
 10
20.250094
 20
11.356329
 30
0.0
  9
$PLIMMIN
 10
0.0
 20
0.0
  9
$PLIMMAX
 10
12.0
 20
9.0
  9
$UNITMODE
 70
     0
  9
$VISRETAIN
 70
     0
  9
$PLINEGEN
 70
     0
  9
$PSLTSCALE
 70
     0
  0
ENDSEC
  0
SECTION
  2
TABLES
  0
TABLE
  2
VPORT
 70
     2
  0
VPORT
  2
*ACTIVE
 70
     0
 10
0.0
 20
0.0
 11
1.0
 21
1.0
 12
65.809669
 22
69.1465
 13
0.0
 23
0.0
 14
1.0
 24
1.0
 15
50.0
 25
50.0
 16
0.0
 26
0.0
 36
1.0
 17
0.0
 27
0.0
 37
0.0
 40
498.730852
 41
1.88601
 42
50.0
 43
0.0
 44
0.0
 50
0.0
 51
0.0
 71
     0
 72
   100
 73
     1
 74
     1
 75
     0
 76
     0
 77
     0
 78
     0
  0
ENDTAB
  0
TABLE
  2
LTYPE
 70
     2
  0
LTYPE
  2
CONTINUOUS
 70
     0
  3
Solid Line
 72
    65
 73
     0
 40
0.0
  0
LTYPE
  2
31
 70
     0
  3

 72
    65
 73
     4
 40
2.1
 49
1.5
 49
-0.3
 49
0.0
 49
-0.3
  0
ENDTAB
  0
TABLE
  2
LAYER
 70
     8
  0
LAYER
  2
0
 70
     0
 62
     7
  6
CONTINUOUS
  0
LAYER
  2
DEFPOINTS
 70
     0
 62
     7
  6
CONTINUOUS
  0
LAYER
  2
TEAM-BODY
 70
     0
 62
     2
  6
CONTINUOUS
  0
LAYER
  2
TEAM-AXE
 70
     0
 62
    10
  6
31
  0
LAYER
  2
TEAM-MAS
 70
     0
 62
     9
  6
CONTINUOUS
  0
LAYER
  2
TEAM-TXT
 70
     0
 62
    11
  6
CONTINUOUS
  0
LAYER
  2
TEAM-DET1
 70
     0
 62
     4
  6
CONTINUOUS
  0
LAYER
  2
TEAM-INSP
 70
     0
 62
     5
  6
CONTINUOUS
  0
ENDTAB
  0
TABLE
  2
STYLE
 70
     2
  0
STYLE
  2
STANDARD
 70
     0
 40
0.0
 41
1.0
 50
0.0
 71
     0
 42
200.0
  3
txt
  4

  0
STYLE
  2
TEAM
 70
     0
 40
0.0
 41
0.8
 50
15.0
 71
     0
 42
7.0
  3
ROMANS.shx
  4

  0
ENDTAB
  0
TABLE
  2
VIEW
 70
     0
  0
ENDTAB
  0
TABLE
  2
UCS
 70
     0
  0
ENDTAB
  0
TABLE
  2
APPID
 70
     1
  0
APPID
  2
ACAD
 70
     0
  0
ENDTAB
  0
TABLE
  2
DIMSTYLE
 70
     1
  0
DIMSTYLE
  2
TEAM
 70
     0
  3

  4

  5

  6

  7

 40
0.0
 41
20.0
 42
10.0
 43
1.0
 44
1.0
 45
0.0
 46
0.0
 47
0.0
 48
0.0
140
35.0
141
1.0
142
0.0
143
25.4
144
1.0
145
0.0
146
1.0
147
7.0
 71
     0
 72
     0
 73
     0
 74
     0
 75
     0
 76
     0
 77
     0
 78
     0
170
     0
171
     2
172
     0
173
     0
174
     0
175
     0
176
     9
177
     9
178
    11
  0
ENDTAB
  0
ENDSEC
  0
SECTION
  2
BLOCKS
  0
BLOCK
  8
0
  2
$MODEL_SPACE
 70
     0
 10
0.0
 20
0.0
 30
0.0
  3
$MODEL_SPACE
  1

  0
ENDBLK
  5
8A
  8
0
  0
BLOCK
 67
     1
  8
0
  2
$PAPER_SPACE
 70
     0
 10
0.0
 20
0.0
 30
0.0
  3
$PAPER_SPACE
  1

  0
ENDBLK
  5
88
 67
     1
  8
0
  0
BLOCK
  8
0
  2
*D0
 70
     1
 10
0.0
 20
0.0
 30
0.0
  3
*D0
  1

  0
LINE
  5
37
  8
0
  6
BYBLOCK
 62
     9
 10
8396.0
 20
8201.88
 30
0.0
 11
8489.031399
 21
8201.88
 31
0.0
  0
LINE
  5
38
  8
0
  6
BYBLOCK
 62
     9
 10
8245.0
 20
8061.879853
 30
0.0
 11
8489.031399
 21
8061.879853
 31
0.0
  0
LINE
  5
39
  8
0
  6
BYBLOCK
 62
     9
 10
8488.031399
 20
8181.88
 30
0.0
 11
8488.031399
 21
8081.879853
 31
0.0
  0
TEXT
  5
3A
  8
0
  6
BYBLOCK
 62
    11
 10
8534.531399
 20
8058.96326
 30
0.0
 40
35.0
  1
140.00
 50
90.0
  0
SOLID
  5
3B
  8
0
  6
BYBLOCK
 62
     9
 10
8484.698065
 20
8181.88
 30
0.0
 11
8491.364732
 21
8181.88
 31
0.0
 12
8488.031399
 22
8201.88
 32
0.0
 13
8488.031399
 23
8201.88
 33
0.0
  0
SOLID
  5
3C
  8
0
  6
BYBLOCK
 62
     9
 10
8484.698065
 20
8081.879853
 30
0.0
 11
8491.364732
 21
8081.879853
 31
0.0
 12
8488.031399
 22
8061.879853
 32
0.0
 13
8488.031399
 23
8061.879853
 33
0.0
  0
POINT
  5
3D
  8
DEFPOINTS
  6
BYBLOCK
 62
     0
 10
8386.0
 20
8201.88
 30
0.0
  0
POINT
  5
3F
  8
DEFPOINTS
  6
BYBLOCK
 62
     0
 10
8235.0
 20
8061.879853
 30
0.0
  0
POINT
  5
40
  8
DEFPOINTS
  6
BYBLOCK
 62
     0
 10
8488.031399
 20
8061.879853
 30
0.0
  0
ENDBLK
  5
42
  8
0
  0
BLOCK
  8
0
  2
*D1
 70
     1
 10
0.0
 20
0.0
 30
0.0
  3
*D1
  1

  0
LINE
  5
4D
  8
0
  6
BYBLOCK
 62
     9
 10
185.0
 20
8040.0
 30
0.0
 11
185.0
 21
7979.0
 31
0.0
  0
LINE
  5
4E
  8
0
  6
BYBLOCK
 62
     9
 10
235.0
 20
8040.0
 30
0.0
 11
235.0
 21
7979.0
 31
0.0
  0
LINE
  5
4F
  8
0
  6
BYBLOCK
 62
     9
 10
165.0
 20
7980.0
 30
0.0
 11
145.0
 21
7980.0
 31
0.0
  0
LINE
  5
50
  8
0
  6
BYBLOCK
 62
     9
 10
255.0
 20
7980.0
 30
0.0
 11
275.0
 21
7980.0
 31
0.0
  0
TEXT
  5
51
  8
0
  6
BYBLOCK
 62
    11
 10
180.833333
 20
7933.5
 30
0.0
 40
35.0
  1
52
  0
LINE
  5
52
  8
0
  6
BYBLOCK
 62
     9
 10
185.0
 20
7980.0
 30
0.0
 11
235.0
 21
7980.0
 31
0.0
  0
SOLID
  5
53
  8
0
  6
BYBLOCK
 62
     9
 10
165.0
 20
7983.333333
 30
0.0
 11
165.0
 21
7976.666667
 31
0.0
 12
185.0
 22
7980.0
 32
0.0
 13
185.0
 23
7980.0
 33
0.0
  0
SOLID
  5
54
  8
0
  6
BYBLOCK
 62
     9
 10
255.0
 20
7983.333333
 30
0.0
 11
255.0
 21
7976.666667
 31
0.0
 12
235.0
 22
7980.0
 32
0.0
 13
235.0
 23
7980.0
 33
0.0
  0
POINT
  5
55
  8
DEFPOINTS
  6
BYBLOCK
 62
     0
 10
185.0
 20
8050.0
 30
0.0
  0
POINT
  5
56
  8
DEFPOINTS
  6
BYBLOCK
 62
     0
 10
235.0
 20
8050.0
 30
0.0
  0
POINT
  5
57
  8
DEFPOINTS
  6
BYBLOCK
 62
     0
 10
235.0
 20
7980.0
 30
0.0
  0
ENDBLK
  5
59
  8
0
  0
ENDSEC
  0
SECTION
  2
ENTITIES
  0
ARC
  5
20
  8
TEAM-BODY
 10
290.410892
 20
73.889042
 30
0.0
 40
14.0
 50
268.630003
 51
347.715534
  0
ARC
  5
22
  8
TEAM-BODY
 10
343.477255
 20
187.88
 30
0.0
 40
14.0
 50
90.0
 51
168.690068
  0
LINE
  5
23
  8
TEAM-DET1
 10
400.0
 20
186.88
 30
0.0
 11
328.93351
 21
186.88
 31
0.0
  0
LINE
  5
25
  8
TEAM-BODY
 10
329.749125
 20
190.625626
 30
0.0
 11
304.090338
 21
70.910325
 31
0.0
  0
LINE
  5
26
  8
TEAM-BODY
 10
343.477255
 20
201.88
 30
0.0
 11
386.0
 21
201.88
 31
0.0
  0
LINE
  5
27
  8
TEAM-DET1
 10
-343.477255
 20
201.88
 30
0.0
 11
343.477255
 21
201.88
 31
0.0
  0
LINE
  5
28
  8
TEAM-BODY
 10
-290.622569
 20
75.120024
 30
0.0
 11
290.07617
 21
59.893044
 31
0.0
  0
ARC
  5
29
  8
TEAM-BODY
 10
-290.287847
 20
89.116022
 30
0.0
 40
14.0
 50
194.100605
 51
268.630003
  0
TEXT
  5
2A
  8
TEAM-TXT
 10
-297.905314
 20
145.782403
 30
0.0
 40
30.0
  1
team 141201
 41
0.8
 51
15.0
  7
TEAM
  0
LINE
  5
2D
  8
TEAM-BODY
 10
-386.0
 20
201.88
 30
0.0
 11
-343.477255
 21
201.88
 31
0.0
  0
LINE
  5
2E
  8
TEAM-DET1
 10
-400.0
 20
186.88
 30
0.0
 11
-328.808247
 21
186.88
 31
0.0
  0
ARC
  5
2F
  8
TEAM-BODY
 10
-343.477255
 20
187.88
 30
0.0
 40
14.0
 50
11.309932
 51
90.0
  0
LINE
  5
30
  8
TEAM-BODY
 10
-329.749125
 20
190.625626
 30
0.0
 11
-303.866019
 21
85.705268
 31
0.0
  0
LINE
  5
31
  8
TEAM-BODY
 10
400.0
 20
187.88
 30
0.0
 11
400.0
 21
186.88
 31
0.0
  0
ARC
  5
32
  8
TEAM-BODY
 10
386.0
 20
187.88
 30
0.0
 40
14.0
 50
0.0
 51
90.0
  0
LINE
  5
33
  8
TEAM-BODY
 10
-400.0
 20
187.88
 30
0.0
 11
-400.0
 21
186.88
 31
0.0
  0
ARC
  5
34
  8
TEAM-BODY
 10
-386.0
 20
187.88
 30
0.0
 40
14.0
 50
90.0
 51
180.0
  0
DIMENSION
  5
35
  8
TEAM-MAS
  2
*D0
 10
488.031399
 20
61.879853
 30
0.0
 11
517.031399
 21
131.879927
 31
0.0
 12
-8000.0
 22
-8000.0
 32
0.0
 13
386.0
 23
201.88
 33
0.0
 14
235.0
 24
61.879853
 34
0.0
 50
90.0
  0
LINE
  5
43
  8
TEAM-DET1
 10
235.0
 20
61.879853
 30
0.0
 11
235.0
 21
50.0
 31
0.0
  0
LINE
  5
44
  8
TEAM-DET1
 10
185.0
 20
63.075629
 30
0.0
 11
185.0
 21
50.0
 31
0.0
  0
LINE
  5
45
  8
TEAM-AXE
 10
210.0
 20
74.619397
 30
0.0
 11
210.0
 21
38.806188
 31
0.0
  0
LINE
  5
48
  8
TEAM-DET1
 10
185.0
 20
50.0
 30
0.0
 11
235.0
 21
50.0
 31
0.0
  0
CIRCLE
  5
49
  8
TEAM-INSP
 10
0.0
 20
0.0
 30
0.0
 40
7.1
  0
DIMENSION
  5
4B
  8
TEAM-MAS
  2
*D1
 10
235.0
 20
-20.0
 30
0.0
 11
210.0
 21
-49.0
 31
0.0
 12
0.0
 22
-8000.0
 32
0.0
  1
52
 13
185.0
 23
50.0
 33
0.0
 14
235.0
 24
50.0
 34
0.0
  0
ENDSEC
  0
EOF
