  0
SECTION
  2
HEADER
  9
$ACADVER
  1
AC1009
  9
$INSBASE
 10
0.0
 20
0.0
 30
0.0
  9
$EXTMIN
 10
-459.269306
 20
-450.889647
 30
0.0
  9
$EXTMAX
 10
456.926718
 20
453.784028
 30
0.0
  9
$LIMMIN
 10
-459.269306
 20
-450.889647
  9
$LIMMAX
 10
456.926718
 20
453.784028
  9
$ORTHOMODE
 70
     1
  9
$REGENMODE
 70
     1
  9
$FILLMODE
 70
     1
  9
$QTEXTMODE
 70
     0
  9
$MIRRTEXT
 70
     0
  9
$DRAGMODE
 70
     2
  9
$LTSCALE
 40
25.0
  9
$OSMODE
 70
     0
  9
$ATTMODE
 70
     1
  9
$TEXTSIZE
 40
200.0
  9
$TRACEWID
 40
1.0
  9
$TEXTSTYLE
  7
STANDARD
  9
$CLAYER
  8
TEAM-MAS
  9
$CELTYPE
  6
BYLAYER
  9
$CECOLOR
 62
   256
  9
$DIMSCALE
 40
0.0
  9
$DIMASZ
 40
20.0
  9
$DIMEXO
 40
10.0
  9
$DIMDLI
 40
1.0
  9
$DIMRND
 40
0.0
  9
$DIMDLE
 40
0.0
  9
$DIMEXE
 40
1.0
  9
$DIMTP
 40
0.0
  9
$DIMTM
 40
0.0
  9
$DIMTXT
 40
35.0
  9
$DIMCEN
 40
1.0
  9
$DIMTSZ
 40
0.0
  9
$DIMTOL
 70
     0
  9
$DIMLIM
 70
     0
  9
$DIMTIH
 70
     0
  9
$DIMTOH
 70
     0
  9
$DIMSE1
 70
     0
  9
$DIMSE2
 70
     0
  9
$DIMTAD
 70
     0
  9
$DIMZIN
 70
     0
  9
$DIMBLK
  1

  9
$DIMASO
 70
     1
  9
$DIMSHO
 70
     0
  9
$DIMPOST
  1

  9
$DIMAPOST
  1

  9
$DIMALT
 70
     0
  9
$DIMALTD
 70
     2
  9
$DIMALTF
 40
25.4
  9
$DIMLFAC
 40
1.0
  9
$DIMTOFL
 70
     0
  9
$DIMTVP
 40
0.0
  9
$DIMTIX
 70
     0
  9
$DIMSOXD
 70
     0
  9
$DIMSAH
 70
     0
  9
$DIMBLK1
  1

  9
$DIMBLK2
  1

  9
$DIMSTYLE
  2
TEAM
  9
$DIMCLRD
 70
     9
  9
$DIMCLRE
 70
     9
  9
$DIMCLRT
 70
    11
  9
$DIMTFAC
 40
1.0
  9
$DIMGAP
 40
15.0
  9
$LUNITS
 70
     2
  9
$LUPREC
 70
     1
  9
$SKETCHINC
 40
1.0
  9
$FILLETRAD
 40
50.0
  9
$AUNITS
 70
     0
  9
$AUPREC
 70
     0
  9
$MENU
  1
ROPLANS
  9
$ELEVATION
 40
0.0
  9
$PELEVATION
 40
0.0
  9
$THICKNESS
 40
0.0
  9
$LIMCHECK
 70
     0
  9
$BLIPMODE
 70
     1
  9
$CHAMFERA
 40
0.0
  9
$CHAMFERB
 40
0.0
  9
$SKPOLY
 70
     0
  9
$TDCREATE
 40
2450392.957851
  9
$TDUPDATE
 40
2455624.975275
  9
$TDINDWG
 40
1.977011
  9
$TDUSRTIMER
 40
1.977011
  9
$USRTIMER
 70
     1
  9
$ANGBASE
 50
0.0
  9
$ANGDIR
 70
     0
  9
$PDMODE
 70
     0
  9
$PDSIZE
 40
0.0
  9
$PLINEWID
 40
0.0
  9
$COORDS
 70
     2
  9
$SPLFRAME
 70
     0
  9
$SPLINETYPE
 70
     6
  9
$SPLINESEGS
 70
     8
  9
$ATTDIA
 70
     0
  9
$ATTREQ
 70
     0
  9
$HANDLING
 70
     1
  9
$HANDSEED
  5
EB
  9
$SURFTAB1
 70
    36
  9
$SURFTAB2
 70
    36
  9
$SURFTYPE
 70
     6
  9
$SURFU
 70
     6
  9
$SURFV
 70
     6
  9
$UCSNAME
  2

  9
$UCSORG
 10
0.0
 20
0.0
 30
0.0
  9
$UCSXDIR
 10
1.0
 20
0.0
 30
0.0
  9
$UCSYDIR
 10
0.0
 20
1.0
 30
0.0
  9
$PUCSNAME
  2

  9
$PUCSORG
 10
0.0
 20
0.0
 30
0.0
  9
$PUCSXDIR
 10
1.0
 20
0.0
 30
0.0
  9
$PUCSYDIR
 10
0.0
 20
1.0
 30
0.0
  9
$USERI1
 70
     0
  9
$USERI2
 70
     0
  9
$USERI3
 70
     0
  9
$USERI4
 70
     0
  9
$USERI5
 70
     0
  9
$USERR1
 40
0.0
  9
$USERR2
 40
0.0
  9
$USERR3
 40
0.0
  9
$USERR4
 40
0.0
  9
$USERR5
 40
0.0
  9
$WORLDVIEW
 70
     1
  9
$SHADEDGE
 70
     0
  9
$SHADEDIF
 70
    70
  9
$TILEMODE
 70
     1
  9
$MAXACTVP
 70
    16
  9
$PLIMCHECK
 70
     0
  9
$PEXTMIN
 10
-0.805942
 20
0.005011
 30
0.0
  9
$PEXTMAX
 10
20.250094
 20
11.356329
 30
0.0
  9
$PLIMMIN
 10
0.0
 20
0.0
  9
$PLIMMAX
 10
12.0
 20
9.0
  9
$UNITMODE
 70
     0
  9
$VISRETAIN
 70
     0
  9
$PLINEGEN
 70
     0
  9
$PSLTSCALE
 70
     0
  0
ENDSEC
  0
SECTION
  2
TABLES
  0
TABLE
  2
VPORT
 70
     2
  0
VPORT
  2
*ACTIVE
 70
     0
 10
0.0
 20
0.0
 11
1.0
 21
1.0
 12
-1.171294
 22
1.447191
 13
0.0
 23
0.0
 14
1.0
 24
1.0
 15
50.0
 25
50.0
 16
0.0
 26
0.0
 36
1.0
 17
0.0
 27
0.0
 37
0.0
 40
910.229501
 41
1.865779
 42
50.0
 43
0.0
 44
0.0
 50
0.0
 51
0.0
 71
     0
 72
   100
 73
     1
 74
     1
 75
     0
 76
     0
 77
     0
 78
     0
  0
ENDTAB
  0
TABLE
  2
LTYPE
 70
     2
  0
LTYPE
  2
CONTINUOUS
 70
     0
  3
Solid Line
 72
    65
 73
     0
 40
0.0
  0
LTYPE
  2
31
 70
     0
  3

 72
    65
 73
     4
 40
2.1
 49
1.5
 49
-0.3
 49
0.0
 49
-0.3
  0
ENDTAB
  0
TABLE
  2
LAYER
 70
     8
  0
LAYER
  2
0
 70
     0
 62
     7
  6
CONTINUOUS
  0
LAYER
  2
DEFPOINTS
 70
     0
 62
     7
  6
CONTINUOUS
  0
LAYER
  2
TEAM-BODY
 70
     0
 62
     2
  6
CONTINUOUS
  0
LAYER
  2
TEAM-AXE
 70
     0
 62
    10
  6
31
  0
LAYER
  2
TEAM-MAS
 70
     0
 62
     9
  6
CONTINUOUS
  0
LAYER
  2
TEAM-TXT
 70
     0
 62
    11
  6
CONTINUOUS
  0
LAYER
  2
TEAM-DET1
 70
     0
 62
     4
  6
CONTINUOUS
  0
LAYER
  2
TEAM-INSP
 70
     0
 62
     5
  6
CONTINUOUS
  0
ENDTAB
  0
TABLE
  2
STYLE
 70
     2
  0
STYLE
  2
STANDARD
 70
     0
 40
0.0
 41
1.0
 50
0.0
 71
     0
 42
200.0
  3
txt
  4

  0
STYLE
  2
TEAM
 70
     0
 40
0.0
 41
0.8
 50
15.0
 71
     0
 42
7.0
  3
ROMANS.shx
  4

  0
ENDTAB
  0
TABLE
  2
VIEW
 70
     0
  0
ENDTAB
  0
TABLE
  2
UCS
 70
     0
  0
ENDTAB
  0
TABLE
  2
APPID
 70
     1
  0
APPID
  2
ACAD
 70
     0
  0
ENDTAB
  0
TABLE
  2
DIMSTYLE
 70
     1
  0
DIMSTYLE
  2
TEAM
 70
     0
  3

  4

  5

  6

  7

 40
0.0
 41
20.0
 42
10.0
 43
1.0
 44
1.0
 45
0.0
 46
0.0
 47
0.0
 48
0.0
140
35.0
141
1.0
142
0.0
143
25.4
144
1.0
145
0.0
146
1.0
147
15.0
 71
     0
 72
     0
 73
     0
 74
     0
 75
     0
 76
     0
 77
     0
 78
     0
170
     0
171
     2
172
     0
173
     0
174
     0
175
     0
176
     9
177
     9
178
    11
  0
ENDTAB
  0
ENDSEC
  0
SECTION
  2
BLOCKS
  0
BLOCK
  8
0
  2
$MODEL_SPACE
 70
     0
 10
0.0
 20
0.0
 30
0.0
  3
$MODEL_SPACE
  1

  0
ENDBLK
  5
E4
  8
0
  0
BLOCK
 67
     1
  8
0
  2
$PAPER_SPACE
 70
     0
 10
0.0
 20
0.0
 30
0.0
  3
$PAPER_SPACE
  1

  0
ENDBLK
  5
E2
 67
     1
  8
0
  0
BLOCK
  8
0
  2
*D0
 70
     1
 10
0.0
 20
0.0
 30
0.0
  3
*D0
  1

  0
LINE
  5
22
  8
0
  6
BYBLOCK
 62
     9
 10
3610.0
 20
400.0
 30
0.0
 11
3555.525372
 21
400.0
 31
0.0
  0
LINE
  5
23
  8
0
  6
BYBLOCK
 62
     9
 10
3610.0
 20
-400.0
 30
0.0
 11
3555.525372
 21
-400.0
 31
0.0
  0
LINE
  5
24
  8
0
  6
BYBLOCK
 62
     9
 10
3556.525372
 20
380.0
 30
0.0
 11
3556.525372
 21
46.51378
 31
0.0
  0
LINE
  5
25
  8
0
  6
BYBLOCK
 62
     9
 10
3556.525372
 20
-380.0
 30
0.0
 11
3556.525372
 21
-46.51378
 31
0.0
  0
SOLID
  5
26
  8
0
  6
BYBLOCK
 62
     9
 10
3553.192039
 20
380.0
 30
0.0
 11
3559.858706
 21
380.0
 31
0.0
 12
3556.525372
 22
400.0
 32
0.0
 13
3556.525372
 23
400.0
 33
0.0
  0
SOLID
  5
27
  8
0
  6
BYBLOCK
 62
     9
 10
3553.192039
 20
-380.0
 30
0.0
 11
3559.858706
 21
-380.0
 31
0.0
 12
3556.525372
 22
-400.0
 32
0.0
 13
3556.525372
 23
-400.0
 33
0.0
  0
TEXT
  5
28
  8
0
  6
BYBLOCK
 62
    11
 10
3574.025372
 20
-36.76378
 30
0.0
 40
35.0
  1
800
 50
90.0
  0
POINT
  5
29
  8
DEFPOINTS
  6
BYBLOCK
 62
     0
 10
3620.0
 20
400.0
 30
0.0
  0
POINT
  5
2B
  8
DEFPOINTS
  6
BYBLOCK
 62
     0
 10
3620.0
 20
-400.0
 30
0.0
  0
POINT
  5
2C
  8
DEFPOINTS
  6
BYBLOCK
 62
     0
 10
3556.525372
 20
-400.0
 30
0.0
  0
ENDBLK
  5
2E
  8
0
  0
BLOCK
  8
0
  2
*D1
 70
     1
 10
0.0
 20
0.0
 30
0.0
  3
*D1
  1

  0
LINE
  5
65
  8
0
  6
BYBLOCK
 62
     9
 10
3600.0
 20
390.0
 30
0.0
 11
3600.0
 21
438.956006
 31
0.0
  0
LINE
  5
66
  8
0
  6
BYBLOCK
 62
     9
 10
4400.0
 20
390.0
 30
0.0
 11
4400.0
 21
438.956006
 31
0.0
  0
LINE
  5
67
  8
0
  6
BYBLOCK
 62
     9
 10
3620.0
 20
437.956006
 30
0.0
 11
3953.48622
 21
437.956006
 31
0.0
  0
LINE
  5
68
  8
0
  6
BYBLOCK
 62
     9
 10
4380.0
 20
437.956006
 30
0.0
 11
4046.51378
 21
437.956006
 31
0.0
  0
SOLID
  5
69
  8
0
  6
BYBLOCK
 62
     9
 10
3620.0
 20
441.28934
 30
0.0
 11
3620.0
 21
434.622673
 31
0.0
 12
3600.0
 22
437.956006
 32
0.0
 13
3600.0
 23
437.956006
 33
0.0
  0
SOLID
  5
6A
  8
0
  6
BYBLOCK
 62
     9
 10
4380.0
 20
441.28934
 30
0.0
 11
4380.0
 21
434.622673
 31
0.0
 12
4400.0
 22
437.956006
 32
0.0
 13
4400.0
 23
437.956006
 33
0.0
  0
TEXT
  5
6B
  8
0
  6
BYBLOCK
 62
    11
 10
3963.23622
 20
420.456006
 30
0.0
 40
35.0
  1
800
  0
POINT
  5
6C
  8
DEFPOINTS
  6
BYBLOCK
 62
     0
 10
3600.0
 20
380.0
 30
0.0
  0
POINT
  5
6D
  8
DEFPOINTS
  6
BYBLOCK
 62
     0
 10
4400.0
 20
380.0
 30
0.0
  0
POINT
  5
6E
  8
DEFPOINTS
  6
BYBLOCK
 62
     0
 10
4400.0
 20
437.956006
 30
0.0
  0
ENDBLK
  5
70
  8
0
  0
BLOCK
  8
0
  2
*D2
 70
     1
 10
0.0
 20
0.0
 30
0.0
  3
*D2
  1

  0
LINE
  5
48
  8
0
  6
BYBLOCK
 62
     9
 10
4400.0
 20
-390.0
 30
0.0
 11
4400.0
 21
-436.064959
 31
0.0
  0
LINE
  5
49
  8
0
  6
BYBLOCK
 62
     9
 10
4200.0
 20
-280.0
 30
0.0
 11
4200.0
 21
-436.064959
 31
0.0
  0
LINE
  5
4A
  8
0
  6
BYBLOCK
 62
     9
 10
4380.0
 20
-435.064959
 30
0.0
 11
4346.958169
 21
-435.064959
 31
0.0
  0
LINE
  5
4B
  8
0
  6
BYBLOCK
 62
     9
 10
4220.0
 20
-435.064959
 30
0.0
 11
4253.041831
 21
-435.064959
 31
0.0
  0
SOLID
  5
4C
  8
0
  6
BYBLOCK
 62
     9
 10
4380.0
 20
-431.731626
 30
0.0
 11
4380.0
 21
-438.398292
 31
0.0
 12
4400.0
 22
-435.064959
 32
0.0
 13
4400.0
 23
-435.064959
 33
0.0
  0
SOLID
  5
4D
  8
0
  6
BYBLOCK
 62
     9
 10
4220.0
 20
-431.731626
 30
0.0
 11
4220.0
 21
-438.398292
 31
0.0
 12
4200.0
 22
-435.064959
 32
0.0
 13
4200.0
 23
-435.064959
 33
0.0
  0
TEXT
  5
4E
  8
0
  6
BYBLOCK
 62
    11
 10
4263.68061
 20
-452.564959
 30
0.0
 40
35.0
  1
200
  0
POINT
  5
4F
  8
DEFPOINTS
  6
BYBLOCK
 62
     0
 10
4400.0
 20
-380.0
 30
0.0
  0
POINT
  5
50
  8
DEFPOINTS
  6
BYBLOCK
 62
     0
 10
4200.0
 20
-270.0
 30
0.0
  0
POINT
  5
51
  8
DEFPOINTS
  6
BYBLOCK
 62
     0
 10
4200.0
 20
-435.064959
 30
0.0
  0
ENDBLK
  5
53
  8
0
  0
BLOCK
  8
0
  2
*D3
 70
     1
 10
0.0
 20
0.0
 30
0.0
  3
*D3
  1

  0
LINE
  5
3A
  8
0
  6
BYBLOCK
 62
     9
 10
4280.0
 20
-200.0
 30
0.0
 11
4442.137407
 21
-200.0
 31
0.0
  0
LINE
  5
3B
  8
0
  6
BYBLOCK
 62
     9
 10
4390.0
 20
-400.0
 30
0.0
 11
4442.137407
 21
-400.0
 31
0.0
  0
LINE
  5
3C
  8
0
  6
BYBLOCK
 62
     9
 10
4441.137407
 20
-220.0
 30
0.0
 11
4441.137407
 21
-253.041831
 31
0.0
  0
LINE
  5
3D
  8
0
  6
BYBLOCK
 62
     9
 10
4441.137407
 20
-380.0
 30
0.0
 11
4441.137407
 21
-346.958169
 31
0.0
  0
SOLID
  5
3E
  8
0
  6
BYBLOCK
 62
     9
 10
4437.804074
 20
-220.0
 30
0.0
 11
4444.47074
 21
-220.0
 31
0.0
 12
4441.137407
 22
-200.0
 32
0.0
 13
4441.137407
 23
-200.0
 33
0.0
  0
SOLID
  5
3F
  8
0
  6
BYBLOCK
 62
     9
 10
4437.804074
 20
-380.0
 30
0.0
 11
4444.47074
 21
-380.0
 31
0.0
 12
4441.137407
 22
-400.0
 32
0.0
 13
4441.137407
 23
-400.0
 33
0.0
  0
TEXT
  5
40
  8
0
  6
BYBLOCK
 62
    11
 10
4458.637407
 20
-336.31939
 30
0.0
 40
35.0
  1
200
 50
90.0
  0
POINT
  5
41
  8
DEFPOINTS
  6
BYBLOCK
 62
     0
 10
4270.0
 20
-200.0
 30
0.0
  0
POINT
  5
42
  8
DEFPOINTS
  6
BYBLOCK
 62
     0
 10
4380.0
 20
-400.0
 30
0.0
  0
POINT
  5
43
  8
DEFPOINTS
  6
BYBLOCK
 62
     0
 10
4441.137407
 20
-400.0
 30
0.0
  0
ENDBLK
  5
45
  8
0
  0
ENDSEC
  0
SECTION
  2
ENTITIES
  0
DIMENSION
  5
20
  8
TEAM-MAS
  2
*D0
 10
-443.474628
 20
-400.0
 30
0.0
 11
-443.474628
 21
0.0
 31
0.0
 12
-4000.0
 22
0.0
 32
0.0
 13
-380.0
 23
400.0
 33
0.0
 14
-380.0
 24
-400.0
 34
0.0
 50
270.0
  0
LINE
  5
2F
  8
TEAM-BODY
 10
400.0
 20
380.0
 30
0.0
 11
400.0
 21
-380.0
 31
0.0
  0
LINE
  5
31
  8
TEAM-DET1
 10
340.0
 20
280.0
 30
0.0
 11
340.0
 21
-280.0
 31
0.0
  0
LINE
  5
33
  8
TEAM-DET1
 10
360.0
 20
280.0
 30
0.0
 11
360.0
 21
-280.0
 31
0.0
  0
LINE
  5
34
  8
TEAM-BODY
 10
-400.0
 20
380.0
 30
0.0
 11
-400.0
 21
-380.0
 31
0.0
  0
LINE
  5
35
  8
TEAM-DET1
 10
-340.0
 20
280.0
 30
0.0
 11
-340.0
 21
-280.0
 31
0.0
  0
LINE
  5
36
  8
TEAM-DET1
 10
-360.0
 20
280.0
 30
0.0
 11
-360.0
 21
-280.0
 31
0.0
  0
DIMENSION
  5
37
  8
TEAM-INSP
  2
*D3
 10
441.137407
 20
-400.0
 30
0.0
 11
441.137407
 21
-300.0
 31
0.0
 12
-4000.0
 22
0.0
 32
0.0
 13
270.0
 23
-200.0
 33
0.0
 14
380.0
 24
-400.0
 34
0.0
 50
270.0
1001
ACAD
1000
DSTYLE
1002
{
1070
    40
1040
1.0
1002
}
  0
DIMENSION
  5
46
  8
TEAM-INSP
  2
*D2
 10
200.0
 20
-435.064959
 30
0.0
 11
300.0
 21
-435.064959
 31
0.0
 12
-4000.0
 22
0.0
 32
0.0
 13
400.0
 23
-380.0
 33
0.0
 14
200.0
 24
-270.0
 34
0.0
1001
ACAD
1000
DSTYLE
1002
{
1070
    40
1040
1.0
1002
}
  0
ARC
  5
54
  8
TEAM-DET1
 10
280.0
 20
-280.0
 30
0.0
 40
60.0
 50
270.0
 51
0.0
  0
ARC
  5
55
  8
TEAM-DET1
 10
280.0
 20
-280.0
 30
0.0
 40
80.0
 50
270.0
 51
0.0
  0
ARC
  5
56
  8
TEAM-BODY
 10
380.0
 20
-380.0
 30
0.0
 40
20.0
 50
270.0
 51
0.0
  0
ARC
  5
57
  8
TEAM-BODY
 10
-380.0
 20
-380.0
 30
0.0
 40
20.0
 50
180.0
 51
270.0
  0
ARC
  5
58
  8
TEAM-DET1
 10
-280.0
 20
-280.0
 30
0.0
 40
60.0
 50
180.0
 51
270.0
  0
ARC
  5
59
  8
TEAM-DET1
 10
-280.0
 20
-280.0
 30
0.0
 40
80.0
 50
180.0
 51
270.0
  0
CIRCLE
  5
5A
  8
TEAM-BODY
 10
200.0
 20
-200.0
 30
0.0
 40
40.0
  0
CIRCLE
  5
5B
  8
TEAM-DET1
 10
200.0
 20
-200.0
 30
0.0
 40
50.0
  0
LINE
  5
5C
  8
TEAM-AXE
 10
200.0
 20
-130.0
 30
0.0
 11
200.0
 21
-270.0
 31
0.0
  0
LINE
  5
5F
  8
TEAM-DET1
 10
-280.0
 20
-340.0
 30
0.0
 11
280.0
 21
-340.0
 31
0.0
  0
LINE
  5
60
  8
TEAM-DET1
 10
-280.0
 20
-360.0
 30
0.0
 11
280.0
 21
-360.0
 31
0.0
  0
LINE
  5
61
  8
TEAM-BODY
 10
-380.0
 20
-400.0
 30
0.0
 11
380.0
 21
-400.0
 31
0.0
  0
LINE
  5
62
  8
TEAM-AXE
 10
130.0
 20
-200.0
 30
0.0
 11
270.0
 21
-200.0
 31
0.0
  0
DIMENSION
  5
63
  8
TEAM-MAS
  2
*D1
 10
400.0
 20
437.956006
 30
0.0
 11
0.0
 21
437.956006
 31
0.0
 12
-4000.0
 22
0.0
 32
0.0
 13
-400.0
 23
380.0
 33
0.0
 14
400.0
 24
380.0
 34
0.0
  0
ARC
  5
71
  8
TEAM-BODY
 10
380.0
 20
380.0
 30
0.0
 40
20.0
 50
0.0
 51
90.0
  0
ARC
  5
72
  8
TEAM-DET1
 10
280.0
 20
280.0
 30
0.0
 40
60.0
 50
0.0
 51
90.0
  0
ARC
  5
73
  8
TEAM-DET1
 10
280.0
 20
280.0
 30
0.0
 40
80.0
 50
0.0
 51
90.0
  0
TEXT
  5
74
  8
TEAM-TXT
 10
-303.708997
 20
292.732674
 30
0.0
 40
35.0
  1
team 141290
 41
0.8
 51
15.0
  7
TEAM
  0
ARC
  5
77
  8
TEAM-DET1
 10
-280.0
 20
280.0
 30
0.0
 40
80.0
 50
90.0
 51
180.0
  0
ARC
  5
78
  8
TEAM-DET1
 10
-280.0
 20
280.0
 30
0.0
 40
60.0
 50
90.0
 51
180.0
  0
ARC
  5
79
  8
TEAM-BODY
 10
-380.0
 20
380.0
 30
0.0
 40
20.0
 50
90.0
 51
180.0
  0
LINE
  5
7A
  8
TEAM-DET1
 10
-280.0
 20
340.0
 30
0.0
 11
280.0
 21
340.0
 31
0.0
  0
LINE
  5
7B
  8
TEAM-DET1
 10
-280.0
 20
360.0
 30
0.0
 11
280.0
 21
360.0
 31
0.0
  0
LINE
  5
7C
  8
TEAM-BODY
 10
-380.0
 20
400.0
 30
0.0
 11
380.0
 21
400.0
 31
0.0
  0
CIRCLE
  5
7D
  8
TEAM-INSP
 10
0.0
 20
0.0
 30
0.0
 40
7.1
  0
ENDSEC
  0
EOF
