  0
SECTION
  2
HEADER
  9
$ACADVER
  1
AC1009
  9
$INSBASE
 10
0.0
 20
0.0
 30
0.0
  9
$EXTMIN
 10
-567.300639
 20
-575.569283
 30
-0.000004
  9
$EXTMAX
 10
560.623565
 20
450.059947
 30
0.000001
  9
$LIMMIN
 10
-567.300639
 20
-575.569283
  9
$LIMMAX
 10
560.623565
 20
450.059947
  9
$ORTHOMODE
 70
     1
  9
$REGENMODE
 70
     1
  9
$FILLMODE
 70
     1
  9
$QTEXTMODE
 70
     0
  9
$MIRRTEXT
 70
     0
  9
$DRAGMODE
 70
     2
  9
$LTSCALE
 40
25.0
  9
$OSMODE
 70
     0
  9
$ATTMODE
 70
     1
  9
$TEXTSIZE
 40
200.0
  9
$TRACEWID
 40
1.0
  9
$TEXTSTYLE
  7
STANDARD
  9
$CLAYER
  8
TEAM-MAS
  9
$CELTYPE
  6
BYLAYER
  9
$CECOLOR
 62
   256
  9
$DIMSCALE
 40
1.0
  9
$DIMASZ
 40
20.0
  9
$DIMEXO
 40
10.0
  9
$DIMDLI
 40
1.0
  9
$DIMRND
 40
0.0
  9
$DIMDLE
 40
0.0
  9
$DIMEXE
 40
1.0
  9
$DIMTP
 40
0.0
  9
$DIMTM
 40
0.0
  9
$DIMTXT
 40
35.0
  9
$DIMCEN
 40
1.0
  9
$DIMTSZ
 40
0.0
  9
$DIMTOL
 70
     0
  9
$DIMLIM
 70
     0
  9
$DIMTIH
 70
     0
  9
$DIMTOH
 70
     0
  9
$DIMSE1
 70
     0
  9
$DIMSE2
 70
     0
  9
$DIMTAD
 70
     0
  9
$DIMZIN
 70
     0
  9
$DIMBLK
  1

  9
$DIMASO
 70
     1
  9
$DIMSHO
 70
     0
  9
$DIMPOST
  1

  9
$DIMAPOST
  1

  9
$DIMALT
 70
     0
  9
$DIMALTD
 70
     2
  9
$DIMALTF
 40
25.4
  9
$DIMLFAC
 40
1.0
  9
$DIMTOFL
 70
     0
  9
$DIMTVP
 40
0.0
  9
$DIMTIX
 70
     0
  9
$DIMSOXD
 70
     0
  9
$DIMSAH
 70
     0
  9
$DIMBLK1
  1

  9
$DIMBLK2
  1

  9
$DIMSTYLE
  2
TEAM
  9
$DIMCLRD
 70
     9
  9
$DIMCLRE
 70
     9
  9
$DIMCLRT
 70
    11
  9
$DIMTFAC
 40
1.0
  9
$DIMGAP
 40
15.0
  9
$LUNITS
 70
     2
  9
$LUPREC
 70
     1
  9
$SKETCHINC
 40
1.0
  9
$FILLETRAD
 40
50.0
  9
$AUNITS
 70
     0
  9
$AUPREC
 70
     0
  9
$MENU
  1
ROPLANS
  9
$ELEVATION
 40
0.0
  9
$PELEVATION
 40
0.0
  9
$THICKNESS
 40
0.0
  9
$LIMCHECK
 70
     0
  9
$BLIPMODE
 70
     1
  9
$CHAMFERA
 40
0.0
  9
$CHAMFERB
 40
0.0
  9
$SKPOLY
 70
     0
  9
$TDCREATE
 40
2450392.957851
  9
$TDUPDATE
 40
2455593.934007
  9
$TDINDWG
 40
2.37503
  9
$TDUSRTIMER
 40
2.37503
  9
$USRTIMER
 70
     1
  9
$ANGBASE
 50
0.0
  9
$ANGDIR
 70
     0
  9
$PDMODE
 70
     0
  9
$PDSIZE
 40
0.0
  9
$PLINEWID
 40
0.0
  9
$COORDS
 70
     2
  9
$SPLFRAME
 70
     0
  9
$SPLINETYPE
 70
     6
  9
$SPLINESEGS
 70
     8
  9
$ATTDIA
 70
     0
  9
$ATTREQ
 70
     0
  9
$HANDLING
 70
     1
  9
$HANDSEED
  5
E5
  9
$SURFTAB1
 70
    36
  9
$SURFTAB2
 70
    36
  9
$SURFTYPE
 70
     6
  9
$SURFU
 70
     6
  9
$SURFV
 70
     6
  9
$UCSNAME
  2

  9
$UCSORG
 10
0.0
 20
0.0
 30
0.0
  9
$UCSXDIR
 10
1.0
 20
0.0
 30
0.0
  9
$UCSYDIR
 10
0.0
 20
1.0
 30
0.0
  9
$PUCSNAME
  2

  9
$PUCSORG
 10
0.0
 20
0.0
 30
0.0
  9
$PUCSXDIR
 10
1.0
 20
0.0
 30
0.0
  9
$PUCSYDIR
 10
0.0
 20
1.0
 30
0.0
  9
$USERI1
 70
     0
  9
$USERI2
 70
     0
  9
$USERI3
 70
     0
  9
$USERI4
 70
     0
  9
$USERI5
 70
     0
  9
$USERR1
 40
0.0
  9
$USERR2
 40
0.0
  9
$USERR3
 40
0.0
  9
$USERR4
 40
0.0
  9
$USERR5
 40
0.0
  9
$WORLDVIEW
 70
     1
  9
$SHADEDGE
 70
     0
  9
$SHADEDIF
 70
    70
  9
$TILEMODE
 70
     1
  9
$MAXACTVP
 70
    16
  9
$PLIMCHECK
 70
     0
  9
$PEXTMIN
 10
-0.805942
 20
0.005011
 30
0.0
  9
$PEXTMAX
 10
20.250094
 20
11.356329
 30
0.0
  9
$PLIMMIN
 10
0.0
 20
0.0
  9
$PLIMMAX
 10
12.0
 20
9.0
  9
$UNITMODE
 70
     0
  9
$VISRETAIN
 70
     0
  9
$PLINEGEN
 70
     0
  9
$PSLTSCALE
 70
     0
  0
ENDSEC
  0
SECTION
  2
TABLES
  0
TABLE
  2
VPORT
 70
     2
  0
VPORT
  2
*ACTIVE
 70
     0
 10
0.0
 20
0.0
 11
1.0
 21
1.0
 12
-3.338537
 22
-62.754668
 13
0.0
 23
0.0
 14
1.0
 24
1.0
 15
50.0
 25
50.0
 16
0.0
 26
0.0
 36
1.0
 17
0.0
 27
0.0
 37
0.0
 40
1032.310853
 41
1.948913
 42
50.0
 43
0.0
 44
0.0
 50
0.0
 51
0.0
 71
     0
 72
   100
 73
     1
 74
     1
 75
     0
 76
     0
 77
     0
 78
     0
  0
ENDTAB
  0
TABLE
  2
LTYPE
 70
     2
  0
LTYPE
  2
CONTINUOUS
 70
     0
  3
Solid Line
 72
    65
 73
     0
 40
0.0
  0
LTYPE
  2
31
 70
     0
  3

 72
    65
 73
     4
 40
2.1
 49
1.5
 49
-0.3
 49
0.0
 49
-0.3
  0
ENDTAB
  0
TABLE
  2
LAYER
 70
     8
  0
LAYER
  2
0
 70
     0
 62
     7
  6
CONTINUOUS
  0
LAYER
  2
DEFPOINTS
 70
     0
 62
     7
  6
CONTINUOUS
  0
LAYER
  2
TEAM-BODY
 70
     0
 62
     2
  6
CONTINUOUS
  0
LAYER
  2
TEAM-AXE
 70
     0
 62
    10
  6
31
  0
LAYER
  2
TEAM-MAS
 70
     0
 62
     9
  6
CONTINUOUS
  0
LAYER
  2
TEAM-TXT
 70
     0
 62
    11
  6
CONTINUOUS
  0
LAYER
  2
TEAM-DET1
 70
     0
 62
     4
  6
CONTINUOUS
  0
LAYER
  2
TEAM-INSP
 70
     0
 62
     5
  6
CONTINUOUS
  0
ENDTAB
  0
TABLE
  2
STYLE
 70
     2
  0
STYLE
  2
STANDARD
 70
     0
 40
0.0
 41
1.0
 50
0.0
 71
     0
 42
200.0
  3
txt
  4

  0
STYLE
  2
TEAM
 70
     0
 40
0.0
 41
0.8
 50
15.0
 71
     0
 42
7.0
  3
ROMANS.shx
  4

  0
ENDTAB
  0
TABLE
  2
VIEW
 70
     0
  0
ENDTAB
  0
TABLE
  2
UCS
 70
     0
  0
ENDTAB
  0
TABLE
  2
APPID
 70
     1
  0
APPID
  2
ACAD
 70
     0
  0
ENDTAB
  0
TABLE
  2
DIMSTYLE
 70
     1
  0
DIMSTYLE
  2
TEAM
 70
     0
  3

  4

  5

  6

  7

 40
1.0
 41
20.0
 42
10.0
 43
1.0
 44
1.0
 45
0.0
 46
0.0
 47
0.0
 48
0.0
140
35.0
141
1.0
142
0.0
143
25.4
144
1.0
145
0.0
146
1.0
147
15.0
 71
     0
 72
     0
 73
     0
 74
     0
 75
     0
 76
     0
 77
     0
 78
     0
170
     0
171
     2
172
     0
173
     0
174
     0
175
     0
176
     9
177
     9
178
    11
  0
ENDTAB
  0
ENDSEC
  0
SECTION
  2
BLOCKS
  0
BLOCK
  8
0
  2
$MODEL_SPACE
 70
     0
 10
0.0
 20
0.0
 30
0.0
  3
$MODEL_SPACE
  1

  0
ENDBLK
  5
CC
  8
0
  0
BLOCK
 67
     1
  8
0
  2
$PAPER_SPACE
 70
     0
 10
0.0
 20
0.0
 30
0.0
  3
$PAPER_SPACE
  1

  0
ENDBLK
  5
CA
 67
     1
  8
0
  0
BLOCK
  8
0
  2
*D0
 70
     1
 10
0.0
 20
0.0
 30
0.0
  3
*D0
  1

  0
LINE
  5
55
  8
0
  6
BYBLOCK
 62
     9
 10
12500.0
 20
3540.0
 30
0.0
 11
12500.0
 21
3498.334173
 31
0.0
  0
LINE
  5
56
  8
0
  6
BYBLOCK
 62
     9
 10
12300.0
 20
3675.0
 30
0.0
 11
12300.0
 21
3498.334173
 31
0.0
  0
LINE
  5
57
  8
0
  6
BYBLOCK
 62
     9
 10
12480.0
 20
3499.334173
 30
0.0
 11
12446.958169
 21
3499.334173
 31
0.0
  0
LINE
  5
58
  8
0
  6
BYBLOCK
 62
     9
 10
12320.0
 20
3499.334173
 30
0.0
 11
12353.041831
 21
3499.334173
 31
0.0
  0
SOLID
  5
59
  8
0
  6
BYBLOCK
 62
     9
 10
12480.0
 20
3502.667506
 30
0.0
 11
12480.0
 21
3496.000839
 31
0.0
 12
12500.0
 22
3499.334173
 32
0.0
 13
12500.0
 23
3499.334173
 33
0.0
  0
SOLID
  5
5A
  8
0
  6
BYBLOCK
 62
     9
 10
12320.0
 20
3502.667506
 30
0.0
 11
12320.0
 21
3496.000839
 31
0.0
 12
12300.0
 22
3499.334173
 32
0.0
 13
12300.0
 23
3499.334173
 33
0.0
  0
TEXT
  5
5B
  8
0
  6
BYBLOCK
 62
    11
 10
12363.68061
 20
3481.834173
 30
0.0
 40
35.0
  1
200
  0
POINT
  5
5C
  8
DEFPOINTS
  6
BYBLOCK
 62
     0
 10
12500.0
 20
3550.0
 30
0.0
  0
POINT
  5
5D
  8
DEFPOINTS
  6
BYBLOCK
 62
     0
 10
12300.0
 20
3685.0
 30
0.0
  0
POINT
  5
5E
  8
DEFPOINTS
  6
BYBLOCK
 62
     0
 10
12300.0
 20
3499.334173
 30
0.0
  0
ENDBLK
  5
60
  8
0
  0
BLOCK
  8
0
  2
*D1
 70
     1
 10
0.0
 20
0.0
 30
0.0
  3
*D1
  1

  0
LINE
  5
47
  8
0
  6
BYBLOCK
 62
     9
 10
11500.0
 20
3540.0
 30
0.0
 11
11500.0
 21
3439.203166
 31
0.0
  0
LINE
  5
48
  8
0
  6
BYBLOCK
 62
     9
 10
12500.0
 20
3540.0
 30
0.0
 11
12500.0
 21
3439.203166
 31
0.0
  0
LINE
  5
49
  8
0
  6
BYBLOCK
 62
     9
 10
11520.0
 20
3440.203166
 30
0.0
 11
11944.73622
 21
3440.203166
 31
0.0
  0
LINE
  5
4A
  8
0
  6
BYBLOCK
 62
     9
 10
12480.0
 20
3440.203166
 30
0.0
 11
12055.26378
 21
3440.203166
 31
0.0
  0
SOLID
  5
4B
  8
0
  6
BYBLOCK
 62
     9
 10
11520.0
 20
3443.5365
 30
0.0
 11
11520.0
 21
3436.869833
 31
0.0
 12
11500.0
 22
3440.203166
 32
0.0
 13
11500.0
 23
3440.203166
 33
0.0
  0
SOLID
  5
4C
  8
0
  6
BYBLOCK
 62
     9
 10
12480.0
 20
3443.5365
 30
0.0
 11
12480.0
 21
3436.869833
 31
0.0
 12
12500.0
 22
3440.203166
 32
0.0
 13
12500.0
 23
3440.203166
 33
0.0
  0
TEXT
  5
4D
  8
0
  6
BYBLOCK
 62
    11
 10
11954.48622
 20
3422.703166
 30
0.0
 40
35.0
  1
1000
  0
POINT
  5
4E
  8
DEFPOINTS
  6
BYBLOCK
 62
     0
 10
11500.0
 20
3550.0
 30
0.0
  0
POINT
  5
4F
  8
DEFPOINTS
  6
BYBLOCK
 62
     0
 10
12500.0
 20
3550.0
 30
0.0
  0
POINT
  5
50
  8
DEFPOINTS
  6
BYBLOCK
 62
     0
 10
12500.0
 20
3440.203166
 30
0.0
  0
ENDBLK
  5
52
  8
0
  0
BLOCK
  8
0
  2
*D2
 70
     1
 10
0.0
 20
0.0
 30
0.0
  3
*D2
  1

  0
LINE
  5
22
  8
0
  6
BYBLOCK
 62
     9
 10
11490.0
 20
4450.0
 30
0.0
 11
11447.524519
 21
4450.0
 31
0.0
  0
LINE
  5
23
  8
0
  6
BYBLOCK
 62
     9
 10
11490.0
 20
3550.0
 30
0.0
 11
11447.524519
 21
3550.0
 31
0.0
  0
LINE
  5
24
  8
0
  6
BYBLOCK
 62
     9
 10
11448.524519
 20
4430.0
 30
0.0
 11
11448.524519
 21
4047.238653
 31
0.0
  0
LINE
  5
25
  8
0
  6
BYBLOCK
 62
     9
 10
11448.524519
 20
3570.0
 30
0.0
 11
11448.524519
 21
3952.761347
 31
0.0
  0
SOLID
  5
26
  8
0
  6
BYBLOCK
 62
     9
 10
11445.191186
 20
4430.0
 30
0.0
 11
11451.857852
 21
4430.0
 31
0.0
 12
11448.524519
 22
4450.0
 32
0.0
 13
11448.524519
 23
4450.0
 33
0.0
  0
SOLID
  5
27
  8
0
  6
BYBLOCK
 62
     9
 10
11445.191186
 20
3570.0
 30
0.0
 11
11451.857852
 21
3570.0
 31
0.0
 12
11448.524519
 22
3550.0
 32
0.0
 13
11448.524519
 23
3550.0
 33
0.0
  0
TEXT
  5
28
  8
0
  6
BYBLOCK
 62
    11
 10
11466.024519
 20
3963.838793
 30
0.0
 40
35.0
  1
900
 50
90.0
  0
POINT
  5
29
  8
DEFPOINTS
  6
BYBLOCK
 62
     0
 10
11500.0
 20
4450.0
 30
0.0
  0
POINT
  5
2B
  8
DEFPOINTS
  6
BYBLOCK
 62
     0
 10
11500.0
 20
3550.0
 30
0.0
  0
POINT
  5
2C
  8
DEFPOINTS
  6
BYBLOCK
 62
     0
 10
11448.524519
 20
3550.0
 30
0.0
  0
ENDBLK
  5
2E
  8
0
  0
BLOCK
  8
0
  2
*D3
 70
     1
 10
0.0
 20
0.0
 30
0.0
  3
*D3
  1

  0
LINE
  5
39
  8
0
  6
BYBLOCK
 62
     9
 10
12245.0
 20
3750.0
 30
0.0
 11
12545.77919
 21
3750.0
 31
0.0
  0
LINE
  5
3A
  8
0
  6
BYBLOCK
 62
     9
 10
12510.0
 20
3550.0
 30
0.0
 11
12545.77919
 21
3550.0
 31
0.0
  0
LINE
  5
3B
  8
0
  6
BYBLOCK
 62
     9
 10
12544.77919
 20
3730.0
 30
0.0
 11
12544.77919
 21
3696.958169
 31
0.0
  0
LINE
  5
3C
  8
0
  6
BYBLOCK
 62
     9
 10
12544.77919
 20
3570.0
 30
0.0
 11
12544.77919
 21
3603.041831
 31
0.0
  0
SOLID
  5
3D
  8
0
  6
BYBLOCK
 62
     9
 10
12541.445857
 20
3730.0
 30
0.0
 11
12548.112524
 21
3730.0
 31
0.0
 12
12544.77919
 22
3750.0
 32
0.0
 13
12544.77919
 23
3750.0
 33
0.0
  0
SOLID
  5
3E
  8
0
  6
BYBLOCK
 62
     9
 10
12541.445857
 20
3570.0
 30
0.0
 11
12548.112524
 21
3570.0
 31
0.0
 12
12544.77919
 22
3550.0
 32
0.0
 13
12544.77919
 23
3550.0
 33
0.0
  0
TEXT
  5
3F
  8
0
  6
BYBLOCK
 62
    11
 10
12562.27919
 20
3613.68061
 30
0.0
 40
35.0
  1
200
 50
90.0
  0
POINT
  5
40
  8
DEFPOINTS
  6
BYBLOCK
 62
     0
 10
12235.0
 20
3750.0
 30
0.0
  0
POINT
  5
41
  8
DEFPOINTS
  6
BYBLOCK
 62
     0
 10
12500.0
 20
3550.0
 30
0.0
  0
POINT
  5
42
  8
DEFPOINTS
  6
BYBLOCK
 62
     0
 10
12544.77919
 20
3550.0
 30
0.0
  0
ENDBLK
  5
44
  8
0
  0
ENDSEC
  0
SECTION
  2
ENTITIES
  0
DIMENSION
  5
20
  8
TEAM-MAS
  2
*D2
 10
-551.475481
 20
-450.0
 30
0.0
 11
-551.475481
 21
0.0
 31
0.0
 12
-12000.0
 22
-4000.0
 32
0.0
 13
-500.0
 23
450.0
 33
0.0
 14
-500.0
 24
-450.0
 34
0.0
 50
270.0
  0
LINE
  5
2F
  8
TEAM-BODY
 10
435.0
 20
-340.0
 30
0.0
 11
435.0
 21
340.0
 31
0.0
  0
LINE
  5
31
  8
TEAM-BODY
 10
500.0
 20
-450.0
 30
0.0
 11
500.0
 21
450.0
 31
0.0
  0
LINE
  5
32
  8
TEAM-BODY
 10
-435.0
 20
340.0
 30
0.0
 11
-435.0
 21
-340.0
 31
0.0
  0
LINE
  5
33
  8
TEAM-BODY
 10
-500.0
 20
450.0
 30
0.0
 11
-500.0
 21
-450.0
 31
0.0
  0
POLYLINE
  5
34
  8
TEAM-DET1
 66
     1
 10
0.0
 20
0.0
 30
0.0
 70
     1
  0
VERTEX
  5
D2
  8
TEAM-DET1
 10
390.0
 20
405.0
 30
0.0
  0
VERTEX
  5
D3
  8
TEAM-DET1
 10
-390.0
 20
405.0
 30
0.0
 42
0.414214
  0
VERTEX
  5
D4
  8
TEAM-DET1
 10
-455.0
 20
340.0
 30
0.0
  0
VERTEX
  5
D5
  8
TEAM-DET1
 10
-455.0
 20
-340.0
 30
0.0
 42
0.414214
  0
VERTEX
  5
D6
  8
TEAM-DET1
 10
-390.0
 20
-405.0
 30
0.0
  0
VERTEX
  5
D7
  8
TEAM-DET1
 10
390.0
 20
-405.0
 30
0.0
 42
0.414214
  0
VERTEX
  5
D8
  8
TEAM-DET1
 10
455.0
 20
-340.0
 30
0.0
  0
VERTEX
  5
D9
  8
TEAM-DET1
 10
455.0
 20
340.0
 30
0.0
 42
0.414214
  0
SEQEND
  5
DA
  8
TEAM-DET1
  0
POLYLINE
  5
36
  8
TEAM-BODY
 66
     1
 10
0.0
 20
0.0
 30
0.0
 70
     1
  0
VERTEX
  5
DB
  8
TEAM-BODY
 10
390.0
 20
365.0
 30
0.0
  0
VERTEX
  5
DC
  8
TEAM-BODY
 10
-390.0
 20
365.0
 30
0.0
 42
0.414214
  0
VERTEX
  5
DD
  8
TEAM-BODY
 10
-415.0
 20
340.0
 30
0.0
  0
VERTEX
  5
DE
  8
TEAM-BODY
 10
-415.0
 20
-340.0
 30
0.0
 42
0.414214
  0
VERTEX
  5
DF
  8
TEAM-BODY
 10
-390.0
 20
-365.0
 30
0.0
  0
VERTEX
  5
E0
  8
TEAM-BODY
 10
390.0
 20
-365.0
 30
0.0
 42
0.414214
  0
VERTEX
  5
E1
  8
TEAM-BODY
 10
415.0
 20
-340.0
 30
0.0
  0
VERTEX
  5
E2
  8
TEAM-BODY
 10
415.0
 20
340.0
 30
0.0
 42
0.414214
  0
SEQEND
  5
E3
  8
TEAM-BODY
  0
DIMENSION
  5
37
  8
TEAM-MAS
  2
*D3
 10
544.77919
 20
-450.0
 30
0.0
 11
544.77919
 21
-350.0
 31
0.0
 12
-12000.0
 22
-4000.0
 32
0.0
 13
235.0
 23
-250.0
 33
0.0
 14
500.0
 24
-450.0
 34
0.0
 50
270.0
  0
DIMENSION
  5
45
  8
TEAM-MAS
  2
*D1
 10
500.0
 20
-559.796834
 30
0.0
 11
0.0
 21
-559.796834
 31
0.0
 12
-12000.0
 22
-4000.0
 32
0.0
 13
-500.0
 23
-450.0
 33
0.0
 14
500.0
 24
-450.0
 34
0.0
  0
DIMENSION
  5
53
  8
TEAM-MAS
  2
*D0
 10
300.0
 20
-500.665827
 30
0.0
 11
400.0
 21
-500.665827
 31
0.0
 12
-12000.0
 22
-4000.0
 32
0.0
 13
500.0
 23
-450.0
 33
0.0
 14
300.0
 24
-315.0
 34
0.0
  0
CIRCLE
  5
61
  8
TEAM-DET1
 10
300.0
 20
-250.0
 30
0.0
 40
45.0
  0
CIRCLE
  5
62
  8
TEAM-BODY
 10
300.0
 20
-250.0
 30
0.0
 40
35.0
  0
LINE
  5
63
  8
TEAM-AXE
 10
300.0
 20
-250.0
 30
0.0
 11
300.0
 21
-315.0
 31
0.0
  0
LINE
  5
66
  8
TEAM-AXE
 10
300.0
 20
-250.0
 30
0.0
 11
235.0
 21
-250.0
 31
0.0
  0
LINE
  5
67
  8
TEAM-AXE
 10
300.0
 20
-250.0
 30
0.0
 11
365.0
 21
-250.0
 31
0.0
  0
LINE
  5
68
  8
TEAM-AXE
 10
300.0
 20
-250.0
 30
0.0
 11
300.0
 21
-185.0
 31
0.0
  0
CIRCLE
  5
69
  8
TEAM-INSP
 10
0.0
 20
0.0
 30
0.0
 40
7.1
  0
LINE
  5
6B
  8
TEAM-BODY
 10
-500.0
 20
-450.0
 30
0.0
 11
500.0
 21
-450.0
 31
0.0
  0
ARC
  5
6C
  8
TEAM-BODY
 10
390.0
 20
-340.0
 30
0.0
 40
45.0
 50
270.0
 51
0.0
  0
ARC
  5
6D
  8
TEAM-BODY
 10
-390.0
 20
-340.0
 30
0.0
 40
45.0
 50
180.0
 51
270.0
  0
LINE
  5
6E
  8
TEAM-BODY
 10
-390.0
 20
-385.0
 30
0.0
 11
390.0
 21
-385.0
 31
0.0
  0
LINE
  5
6F
  8
TEAM-BODY
 10
500.0
 20
450.0
 30
0.0
 11
-500.0
 21
450.0
 31
0.0
  0
ARC
  5
70
  8
TEAM-BODY
 10
390.0
 20
340.0
 30
0.0
 40
45.0
 50
0.0
 51
90.0
  0
TEXT
  5
71
  8
TEAM-TXT
 10
94.021405
 20
310.569562
 30
0.0
 40
30.0
  1
team 141309
 41
0.8
 51
15.0
  7
TEAM
  0
ARC
  5
74
  8
TEAM-BODY
 10
-390.0
 20
340.0
 30
0.0
 40
45.0
 50
90.0
 51
180.0
  0
LINE
  5
75
  8
TEAM-BODY
 10
390.0
 20
385.0
 30
0.0
 11
-390.0
 21
385.0
 31
0.0
  0
ENDSEC
  0
EOF
