  0
SECTION
  2
HEADER
  9
$ACADVER
  1
AC1009
  9
$INSBASE
 10
0.0
 20
0.0
 30
0.0
  9
$EXTMIN
 10
-500.593886
 20
-12.22748
 30
-0.001526
  9
$EXTMAX
 10
553.397453
 20
251.166704
 30
0.0
  9
$LIMMIN
 10
-500.593886
 20
-12.22748
  9
$LIMMAX
 10
553.397453
 20
251.166704
  9
$ORTHOMODE
 70
     1
  9
$REGENMODE
 70
     1
  9
$FILLMODE
 70
     1
  9
$QTEXTMODE
 70
     0
  9
$MIRRTEXT
 70
     0
  9
$DRAGMODE
 70
     2
  9
$LTSCALE
 40
25.0
  9
$OSMODE
 70
     0
  9
$ATTMODE
 70
     1
  9
$TEXTSIZE
 40
200.0
  9
$TRACEWID
 40
1.0
  9
$TEXTSTYLE
  7
STANDARD
  9
$CLAYER
  8
TEAM-MAS
  9
$CELTYPE
  6
BYLAYER
  9
$CECOLOR
 62
   256
  9
$DIMSCALE
 40
1.0
  9
$DIMASZ
 40
20.0
  9
$DIMEXO
 40
10.0
  9
$DIMDLI
 40
1.0
  9
$DIMRND
 40
0.0
  9
$DIMDLE
 40
0.0
  9
$DIMEXE
 40
1.0
  9
$DIMTP
 40
0.0
  9
$DIMTM
 40
0.0
  9
$DIMTXT
 40
35.0
  9
$DIMCEN
 40
1.0
  9
$DIMTSZ
 40
0.0
  9
$DIMTOL
 70
     0
  9
$DIMLIM
 70
     0
  9
$DIMTIH
 70
     0
  9
$DIMTOH
 70
     0
  9
$DIMSE1
 70
     0
  9
$DIMSE2
 70
     0
  9
$DIMTAD
 70
     0
  9
$DIMZIN
 70
     0
  9
$DIMBLK
  1

  9
$DIMASO
 70
     1
  9
$DIMSHO
 70
     0
  9
$DIMPOST
  1

  9
$DIMAPOST
  1

  9
$DIMALT
 70
     0
  9
$DIMALTD
 70
     2
  9
$DIMALTF
 40
25.4
  9
$DIMLFAC
 40
1.0
  9
$DIMTOFL
 70
     0
  9
$DIMTVP
 40
0.0
  9
$DIMTIX
 70
     0
  9
$DIMSOXD
 70
     0
  9
$DIMSAH
 70
     0
  9
$DIMBLK1
  1

  9
$DIMBLK2
  1

  9
$DIMSTYLE
  2
TEAM
  9
$DIMCLRD
 70
     9
  9
$DIMCLRE
 70
     9
  9
$DIMCLRT
 70
    11
  9
$DIMTFAC
 40
1.0
  9
$DIMGAP
 40
15.0
  9
$LUNITS
 70
     2
  9
$LUPREC
 70
     1
  9
$SKETCHINC
 40
1.0
  9
$FILLETRAD
 40
50.0
  9
$AUNITS
 70
     0
  9
$AUPREC
 70
     0
  9
$MENU
  1
ROPLANS
  9
$ELEVATION
 40
0.0
  9
$PELEVATION
 40
0.0
  9
$THICKNESS
 40
0.0
  9
$LIMCHECK
 70
     0
  9
$BLIPMODE
 70
     1
  9
$CHAMFERA
 40
0.0
  9
$CHAMFERB
 40
0.0
  9
$SKPOLY
 70
     0
  9
$TDCREATE
 40
2450392.957851
  9
$TDUPDATE
 40
2455593.934007
  9
$TDINDWG
 40
2.37503
  9
$TDUSRTIMER
 40
2.37503
  9
$USRTIMER
 70
     1
  9
$ANGBASE
 50
0.0
  9
$ANGDIR
 70
     0
  9
$PDMODE
 70
     0
  9
$PDSIZE
 40
0.0
  9
$PLINEWID
 40
0.0
  9
$COORDS
 70
     2
  9
$SPLFRAME
 70
     0
  9
$SPLINETYPE
 70
     6
  9
$SPLINESEGS
 70
     8
  9
$ATTDIA
 70
     0
  9
$ATTREQ
 70
     0
  9
$HANDLING
 70
     1
  9
$HANDSEED
  5
A1
  9
$SURFTAB1
 70
    36
  9
$SURFTAB2
 70
    36
  9
$SURFTYPE
 70
     6
  9
$SURFU
 70
     6
  9
$SURFV
 70
     6
  9
$UCSNAME
  2

  9
$UCSORG
 10
0.0
 20
0.0
 30
0.0
  9
$UCSXDIR
 10
1.0
 20
0.0
 30
0.0
  9
$UCSYDIR
 10
0.0
 20
1.0
 30
0.0
  9
$PUCSNAME
  2

  9
$PUCSORG
 10
0.0
 20
0.0
 30
0.0
  9
$PUCSXDIR
 10
1.0
 20
0.0
 30
0.0
  9
$PUCSYDIR
 10
0.0
 20
1.0
 30
0.0
  9
$USERI1
 70
     0
  9
$USERI2
 70
     0
  9
$USERI3
 70
     0
  9
$USERI4
 70
     0
  9
$USERI5
 70
     0
  9
$USERR1
 40
0.0
  9
$USERR2
 40
0.0
  9
$USERR3
 40
0.0
  9
$USERR4
 40
0.0
  9
$USERR5
 40
0.0
  9
$WORLDVIEW
 70
     1
  9
$SHADEDGE
 70
     0
  9
$SHADEDIF
 70
    70
  9
$TILEMODE
 70
     1
  9
$MAXACTVP
 70
    16
  9
$PLIMCHECK
 70
     0
  9
$PEXTMIN
 10
-0.805942
 20
0.005011
 30
0.0
  9
$PEXTMAX
 10
20.250094
 20
11.356329
 30
0.0
  9
$PLIMMIN
 10
0.0
 20
0.0
  9
$PLIMMAX
 10
12.0
 20
9.0
  9
$UNITMODE
 70
     0
  9
$VISRETAIN
 70
     0
  9
$PLINEGEN
 70
     0
  9
$PSLTSCALE
 70
     0
  0
ENDSEC
  0
SECTION
  2
TABLES
  0
TABLE
  2
VPORT
 70
     2
  0
VPORT
  2
*ACTIVE
 70
     0
 10
0.0
 20
0.0
 11
1.0
 21
1.0
 12
26.401784
 22
119.469612
 13
0.0
 23
0.0
 14
1.0
 24
1.0
 15
50.0
 25
50.0
 16
0.0
 26
0.0
 36
1.0
 17
0.0
 27
0.0
 37
0.0
 40
542.617606
 41
1.948913
 42
50.0
 43
0.0
 44
0.0
 50
0.0
 51
0.0
 71
     0
 72
   100
 73
     1
 74
     1
 75
     0
 76
     0
 77
     0
 78
     0
  0
ENDTAB
  0
TABLE
  2
LTYPE
 70
     2
  0
LTYPE
  2
CONTINUOUS
 70
     0
  3
Solid Line
 72
    65
 73
     0
 40
0.0
  0
LTYPE
  2
31
 70
     0
  3

 72
    65
 73
     4
 40
2.1
 49
1.5
 49
-0.3
 49
0.0
 49
-0.3
  0
ENDTAB
  0
TABLE
  2
LAYER
 70
     8
  0
LAYER
  2
0
 70
     0
 62
     7
  6
CONTINUOUS
  0
LAYER
  2
DEFPOINTS
 70
     0
 62
     7
  6
CONTINUOUS
  0
LAYER
  2
TEAM-BODY
 70
     0
 62
     2
  6
CONTINUOUS
  0
LAYER
  2
TEAM-AXE
 70
     0
 62
    10
  6
31
  0
LAYER
  2
TEAM-MAS
 70
     0
 62
     9
  6
CONTINUOUS
  0
LAYER
  2
TEAM-TXT
 70
     0
 62
    11
  6
CONTINUOUS
  0
LAYER
  2
TEAM-DET1
 70
     0
 62
     4
  6
CONTINUOUS
  0
LAYER
  2
TEAM-INSP
 70
     0
 62
     5
  6
CONTINUOUS
  0
ENDTAB
  0
TABLE
  2
STYLE
 70
     2
  0
STYLE
  2
STANDARD
 70
     0
 40
0.0
 41
1.0
 50
0.0
 71
     0
 42
200.0
  3
txt
  4

  0
STYLE
  2
TEAM
 70
     0
 40
0.0
 41
0.8
 50
15.0
 71
     0
 42
7.0
  3
ROMANS.shx
  4

  0
ENDTAB
  0
TABLE
  2
VIEW
 70
     0
  0
ENDTAB
  0
TABLE
  2
UCS
 70
     0
  0
ENDTAB
  0
TABLE
  2
APPID
 70
     1
  0
APPID
  2
ACAD
 70
     0
  0
ENDTAB
  0
TABLE
  2
DIMSTYLE
 70
     1
  0
DIMSTYLE
  2
TEAM
 70
     0
  3

  4

  5

  6

  7

 40
1.0
 41
20.0
 42
10.0
 43
1.0
 44
1.0
 45
0.0
 46
0.0
 47
0.0
 48
0.0
140
35.0
141
1.0
142
0.0
143
25.4
144
1.0
145
0.0
146
1.0
147
15.0
 71
     0
 72
     0
 73
     0
 74
     0
 75
     0
 76
     0
 77
     0
 78
     0
170
     0
171
     2
172
     0
173
     0
174
     0
175
     0
176
     9
177
     9
178
    11
  0
ENDTAB
  0
ENDSEC
  0
SECTION
  2
BLOCKS
  0
BLOCK
  8
0
  2
$MODEL_SPACE
 70
     0
 10
0.0
 20
0.0
 30
0.0
  3
$MODEL_SPACE
  1

  0
ENDBLK
  5
9A
  8
0
  0
BLOCK
 67
     1
  8
0
  2
$PAPER_SPACE
 70
     0
 10
0.0
 20
0.0
 30
0.0
  3
$PAPER_SPACE
  1

  0
ENDBLK
  5
98
 67
     1
  8
0
  0
BLOCK
  8
0
  2
*D0
 70
     1
 10
0.0
 20
0.0
 30
0.0
  3
*D0
  1

  0
LINE
  5
40
  8
0
  6
BYBLOCK
 62
     9
 10
265.0
 20
8084.61
 30
0.0
 11
265.0
 21
8045.227504
 31
0.0
  0
LINE
  5
41
  8
0
  6
BYBLOCK
 62
     9
 10
355.0
 20
8084.61
 30
0.0
 11
355.0
 21
8045.227504
 31
0.0
  0
LINE
  5
42
  8
0
  6
BYBLOCK
 62
     9
 10
285.0
 20
8046.227504
 30
0.0
 11
335.0
 21
8046.227504
 31
0.0
  0
TEXT
  5
43
  8
0
  6
BYBLOCK
 62
    11
 10
286.088793
 20
7987.727504
 30
0.0
 40
35.0
  1
90
  0
SOLID
  5
44
  8
0
  6
BYBLOCK
 62
     9
 10
285.0
 20
8049.560837
 30
0.0
 11
285.0
 21
8042.894171
 31
0.0
 12
265.0
 22
8046.227504
 32
0.0
 13
265.0
 23
8046.227504
 33
0.0
  0
SOLID
  5
45
  8
0
  6
BYBLOCK
 62
     9
 10
335.0
 20
8049.560837
 30
0.0
 11
335.0
 21
8042.894171
 31
0.0
 12
355.0
 22
8046.227504
 32
0.0
 13
355.0
 23
8046.227504
 33
0.0
  0
POINT
  5
46
  8
DEFPOINTS
  6
BYBLOCK
 62
     0
 10
265.0
 20
8094.61
 30
0.0
  0
POINT
  5
47
  8
DEFPOINTS
  6
BYBLOCK
 62
     0
 10
355.0
 20
8094.61
 30
0.0
  0
POINT
  5
48
  8
DEFPOINTS
  6
BYBLOCK
 62
     0
 10
355.0
 20
8046.227504
 30
0.0
  0
ENDBLK
  5
4A
  8
0
  0
BLOCK
  8
0
  2
*D1
 70
     1
 10
0.0
 20
0.0
 30
0.0
  3
*D1
  1

  0
LINE
  5
31
  8
0
  6
BYBLOCK
 62
     9
 10
365.0
 20
8102.02721
 30
0.0
 11
539.150573
 21
8102.02721
 31
0.0
  0
LINE
  5
32
  8
0
  6
BYBLOCK
 62
     9
 10
451.144133
 20
8167.024841
 30
0.0
 11
539.150573
 21
8167.024841
 31
0.0
  0
LINE
  5
33
  8
0
  6
BYBLOCK
 62
     9
 10
538.150573
 20
8082.02721
 30
0.0
 11
538.150573
 21
8062.02721
 31
0.0
  0
LINE
  5
34
  8
0
  6
BYBLOCK
 62
     9
 10
538.150573
 20
8187.024841
 30
0.0
 11
538.150573
 21
8207.024841
 31
0.0
  0
TEXT
  5
35
  8
0
  6
BYBLOCK
 62
    11
 10
553.670756
 20
8205.107512
 30
0.0
 40
35.0
  1
65
 50
90.0
  0
LINE
  5
36
  8
0
  6
BYBLOCK
 62
     9
 10
538.150573
 20
8102.02721
 30
0.0
 11
538.150573
 21
8167.024841
 31
0.0
  0
SOLID
  5
37
  8
0
  6
BYBLOCK
 62
     9
 10
534.81724
 20
8082.02721
 30
0.0
 11
541.483906
 21
8082.02721
 31
0.0
 12
538.150573
 22
8102.02721
 32
0.0
 13
538.150573
 23
8102.02721
 33
0.0
  0
SOLID
  5
38
  8
0
  6
BYBLOCK
 62
     9
 10
534.81724
 20
8187.024841
 30
0.0
 11
541.483906
 21
8187.024841
 31
0.0
 12
538.150573
 22
8167.024841
 32
0.0
 13
538.150573
 23
8167.024841
 33
0.0
  0
POINT
  5
39
  8
DEFPOINTS
  6
BYBLOCK
 62
     0
 10
355.0
 20
8102.02721
 30
0.0
  0
POINT
  5
3A
  8
DEFPOINTS
  6
BYBLOCK
 62
     0
 10
441.144133
 20
8167.024841
 30
0.0
  0
POINT
  5
3B
  8
DEFPOINTS
  6
BYBLOCK
 62
     0
 10
538.150573
 20
8167.024841
 30
0.0
  0
ENDBLK
  5
3D
  8
0
  0
BLOCK
  8
0
  2
*D2
 70
     1
 10
0.0
 20
0.0
 30
0.0
  3
*D2
  1

  0
LINE
  5
22
  8
0
  6
BYBLOCK
 62
     9
 10
-500.0
 20
8167.0
 30
0.0
 11
-500.0
 21
8236.394938
 31
0.0
  0
LINE
  5
23
  8
0
  6
BYBLOCK
 62
     9
 10
500.0
 20
8167.0
 30
0.0
 11
500.0
 21
8236.394938
 31
0.0
  0
LINE
  5
24
  8
0
  6
BYBLOCK
 62
     9
 10
-480.0
 20
8235.394938
 30
0.0
 11
-55.26378
 21
8235.394938
 31
0.0
  0
LINE
  5
25
  8
0
  6
BYBLOCK
 62
     9
 10
480.0
 20
8235.394938
 30
0.0
 11
55.26378
 21
8235.394938
 31
0.0
  0
SOLID
  5
26
  8
0
  6
BYBLOCK
 62
     9
 10
-480.0
 20
8238.728271
 30
0.0
 11
-480.0
 21
8232.061604
 31
0.0
 12
-500.0
 22
8235.394938
 32
0.0
 13
-500.0
 23
8235.394938
 33
0.0
  0
SOLID
  5
27
  8
0
  6
BYBLOCK
 62
     9
 10
480.0
 20
8238.728271
 30
0.0
 11
480.0
 21
8232.061604
 31
0.0
 12
500.0
 22
8235.394938
 32
0.0
 13
500.0
 23
8235.394938
 33
0.0
  0
TEXT
  5
28
  8
0
  6
BYBLOCK
 62
    11
 10
-45.51378
 20
8217.894938
 30
0.0
 40
35.0
  1
1000
  0
POINT
  5
29
  8
DEFPOINTS
  6
BYBLOCK
 62
     0
 10
-500.0
 20
8157.0
 30
0.0
  0
POINT
  5
2B
  8
DEFPOINTS
  6
BYBLOCK
 62
     0
 10
500.0
 20
8157.0
 30
0.0
  0
POINT
  5
2C
  8
DEFPOINTS
  6
BYBLOCK
 62
     0
 10
500.0
 20
8235.394938
 30
0.0
  0
ENDBLK
  5
2E
  8
0
  0
ENDSEC
  0
SECTION
  2
ENTITIES
  0
DIMENSION
  5
20
  8
TEAM-MAS
  2
*D2
 10
500.0
 20
235.394938
 30
0.0
 11
0.0
 21
235.394938
 31
0.0
 12
0.0
 22
-8000.0
 32
0.0
 13
-500.0
 23
157.0
 33
0.0
 14
500.0
 24
157.0
 34
0.0
1001
ACAD
1000
DSTYLE
1002
{
1070
    40
1040
1.0
1002
}
  0
DIMENSION
  5
2F
  8
TEAM-MAS
  2
*D1
 10
538.150573
 20
167.024841
 30
0.0
 11
536.170756
 21
229.285142
 31
0.0
 12
0.0
 22
-8000.0
 32
0.0
 70
   128
 13
355.0
 23
102.02721
 33
0.0
 14
441.144133
 24
167.024841
 34
0.0
 50
90.0
  0
DIMENSION
  5
3E
  8
TEAM-MAS
  2
*D0
 10
355.0
 20
46.227504
 30
0.0
 11
310.0
 21
5.227504
 31
0.0
 12
0.0
 22
-8000.0
 32
0.0
 13
265.0
 23
94.61
 33
0.0
 14
355.0
 24
94.61
 34
0.0
  0
ARC
  5
4B
  8
TEAM-BODY
 10
245.928752
 20
223.428285
 30
0.0
 40
203.744663
 50
323.306626
 51
339.08728
  0
LINE
  5
4D
  8
TEAM-AXE
 10
310.0
 20
160.0
 30
0.0
 11
310.0
 21
74.61
 31
0.0
  0
ARC
  5
50
  8
TEAM-BODY
 10
-376.864975
 20
179.430642
 30
0.0
 40
69.501046
 50
208.605196
 51
272.57916
  0
LINE
  5
51
  8
TEAM-BODY
 10
-373.737453
 20
110.0
 30
0.0
 11
409.300342
 21
101.684245
 31
0.0
  0
CIRCLE
  5
52
  8
TEAM-INSP
 10
0.0
 20
0.0
 30
0.0
 40
7.1
  0
LINE
  5
54
  8
TEAM-DET1
 10
355.0
 20
102.02721
 30
0.0
 11
355.0
 21
94.61
 31
0.0
  0
LINE
  5
56
  8
TEAM-DET1
 10
265.0
 20
102.641804
 30
0.0
 11
265.0
 21
94.61
 31
0.0
  0
LINE
  5
57
  8
TEAM-DET1
 10
265.0
 20
94.61
 30
0.0
 11
355.0
 21
94.61
 31
0.0
  0
TEXT
  5
58
  8
TEAM-TXT
 10
-408.416699
 20
181.112066
 30
0.0
 40
30.0
  1
team 141309
 41
0.8
 51
15.0
  7
TEAM
  0
LINE
  5
5B
  8
TEAM-DET1
 10
-463.406706
 20
167.024841
 30
0.0
 11
464.402287
 21
167.024841
 31
0.0
  0
LINE
  5
5C
  8
TEAM-DET1
 10
-500.0
 20
157.0
 30
0.0
 11
-446.248152
 21
157.0
 31
0.0
  0
LINE
  5
5D
  8
TEAM-BODY
 10
-500.0
 20
158.0
 30
0.0
 11
-500.0
 21
157.0
 31
0.0
  0
LINE
  5
5E
  8
TEAM-BODY
 10
-494.502209
 20
167.024841
 30
0.0
 11
-463.406706
 21
167.024841
 31
0.0
  0
ARC
  5
5F
  8
TEAM-BODY
 10
-463.406706
 20
152.024841
 30
0.0
 40
15.0
 50
28.61046
 51
90.0
  0
LINE
  5
60
  8
TEAM-BODY
 10
-499.502209
 20
162.024841
 30
0.0
 11
-500.0
 21
157.0
 31
0.0
  0
ARC
  5
61
  8
TEAM-BODY
 10
-494.502209
 20
162.024841
 30
0.0
 40
5.0
 50
90.0
 51
180.0
  0
LINE
  5
62
  8
TEAM-BODY
 10
-450.238272
 20
159.207623
 30
0.0
 11
-437.882693
 21
146.155523
 31
0.0
  0
LINE
  5
63
  8
TEAM-DET1
 10
500.0
 20
157.0
 30
0.0
 11
446.818182
 21
157.0
 31
0.0
  0
LINE
  5
64
  8
TEAM-BODY
 10
500.497791
 20
162.024841
 30
0.0
 11
500.0
 21
157.0
 31
0.0
  0
ARC
  5
65
  8
TEAM-BODY
 10
495.497791
 20
162.024841
 30
0.0
 40
5.0
 50
0.0
 51
90.0
  0
ARC
  5
66
  8
TEAM-BODY
 10
464.402287
 20
152.024841
 30
0.0
 40
15.0
 50
90.0
 51
151.38954
  0
LINE
  5
67
  8
TEAM-BODY
 10
464.402287
 20
167.024841
 30
0.0
 11
495.497791
 21
167.024841
 31
0.0
  0
LINE
  5
68
  8
TEAM-BODY
 10
451.233854
 20
159.207623
 30
0.0
 11
436.251787
 21
150.702567
 31
0.0
  0
ENDSEC
  0
EOF
