  0
SECTION
  2
HEADER
  9
$ACADVER
  1
AC1009
  9
$INSBASE
 10
0.0
 20
0.0
 30
0.0
  9
$EXTMIN
 10
-653.398029
 20
-645.069827
 30
0.0
  9
$EXTMAX
 10
622.27967
 20
629.562951
 30
0.000005
  9
$LIMMIN
 10
-653.398029
 20
-645.069827
  9
$LIMMAX
 10
622.27967
 20
629.562951
  9
$ORTHOMODE
 70
     1
  9
$REGENMODE
 70
     1
  9
$FILLMODE
 70
     1
  9
$QTEXTMODE
 70
     0
  9
$MIRRTEXT
 70
     0
  9
$DRAGMODE
 70
     2
  9
$LTSCALE
 40
50.0
  9
$OSMODE
 70
     0
  9
$ATTMODE
 70
     1
  9
$TEXTSIZE
 40
200.0
  9
$TRACEWID
 40
1.0
  9
$TEXTSTYLE
  7
STANDARD
  9
$CLAYER
  8
TEAM-MAS
  9
$CELTYPE
  6
BYLAYER
  9
$CECOLOR
 62
   256
  9
$DIMSCALE
 40
0.0
  9
$DIMASZ
 40
20.0
  9
$DIMEXO
 40
10.0
  9
$DIMDLI
 40
1.0
  9
$DIMRND
 40
0.0
  9
$DIMDLE
 40
0.0
  9
$DIMEXE
 40
1.0
  9
$DIMTP
 40
0.0
  9
$DIMTM
 40
0.0
  9
$DIMTXT
 40
35.0
  9
$DIMCEN
 40
1.0
  9
$DIMTSZ
 40
0.0
  9
$DIMTOL
 70
     0
  9
$DIMLIM
 70
     0
  9
$DIMTIH
 70
     0
  9
$DIMTOH
 70
     0
  9
$DIMSE1
 70
     0
  9
$DIMSE2
 70
     0
  9
$DIMTAD
 70
     0
  9
$DIMZIN
 70
     0
  9
$DIMBLK
  1

  9
$DIMASO
 70
     1
  9
$DIMSHO
 70
     0
  9
$DIMPOST
  1

  9
$DIMAPOST
  1

  9
$DIMALT
 70
     0
  9
$DIMALTD
 70
     2
  9
$DIMALTF
 40
25.4
  9
$DIMLFAC
 40
1.0
  9
$DIMTOFL
 70
     0
  9
$DIMTVP
 40
0.0
  9
$DIMTIX
 70
     0
  9
$DIMSOXD
 70
     0
  9
$DIMSAH
 70
     0
  9
$DIMBLK1
  1

  9
$DIMBLK2
  1

  9
$DIMSTYLE
  2
TEAM
  9
$DIMCLRD
 70
     9
  9
$DIMCLRE
 70
     9
  9
$DIMCLRT
 70
    11
  9
$DIMTFAC
 40
1.0
  9
$DIMGAP
 40
7.0
  9
$LUNITS
 70
     2
  9
$LUPREC
 70
     1
  9
$SKETCHINC
 40
1.0
  9
$FILLETRAD
 40
20.0
  9
$AUNITS
 70
     0
  9
$AUPREC
 70
     0
  9
$MENU
  1
ROPLANS
  9
$ELEVATION
 40
0.0
  9
$PELEVATION
 40
0.0
  9
$THICKNESS
 40
0.0
  9
$LIMCHECK
 70
     0
  9
$BLIPMODE
 70
     1
  9
$CHAMFERA
 40
0.0
  9
$CHAMFERB
 40
0.0
  9
$SKPOLY
 70
     0
  9
$TDCREATE
 40
2450392.957851
  9
$TDUPDATE
 40
2458055.529389
  9
$TDINDWG
 40
2.249215
  9
$TDUSRTIMER
 40
2.249215
  9
$USRTIMER
 70
     1
  9
$ANGBASE
 50
0.0
  9
$ANGDIR
 70
     0
  9
$PDMODE
 70
     0
  9
$PDSIZE
 40
0.0
  9
$PLINEWID
 40
0.0
  9
$COORDS
 70
     2
  9
$SPLFRAME
 70
     0
  9
$SPLINETYPE
 70
     6
  9
$SPLINESEGS
 70
     8
  9
$ATTDIA
 70
     0
  9
$ATTREQ
 70
     0
  9
$HANDLING
 70
     1
  9
$HANDSEED
  5
FD
  9
$SURFTAB1
 70
    24
  9
$SURFTAB2
 70
    24
  9
$SURFTYPE
 70
     6
  9
$SURFU
 70
     6
  9
$SURFV
 70
     6
  9
$UCSNAME
  2

  9
$UCSORG
 10
0.0
 20
0.0
 30
0.0
  9
$UCSXDIR
 10
1.0
 20
0.0
 30
0.0
  9
$UCSYDIR
 10
0.0
 20
1.0
 30
0.0
  9
$PUCSNAME
  2

  9
$PUCSORG
 10
0.0
 20
0.0
 30
0.0
  9
$PUCSXDIR
 10
1.0
 20
0.0
 30
0.0
  9
$PUCSYDIR
 10
0.0
 20
1.0
 30
0.0
  9
$USERI1
 70
     0
  9
$USERI2
 70
     0
  9
$USERI3
 70
     0
  9
$USERI4
 70
     0
  9
$USERI5
 70
     0
  9
$USERR1
 40
0.0
  9
$USERR2
 40
0.0
  9
$USERR3
 40
0.0
  9
$USERR4
 40
0.0
  9
$USERR5
 40
0.0
  9
$WORLDVIEW
 70
     1
  9
$SHADEDGE
 70
     0
  9
$SHADEDIF
 70
    70
  9
$TILEMODE
 70
     1
  9
$MAXACTVP
 70
    16
  9
$PLIMCHECK
 70
     0
  9
$PEXTMIN
 10
-0.805942
 20
0.005011
 30
0.0
  9
$PEXTMAX
 10
20.250094
 20
11.356329
 30
0.0
  9
$PLIMMIN
 10
0.0
 20
0.0
  9
$PLIMMAX
 10
12.0
 20
9.0
  9
$UNITMODE
 70
     0
  9
$VISRETAIN
 70
     0
  9
$PLINEGEN
 70
     0
  9
$PSLTSCALE
 70
     0
  0
ENDSEC
  0
SECTION
  2
TABLES
  0
TABLE
  2
VPORT
 70
     2
  0
VPORT
  2
*ACTIVE
 70
     0
 10
0.0
 20
0.0
 11
1.0
 21
1.0
 12
-15.559179
 22
-7.753438
 13
0.0
 23
0.0
 14
1.0
 24
1.0
 15
50.0
 25
50.0
 16
0.0
 26
0.0
 36
1.0
 17
0.0
 27
0.0
 37
0.0
 40
1282.803502
 41
1.942246
 42
50.0
 43
0.0
 44
0.0
 50
0.0
 51
0.0
 71
     0
 72
   100
 73
     1
 74
     1
 75
     0
 76
     0
 77
     0
 78
     0
  0
ENDTAB
  0
TABLE
  2
LTYPE
 70
     2
  0
LTYPE
  2
CONTINUOUS
 70
     0
  3
Solid Line
 72
    65
 73
     0
 40
0.0
  0
LTYPE
  2
31
 70
     0
  3

 72
    65
 73
     4
 40
2.1
 49
1.5
 49
-0.3
 49
0.0
 49
-0.3
  0
ENDTAB
  0
TABLE
  2
LAYER
 70
     8
  0
LAYER
  2
0
 70
     0
 62
     7
  6
CONTINUOUS
  0
LAYER
  2
DEFPOINTS
 70
     0
 62
     7
  6
CONTINUOUS
  0
LAYER
  2
TEAM-BODY
 70
     0
 62
     2
  6
CONTINUOUS
  0
LAYER
  2
TEAM-AXE
 70
     0
 62
    10
  6
31
  0
LAYER
  2
TEAM-MAS
 70
     0
 62
     9
  6
CONTINUOUS
  0
LAYER
  2
TEAM-TXT
 70
     0
 62
    11
  6
CONTINUOUS
  0
LAYER
  2
TEAM-DET1
 70
     0
 62
     4
  6
CONTINUOUS
  0
LAYER
  2
TEAM-INSP
 70
     0
 62
     5
  6
CONTINUOUS
  0
ENDTAB
  0
TABLE
  2
STYLE
 70
     2
  0
STYLE
  2
STANDARD
 70
     0
 40
0.0
 41
1.0
 50
0.0
 71
     0
 42
200.0
  3
txt
  4

  0
STYLE
  2
TEAM
 70
     0
 40
0.0
 41
0.8
 50
15.0
 71
     0
 42
7.0
  3
ROMANS.shx
  4

  0
ENDTAB
  0
TABLE
  2
VIEW
 70
     0
  0
ENDTAB
  0
TABLE
  2
UCS
 70
     0
  0
ENDTAB
  0
TABLE
  2
APPID
 70
     1
  0
APPID
  2
ACAD
 70
     0
  0
ENDTAB
  0
TABLE
  2
DIMSTYLE
 70
     1
  0
DIMSTYLE
  2
TEAM
 70
     0
  3

  4

  5

  6

  7

 40
0.0
 41
20.0
 42
10.0
 43
1.0
 44
1.0
 45
0.0
 46
0.0
 47
0.0
 48
0.0
140
35.0
141
1.0
142
0.0
143
25.4
144
1.0
145
0.0
146
1.0
147
7.0
 71
     0
 72
     0
 73
     0
 74
     0
 75
     0
 76
     0
 77
     0
 78
     0
170
     0
171
     2
172
     0
173
     0
174
     0
175
     0
176
     9
177
     9
178
    11
  0
ENDTAB
  0
ENDSEC
  0
SECTION
  2
BLOCKS
  0
BLOCK
  8
0
  2
$MODEL_SPACE
 70
     0
 10
0.0
 20
0.0
 30
0.0
  3
$MODEL_SPACE
  1

  0
ENDBLK
  5
F6
  8
0
  0
BLOCK
 67
     1
  8
0
  2
$PAPER_SPACE
 70
     0
 10
0.0
 20
0.0
 30
0.0
  3
$PAPER_SPACE
  1

  0
ENDBLK
  5
F4
 67
     1
  8
0
  0
BLOCK
  8
0
  2
*D0
 70
     1
 10
0.0
 20
0.0
 30
0.0
  3
*D0
  1

  0
LINE
  5
22
  8
0
  6
BYBLOCK
 62
     9
 10
3500.0
 20
4040.0
 30
0.0
 11
3500.0
 21
3371.45984
 31
0.0
  0
LINE
  5
23
  8
0
  6
BYBLOCK
 62
     9
 10
4500.0
 20
3510.0
 30
0.0
 11
4500.0
 21
3371.45984
 31
0.0
  0
LINE
  5
24
  8
0
  6
BYBLOCK
 62
     9
 10
3520.0
 20
3372.45984
 30
0.0
 11
3908.416667
 21
3372.45984
 31
0.0
  0
LINE
  5
25
  8
0
  6
BYBLOCK
 62
     9
 10
4480.0
 20
3372.45984
 30
0.0
 11
4091.583333
 21
3372.45984
 31
0.0
  0
SOLID
  5
26
  8
0
  6
BYBLOCK
 62
     9
 10
3520.0
 20
3375.793173
 30
0.0
 11
3520.0
 21
3369.126507
 31
0.0
 12
3500.0
 22
3372.45984
 32
0.0
 13
3500.0
 23
3372.45984
 33
0.0
  0
SOLID
  5
27
  8
0
  6
BYBLOCK
 62
     9
 10
4480.0
 20
3375.793173
 30
0.0
 11
4480.0
 21
3369.126507
 31
0.0
 12
4500.0
 22
3372.45984
 32
0.0
 13
4500.0
 23
3372.45984
 33
0.0
  0
TEXT
  5
28
  8
0
  6
BYBLOCK
 62
    11
 10
3915.416667
 20
3354.95984
 30
0.0
 40
35.0
  1
1000.00
  0
POINT
  5
29
  8
DEFPOINTS
  6
BYBLOCK
 62
     0
 10
3500.0
 20
4050.0
 30
0.0
  0
POINT
  5
2B
  8
DEFPOINTS
  6
BYBLOCK
 62
     0
 10
4500.0
 20
3520.0
 30
0.0
  0
POINT
  5
2C
  8
DEFPOINTS
  6
BYBLOCK
 62
     0
 10
4500.0
 20
3372.45984
 30
0.0
  0
ENDBLK
  5
2E
  8
0
  0
BLOCK
  8
0
  2
*D1
 70
     1
 10
0.0
 20
0.0
 30
0.0
  3
*D1
  1

  0
LINE
  5
37
  8
0
  6
BYBLOCK
 62
     9
 10
3510.0
 20
4500.0
 30
0.0
 11
3363.166148
 21
4500.0
 31
0.0
  0
LINE
  5
38
  8
0
  6
BYBLOCK
 62
     9
 10
4040.0
 20
3500.0
 30
0.0
 11
3363.166148
 21
3500.0
 31
0.0
  0
LINE
  5
39
  8
0
  6
BYBLOCK
 62
     9
 10
3364.166148
 20
4480.0
 30
0.0
 11
3364.166148
 21
4091.583333
 31
0.0
  0
LINE
  5
3A
  8
0
  6
BYBLOCK
 62
     9
 10
3364.166148
 20
3520.0
 30
0.0
 11
3364.166148
 21
3908.416667
 31
0.0
  0
SOLID
  5
3B
  8
0
  6
BYBLOCK
 62
     9
 10
3360.832815
 20
4480.0
 30
0.0
 11
3367.499482
 21
4480.0
 31
0.0
 12
3364.166148
 22
4500.0
 32
0.0
 13
3364.166148
 23
4500.0
 33
0.0
  0
SOLID
  5
3C
  8
0
  6
BYBLOCK
 62
     9
 10
3360.832815
 20
3520.0
 30
0.0
 11
3367.499482
 21
3520.0
 31
0.0
 12
3364.166148
 22
3500.0
 32
0.0
 13
3364.166148
 23
3500.0
 33
0.0
  0
TEXT
  5
3D
  8
0
  6
BYBLOCK
 62
    11
 10
3381.666148
 20
3915.416667
 30
0.0
 40
35.0
  1
1000.00
 50
90.0
  0
POINT
  5
3E
  8
DEFPOINTS
  6
BYBLOCK
 62
     0
 10
3520.0
 20
4500.0
 30
0.0
  0
POINT
  5
3F
  8
DEFPOINTS
  6
BYBLOCK
 62
     0
 10
4050.0
 20
3500.0
 30
0.0
  0
POINT
  5
40
  8
DEFPOINTS
  6
BYBLOCK
 62
     0
 10
3364.166148
 20
3500.0
 30
0.0
  0
ENDBLK
  5
42
  8
0
  0
BLOCK
  8
0
  2
*D2
 70
     1
 10
0.0
 20
0.0
 30
0.0
  3
*D2
  1

  0
LINE
  5
A5
  8
0
  6
BYBLOCK
 62
     9
 10
310.0
 20
4385.0
 30
0.0
 11
310.0
 21
4584.987274
 31
0.0
  0
LINE
  5
A6
  8
0
  6
BYBLOCK
 62
     9
 10
500.0
 20
4510.0
 30
0.0
 11
500.0
 21
4584.987274
 31
0.0
  0
LINE
  5
A7
  8
0
  6
BYBLOCK
 62
     9
 10
290.0
 20
4583.987274
 30
0.0
 11
270.0
 21
4583.987274
 31
0.0
  0
LINE
  5
A8
  8
0
  6
BYBLOCK
 62
     9
 10
520.0
 20
4583.987274
 30
0.0
 11
540.0
 21
4583.987274
 31
0.0
  0
SOLID
  5
A9
  8
0
  6
BYBLOCK
 62
     9
 10
290.0
 20
4587.320608
 30
0.0
 11
290.0
 21
4580.653941
 31
0.0
 12
310.0
 22
4583.987274
 32
0.0
 13
310.0
 23
4583.987274
 33
0.0
  0
SOLID
  5
AA
  8
0
  6
BYBLOCK
 62
     9
 10
520.0
 20
4587.320608
 30
0.0
 11
520.0
 21
4580.653941
 31
0.0
 12
500.0
 22
4583.987274
 32
0.0
 13
500.0
 23
4583.987274
 33
0.0
  0
TEXT
  5
AB
  8
0
  6
BYBLOCK
 62
    11
 10
332.083333
 20
4566.487274
 30
0.0
 40
35.0
  1
190.00
  0
POINT
  5
AC
  8
DEFPOINTS
  6
BYBLOCK
 62
     0
 10
310.0
 20
4375.0
 30
0.0
  0
POINT
  5
AD
  8
DEFPOINTS
  6
BYBLOCK
 62
     0
 10
500.0
 20
4500.0
 30
0.0
  0
POINT
  5
AE
  8
DEFPOINTS
  6
BYBLOCK
 62
     0
 10
500.0
 20
4583.987274
 30
0.0
  0
ENDBLK
  5
B0
  8
0
  0
BLOCK
  8
0
  2
*D3
 70
     1
 10
0.0
 20
0.0
 30
0.0
  3
*D3
  1

  0
LINE
  5
B3
  8
0
  6
BYBLOCK
 62
     9
 10
390.56237
 20
4310.0
 30
0.0
 11
574.665558
 21
4310.0
 31
0.0
  0
LINE
  5
B4
  8
0
  6
BYBLOCK
 62
     9
 10
510.0
 20
4500.0
 30
0.0
 11
574.665558
 21
4500.0
 31
0.0
  0
LINE
  5
B5
  8
0
  6
BYBLOCK
 62
     9
 10
573.665558
 20
4290.0
 30
0.0
 11
573.665558
 21
4270.0
 31
0.0
  0
LINE
  5
B6
  8
0
  6
BYBLOCK
 62
     9
 10
573.665558
 20
4520.0
 30
0.0
 11
573.665558
 21
4540.0
 31
0.0
  0
SOLID
  5
B7
  8
0
  6
BYBLOCK
 62
     9
 10
570.332225
 20
4290.0
 30
0.0
 11
576.998892
 21
4290.0
 31
0.0
 12
573.665558
 22
4310.0
 32
0.0
 13
573.665558
 23
4310.0
 33
0.0
  0
SOLID
  5
B8
  8
0
  6
BYBLOCK
 62
     9
 10
570.332225
 20
4520.0
 30
0.0
 11
576.998892
 21
4520.0
 31
0.0
 12
573.665558
 22
4500.0
 32
0.0
 13
573.665558
 23
4500.0
 33
0.0
  0
TEXT
  5
B9
  8
0
  6
BYBLOCK
 62
    11
 10
591.165558
 20
4332.083333
 30
0.0
 40
35.0
  1
190.00
 50
90.0
  0
POINT
  5
BA
  8
DEFPOINTS
  6
BYBLOCK
 62
     0
 10
380.56237
 20
4310.0
 30
0.0
  0
POINT
  5
BB
  8
DEFPOINTS
  6
BYBLOCK
 62
     0
 10
500.0
 20
4500.0
 30
0.0
  0
POINT
  5
BC
  8
DEFPOINTS
  6
BYBLOCK
 62
     0
 10
573.665558
 20
4500.0
 30
0.0
  0
ENDBLK
  5
BE
  8
0
  0
BLOCK
  8
0
  2
*D4
 70
     1
 10
0.0
 20
0.0
 30
0.0
  3
*D4
  1

  0
LINE
  5
46
  8
0
  6
BYBLOCK
 62
     9
 10
4050.0
 20
4050.0
 30
0.0
 11
3676.336842
 21
3674.133209
 31
0.0
  0
TEXT
  5
47
  8
0
  6
BYBLOCK
 62
    11
 10
3827.021001
 20
3843.033684
 30
0.0
 40
35.0
  1
R550.00
 50
45.16845
  0
SOLID
  5
48
  8
0
  6
BYBLOCK
 62
     9
 10
3673.9729
 20
3676.483292
 30
0.0
 11
3678.700784
 21
3671.783126
 31
0.0
 12
3662.236346
 22
3659.949557
 32
0.0
 13
3662.236346
 23
3659.949557
 33
0.0
  0
POINT
  5
49
  8
DEFPOINTS
  6
BYBLOCK
 62
     0
 10
3662.236346
 20
3659.949557
 30
0.0
  0
POINT
  5
4A
  8
DEFPOINTS
  6
BYBLOCK
 62
     0
 10
4050.0
 20
4050.0
 30
0.0
  0
ENDBLK
  5
4C
  8
0
  0
BLOCK
  8
0
  2
*D5
 70
     1
 10
0.0
 20
0.0
 30
0.0
  3
*D5
  1

  0
LINE
  5
64
  8
0
  6
BYBLOCK
 62
     9
 10
3510.0
 20
4500.0
 30
0.0
 11
3433.101768
 21
4500.0
 31
0.0
  0
LINE
  5
65
  8
0
  6
BYBLOCK
 62
     9
 10
3490.0
 20
4050.0
 30
0.0
 11
3433.101768
 21
4050.0
 31
0.0
  0
LINE
  5
66
  8
0
  6
BYBLOCK
 62
     9
 10
3434.101768
 20
4480.0
 30
0.0
 11
3434.101768
 21
4360.75
 31
0.0
  0
LINE
  5
67
  8
0
  6
BYBLOCK
 62
     9
 10
3434.101768
 20
4070.0
 30
0.0
 11
3434.101768
 21
4189.25
 31
0.0
  0
SOLID
  5
68
  8
0
  6
BYBLOCK
 62
     9
 10
3430.768435
 20
4480.0
 30
0.0
 11
3437.435101
 21
4480.0
 31
0.0
 12
3434.101768
 22
4500.0
 32
0.0
 13
3434.101768
 23
4500.0
 33
0.0
  0
SOLID
  5
69
  8
0
  6
BYBLOCK
 62
     9
 10
3430.768435
 20
4070.0
 30
0.0
 11
3437.435101
 21
4070.0
 31
0.0
 12
3434.101768
 22
4050.0
 32
0.0
 13
3434.101768
 23
4050.0
 33
0.0
  0
TEXT
  5
6A
  8
0
  6
BYBLOCK
 62
    11
 10
3451.601768
 20
4196.25
 30
0.0
 40
35.0
  1
450.00
 50
90.0
  0
POINT
  5
6B
  8
DEFPOINTS
  6
BYBLOCK
 62
     0
 10
3520.0
 20
4500.0
 30
0.0
  0
POINT
  5
6C
  8
DEFPOINTS
  6
BYBLOCK
 62
     0
 10
3500.0
 20
4050.0
 30
0.0
  0
POINT
  5
6D
  8
DEFPOINTS
  6
BYBLOCK
 62
     0
 10
3434.101768
 20
4050.0
 30
0.0
  0
ENDBLK
  5
6F
  8
0
  0
BLOCK
  8
0
  2
*D6
 70
     1
 10
0.0
 20
0.0
 30
0.0
  3
*D6
  1

  0
LINE
  5
74
  8
0
  6
BYBLOCK
 62
     9
 10
4500.0
 20
3510.0
 30
0.0
 11
4500.0
 21
3439.25944
 31
0.0
  0
LINE
  5
75
  8
0
  6
BYBLOCK
 62
     9
 10
4050.0
 20
3490.0
 30
0.0
 11
4050.0
 21
3439.25944
 31
0.0
  0
LINE
  5
76
  8
0
  6
BYBLOCK
 62
     9
 10
4480.0
 20
3440.25944
 30
0.0
 11
4360.75
 21
3440.25944
 31
0.0
  0
LINE
  5
77
  8
0
  6
BYBLOCK
 62
     9
 10
4070.0
 20
3440.25944
 30
0.0
 11
4189.25
 21
3440.25944
 31
0.0
  0
SOLID
  5
78
  8
0
  6
BYBLOCK
 62
     9
 10
4480.0
 20
3443.592773
 30
0.0
 11
4480.0
 21
3436.926107
 31
0.0
 12
4500.0
 22
3440.25944
 32
0.0
 13
4500.0
 23
3440.25944
 33
0.0
  0
SOLID
  5
79
  8
0
  6
BYBLOCK
 62
     9
 10
4070.0
 20
3443.592773
 30
0.0
 11
4070.0
 21
3436.926107
 31
0.0
 12
4050.0
 22
3440.25944
 32
0.0
 13
4050.0
 23
3440.25944
 33
0.0
  0
TEXT
  5
7A
  8
0
  6
BYBLOCK
 62
    11
 10
4196.25
 20
3422.75944
 30
0.0
 40
35.0
  1
450.00
  0
POINT
  5
7B
  8
DEFPOINTS
  6
BYBLOCK
 62
     0
 10
4500.0
 20
3520.0
 30
0.0
  0
POINT
  5
7C
  8
DEFPOINTS
  6
BYBLOCK
 62
     0
 10
4050.0
 20
3500.0
 30
0.0
  0
POINT
  5
7D
  8
DEFPOINTS
  6
BYBLOCK
 62
     0
 10
4050.0
 20
3440.25944
 30
0.0
  0
ENDBLK
  5
7F
  8
0
  0
BLOCK
  8
0
  2
*D7
 70
     1
 10
0.0
 20
0.0
 30
0.0
  3
*D7
  1

  0
LINE
  5
88
  8
0
  6
BYBLOCK
 62
     9
 10
4380.0
 20
3565.0
 30
0.0
 11
4576.702588
 21
3565.0
 31
0.0
  0
LINE
  5
89
  8
0
  6
BYBLOCK
 62
     9
 10
4490.0
 20
3500.0
 30
0.0
 11
4576.702588
 21
3500.0
 31
0.0
  0
LINE
  5
8A
  8
0
  6
BYBLOCK
 62
     9
 10
4575.702588
 20
3545.0
 30
0.0
 11
4575.702588
 21
3520.0
 31
0.0
  0
TEXT
  5
8B
  8
0
  6
BYBLOCK
 62
    11
 10
4622.202588
 20
3468.333333
 30
0.0
 40
35.0
  1
65.00
 50
90.0
  0
SOLID
  5
8C
  8
0
  6
BYBLOCK
 62
     9
 10
4572.369255
 20
3545.0
 30
0.0
 11
4579.035922
 21
3545.0
 31
0.0
 12
4575.702588
 22
3565.0
 32
0.0
 13
4575.702588
 23
3565.0
 33
0.0
  0
SOLID
  5
8D
  8
0
  6
BYBLOCK
 62
     9
 10
4572.369255
 20
3520.0
 30
0.0
 11
4579.035922
 21
3520.0
 31
0.0
 12
4575.702588
 22
3500.0
 32
0.0
 13
4575.702588
 23
3500.0
 33
0.0
  0
POINT
  5
8E
  8
DEFPOINTS
  6
BYBLOCK
 62
     0
 10
4370.0
 20
3565.0
 30
0.0
  0
POINT
  5
8F
  8
DEFPOINTS
  6
BYBLOCK
 62
     0
 10
4480.0
 20
3500.0
 30
0.0
  0
POINT
  5
90
  8
DEFPOINTS
  6
BYBLOCK
 62
     0
 10
4575.702588
 20
3500.0
 30
0.0
  0
ENDBLK
  5
92
  8
0
  0
BLOCK
  8
0
  2
*D8
 70
     1
 10
0.0
 20
0.0
 30
0.0
  3
*D8
  1

  0
LINE
  5
57
  8
0
  6
BYBLOCK
 62
     9
 10
3565.0
 20
4380.0
 30
0.0
 11
3565.0
 21
4583.984137
 31
0.0
  0
LINE
  5
58
  8
0
  6
BYBLOCK
 62
     9
 10
3500.0
 20
4490.0
 30
0.0
 11
3500.0
 21
4583.984137
 31
0.0
  0
LINE
  5
59
  8
0
  6
BYBLOCK
 62
     9
 10
3545.0
 20
4582.984137
 30
0.0
 11
3520.0
 21
4582.984137
 31
0.0
  0
TEXT
  5
5A
  8
0
  6
BYBLOCK
 62
    11
 10
3468.333333
 20
4594.484137
 30
0.0
 40
35.0
  1
65.00
  0
SOLID
  5
5B
  8
0
  6
BYBLOCK
 62
     9
 10
3545.0
 20
4586.31747
 30
0.0
 11
3545.0
 21
4579.650803
 31
0.0
 12
3565.0
 22
4582.984137
 32
0.0
 13
3565.0
 23
4582.984137
 33
0.0
  0
SOLID
  5
5C
  8
0
  6
BYBLOCK
 62
     9
 10
3520.0
 20
4586.31747
 30
0.0
 11
3520.0
 21
4579.650803
 31
0.0
 12
3500.0
 22
4582.984137
 32
0.0
 13
3500.0
 23
4582.984137
 33
0.0
  0
POINT
  5
5D
  8
DEFPOINTS
  6
BYBLOCK
 62
     0
 10
3565.0
 20
4370.0
 30
0.0
  0
POINT
  5
5E
  8
DEFPOINTS
  6
BYBLOCK
 62
     0
 10
3500.0
 20
4480.0
 30
0.0
  0
POINT
  5
5F
  8
DEFPOINTS
  6
BYBLOCK
 62
     0
 10
3500.0
 20
4582.984137
 30
0.0
  0
ENDBLK
  5
61
  8
0
  0
ENDSEC
  0
SECTION
  2
ENTITIES
  0
DIMENSION
  5
20
  8
TEAM-MAS
  2
*D0
 10
500.0
 20
-627.54016
 30
0.0
 11
0.0
 21
-627.54016
 31
0.0
 12
-4000.0
 22
-4000.0
 32
0.0
 13
-500.0
 23
50.0
 33
0.0
 14
500.0
 24
-480.0
 34
0.0
  0
ARC
  5
2F
  8
TEAM-DET1
 10
50.0
 20
50.0
 30
0.0
 40
485.0
 50
180.0
 51
270.0
  0
ARC
  5
31
  8
TEAM-BODY
 10
50.0
 20
50.0
 30
0.0
 40
445.0
 50
180.0
 51
270.0
  0
LINE
  5
33
  8
TEAM-DET1
 10
370.0
 20
445.0
 30
0.0
 11
-360.0
 21
445.0
 31
0.0
  0
LINE
  5
34
  8
TEAM-BODY
 10
370.0
 20
405.0
 30
0.0
 11
-360.0
 21
405.0
 31
0.0
  0
DIMENSION
  5
35
  8
TEAM-MAS
  2
*D1
 10
-635.833852
 20
-500.0
 30
0.0
 11
-635.833852
 21
0.0
 31
0.0
 12
-4000.0
 22
-4000.0
 32
0.0
 13
-480.0
 23
500.0
 33
0.0
 14
50.0
 24
-500.0
 34
0.0
 50
270.0
  0
LINE
  5
43
  8
TEAM-BODY
 10
480.0
 20
500.0
 30
0.0
 11
-480.0
 21
500.0
 31
0.0
  0
DIMENSION
  5
44
  8
TEAM-MAS
  2
*D4
 10
50.0
 20
50.0
 30
0.0
 11
-117.531056
 21
-76.369553
 31
0.0
 12
-4000.0
 22
-4000.0
 32
0.0
 70
   132
 15
-337.763654
 25
-340.050443
 35
0.0
 40
0.0
1001
ACAD
1000
DSTYLE
1002
{
1070
   288
1070
     1
1070
    40
1040
1.0
1002
}
  0
ARC
  5
4D
  8
TEAM-BODY
 10
50.0
 20
50.0
 30
0.0
 40
550.0
 50
180.0
 51
270.0
  0
LINE
  5
4E
  8
TEAM-DET1
 10
-435.0
 20
370.0
 30
0.0
 11
-435.0
 21
50.0
 31
0.0
  0
LINE
  5
4F
  8
TEAM-BODY
 10
-395.0
 20
370.0
 30
0.0
 11
-395.0
 21
50.0
 31
0.0
  0
TEXT
  5
50
  8
TEAM-TXT
 10
-352.98384
 20
346.567134
 30
0.0
 40
30.0
  1
team 141325
 41
0.8
 51
15.0
  7
TEAM
  0
ARC
  5
53
  8
TEAM-DET1
 10
-360.0
 20
370.0
 30
0.0
 40
75.0
 50
90.0
 51
180.0
  0
ARC
  5
54
  8
TEAM-BODY
 10
-360.0
 20
370.0
 30
0.0
 40
35.0
 50
90.0
 51
180.0
  0
DIMENSION
  5
55
  8
TEAM-MAS
  2
*D8
 10
-500.0
 20
582.984137
 30
0.0
 11
-467.5
 21
611.984137
 31
0.0
 12
-4000.0
 22
-4000.0
 32
0.0
 13
-435.0
 23
370.0
 33
0.0
 14
-500.0
 24
480.0
 34
0.0
1001
ACAD
1000
DSTYLE
1002
{
1070
    40
1040
1.0
1002
}
  0
DIMENSION
  5
62
  8
TEAM-MAS
  2
*D5
 10
-565.898232
 20
50.0
 30
0.0
 11
-565.898232
 21
275.0
 31
0.0
 12
-4000.0
 22
-4000.0
 32
0.0
 13
-480.0
 23
500.0
 33
0.0
 14
-500.0
 24
50.0
 34
0.0
 50
90.0
1001
ACAD
1000
DSTYLE
1002
{
1070
    40
1040
1.0
1002
}
  0
ARC
  5
70
  8
TEAM-BODY
 10
-480.0
 20
480.0
 30
0.0
 40
20.0
 50
90.0
 51
180.0
  0
LINE
  5
71
  8
TEAM-BODY
 10
-500.0
 20
480.0
 30
0.0
 11
-500.0
 21
50.0
 31
0.0
  0
DIMENSION
  5
72
  8
TEAM-MAS
  2
*D6
 10
50.0
 20
-559.74056
 30
0.0
 11
275.0
 21
-559.74056
 31
0.0
 12
-4000.0
 22
-4000.0
 32
0.0
 13
500.0
 23
-480.0
 33
0.0
 14
50.0
 24
-500.0
 34
0.0
1001
ACAD
1000
DSTYLE
1002
{
1070
    40
1040
1.0
1002
}
  0
LINE
  5
80
  8
TEAM-DET1
 10
50.0
 20
-435.0
 30
0.0
 11
370.0
 21
-435.0
 31
0.0
  0
LINE
  5
81
  8
TEAM-BODY
 10
50.0
 20
-395.0
 30
0.0
 11
370.0
 21
-395.0
 31
0.0
  0
ARC
  5
82
  8
TEAM-BODY
 10
370.0
 20
-360.0
 30
0.0
 40
35.0
 50
270.0
 51
0.0
  0
ARC
  5
83
  8
TEAM-DET1
 10
370.0
 20
-360.0
 30
0.0
 40
75.0
 50
270.0
 51
0.0
  0
LINE
  5
84
  8
TEAM-DET1
 10
445.0
 20
-360.0
 30
0.0
 11
445.0
 21
370.0
 31
0.0
  0
LINE
  5
85
  8
TEAM-BODY
 10
405.0
 20
-360.0
 30
0.0
 11
405.0
 21
370.0
 31
0.0
  0
DIMENSION
  5
86
  8
TEAM-MAS
  2
*D7
 10
575.702588
 20
-500.0
 30
0.0
 11
604.702588
 21
-467.5
 31
0.0
 12
-4000.0
 22
-4000.0
 32
0.0
 13
370.0
 23
-435.0
 33
0.0
 14
480.0
 24
-500.0
 34
0.0
 50
90.0
1001
ACAD
1000
DSTYLE
1002
{
1070
    40
1040
1.0
1002
}
  0
ARC
  5
93
  8
TEAM-BODY
 10
480.0
 20
-480.0
 30
0.0
 40
20.0
 50
270.0
 51
0.0
  0
LINE
  5
94
  8
TEAM-BODY
 10
50.0
 20
-500.0
 30
0.0
 11
480.0
 21
-500.0
 31
0.0
  0
LINE
  5
95
  8
TEAM-BODY
 10
500.0
 20
-480.0
 30
0.0
 11
500.0
 21
480.0
 31
0.0
  0
ARC
  5
96
  8
TEAM-BODY
 10
480.0
 20
480.0
 30
0.0
 40
20.0
 50
0.0
 51
90.0
  0
LINE
  5
97
  8
TEAM-AXE
 10
310.0
 20
310.0
 30
0.0
 11
245.0
 21
310.0
 31
0.0
  0
CIRCLE
  5
9A
  8
TEAM-DET1
 10
310.0
 20
310.0
 30
0.0
 40
45.0
  0
CIRCLE
  5
9B
  8
TEAM-INSP
 10
0.0
 20
0.0
 30
0.0
 40
10.0
  0
LINE
  5
9D
  8
TEAM-AXE
 10
310.0
 20
310.0
 30
0.0
 11
380.56237
 21
310.0
 31
0.0
  0
LINE
  5
9E
  8
TEAM-AXE
 10
310.0
 20
310.0
 30
0.0
 11
310.0
 21
245.0
 31
0.0
  0
LINE
  5
9F
  8
TEAM-AXE
 10
310.0
 20
310.0
 30
0.0
 11
310.0
 21
375.0
 31
0.0
  0
CIRCLE
  5
A0
  8
TEAM-BODY
 10
310.0
 20
310.0
 30
0.0
 40
35.0
  0
ARC
  5
A1
  8
TEAM-DET1
 10
370.0
 20
370.0
 30
0.0
 40
75.0
 50
0.0
 51
90.0
  0
ARC
  5
A2
  8
TEAM-BODY
 10
370.0
 20
370.0
 30
0.0
 40
35.0
 50
0.0
 51
90.0
  0
DIMENSION
  5
A3
  8
TEAM-MAS
  2
*D2
 10
500.0
 20
583.987274
 30
0.0
 11
405.0
 21
583.987274
 31
0.0
 12
0.0
 22
-4000.0
 32
0.0
 13
310.0
 23
375.0
 33
0.0
 14
500.0
 24
500.0
 34
0.0
  0
DIMENSION
  5
B1
  8
TEAM-MAS
  2
*D3
 10
573.665558
 20
500.0
 30
0.0
 11
573.665558
 21
405.0
 31
0.0
 12
0.0
 22
-4000.0
 32
0.0
 13
380.56237
 23
310.0
 33
0.0
 14
500.0
 24
500.0
 34
0.0
 50
90.0
  0
ENDSEC
  0
EOF
