  0
SECTION
  2
HEADER
  9
$ACADVER
  1
AC1009
  9
$INSBASE
 10
0.0
 20
0.0
 30
0.0
  9
$EXTMIN
 10
-600.064718
 20
-620.85583
 30
0.0
  9
$EXTMAX
 10
735.59712
 20
500.074071
 30
0.0
  9
$LIMMIN
 10
-600.064718
 20
-620.85583
  9
$LIMMAX
 10
735.59712
 20
500.074071
  9
$ORTHOMODE
 70
     1
  9
$REGENMODE
 70
     1
  9
$FILLMODE
 70
     1
  9
$QTEXTMODE
 70
     0
  9
$MIRRTEXT
 70
     0
  9
$DRAGMODE
 70
     2
  9
$LTSCALE
 40
25.0
  9
$OSMODE
 70
     0
  9
$ATTMODE
 70
     1
  9
$TEXTSIZE
 40
200.0
  9
$TRACEWID
 40
1.0
  9
$TEXTSTYLE
  7
STANDARD
  9
$CLAYER
  8
TEAM-MAS
  9
$CELTYPE
  6
BYLAYER
  9
$CECOLOR
 62
   256
  9
$DIMSCALE
 40
0.0
  9
$DIMASZ
 40
20.0
  9
$DIMEXO
 40
10.0
  9
$DIMDLI
 40
1.0
  9
$DIMRND
 40
0.0
  9
$DIMDLE
 40
0.0
  9
$DIMEXE
 40
1.0
  9
$DIMTP
 40
0.0
  9
$DIMTM
 40
0.0
  9
$DIMTXT
 40
35.0
  9
$DIMCEN
 40
1.0
  9
$DIMTSZ
 40
0.0
  9
$DIMTOL
 70
     0
  9
$DIMLIM
 70
     0
  9
$DIMTIH
 70
     0
  9
$DIMTOH
 70
     0
  9
$DIMSE1
 70
     0
  9
$DIMSE2
 70
     0
  9
$DIMTAD
 70
     0
  9
$DIMZIN
 70
     0
  9
$DIMBLK
  1

  9
$DIMASO
 70
     1
  9
$DIMSHO
 70
     0
  9
$DIMPOST
  1

  9
$DIMAPOST
  1

  9
$DIMALT
 70
     0
  9
$DIMALTD
 70
     2
  9
$DIMALTF
 40
25.4
  9
$DIMLFAC
 40
1.0
  9
$DIMTOFL
 70
     0
  9
$DIMTVP
 40
0.0
  9
$DIMTIX
 70
     0
  9
$DIMSOXD
 70
     0
  9
$DIMSAH
 70
     0
  9
$DIMBLK1
  1

  9
$DIMBLK2
  1

  9
$DIMSTYLE
  2
TEAM
  9
$DIMCLRD
 70
     9
  9
$DIMCLRE
 70
     9
  9
$DIMCLRT
 70
    11
  9
$DIMTFAC
 40
1.0
  9
$DIMGAP
 40
15.0
  9
$LUNITS
 70
     2
  9
$LUPREC
 70
     1
  9
$SKETCHINC
 40
1.0
  9
$FILLETRAD
 40
50.0
  9
$AUNITS
 70
     0
  9
$AUPREC
 70
     0
  9
$MENU
  1
ROPLANS
  9
$ELEVATION
 40
0.0
  9
$PELEVATION
 40
0.0
  9
$THICKNESS
 40
0.0
  9
$LIMCHECK
 70
     0
  9
$BLIPMODE
 70
     1
  9
$CHAMFERA
 40
0.0
  9
$CHAMFERB
 40
0.0
  9
$SKPOLY
 70
     0
  9
$TDCREATE
 40
2450392.957851
  9
$TDUPDATE
 40
2455493.97462
  9
$TDINDWG
 40
1.964495
  9
$TDUSRTIMER
 40
1.964495
  9
$USRTIMER
 70
     1
  9
$ANGBASE
 50
0.0
  9
$ANGDIR
 70
     0
  9
$PDMODE
 70
     0
  9
$PDSIZE
 40
0.0
  9
$PLINEWID
 40
0.0
  9
$COORDS
 70
     2
  9
$SPLFRAME
 70
     0
  9
$SPLINETYPE
 70
     6
  9
$SPLINESEGS
 70
     8
  9
$ATTDIA
 70
     0
  9
$ATTREQ
 70
     0
  9
$HANDLING
 70
     1
  9
$HANDSEED
  5
137
  9
$SURFTAB1
 70
    24
  9
$SURFTAB2
 70
    24
  9
$SURFTYPE
 70
     6
  9
$SURFU
 70
     6
  9
$SURFV
 70
     6
  9
$UCSNAME
  2

  9
$UCSORG
 10
0.0
 20
0.0
 30
0.0
  9
$UCSXDIR
 10
1.0
 20
0.0
 30
0.0
  9
$UCSYDIR
 10
0.0
 20
1.0
 30
0.0
  9
$PUCSNAME
  2

  9
$PUCSORG
 10
0.0
 20
0.0
 30
0.0
  9
$PUCSXDIR
 10
1.0
 20
0.0
 30
0.0
  9
$PUCSYDIR
 10
0.0
 20
1.0
 30
0.0
  9
$USERI1
 70
     0
  9
$USERI2
 70
     0
  9
$USERI3
 70
     0
  9
$USERI4
 70
     0
  9
$USERI5
 70
     0
  9
$USERR1
 40
0.0
  9
$USERR2
 40
0.0
  9
$USERR3
 40
0.0
  9
$USERR4
 40
0.0
  9
$USERR5
 40
0.0
  9
$WORLDVIEW
 70
     1
  9
$SHADEDGE
 70
     0
  9
$SHADEDIF
 70
    70
  9
$TILEMODE
 70
     1
  9
$MAXACTVP
 70
    16
  9
$PLIMCHECK
 70
     0
  9
$PEXTMIN
 10
-0.805942
 20
0.005011
 30
0.0
  9
$PEXTMAX
 10
20.250094
 20
11.356329
 30
0.0
  9
$PLIMMIN
 10
0.0
 20
0.0
  9
$PLIMMAX
 10
12.0
 20
9.0
  9
$UNITMODE
 70
     0
  9
$VISRETAIN
 70
     0
  9
$PLINEGEN
 70
     0
  9
$PSLTSCALE
 70
     0
  0
ENDSEC
  0
SECTION
  2
TABLES
  0
TABLE
  2
VPORT
 70
     2
  0
VPORT
  2
*ACTIVE
 70
     0
 10
0.0
 20
0.0
 11
1.0
 21
1.0
 12
67.766201
 22
-60.39088
 13
0.0
 23
0.0
 14
1.0
 24
1.0
 15
50.0
 25
50.0
 16
0.0
 26
0.0
 36
1.0
 17
0.0
 27
0.0
 37
0.0
 40
1127.81381
 41
1.865779
 42
50.0
 43
0.0
 44
0.0
 50
0.0
 51
0.0
 71
     0
 72
   100
 73
     1
 74
     1
 75
     0
 76
     0
 77
     0
 78
     0
  0
ENDTAB
  0
TABLE
  2
LTYPE
 70
     2
  0
LTYPE
  2
CONTINUOUS
 70
     0
  3
Solid Line
 72
    65
 73
     0
 40
0.0
  0
LTYPE
  2
31
 70
     0
  3

 72
    65
 73
     4
 40
2.1
 49
1.5
 49
-0.3
 49
0.0
 49
-0.3
  0
ENDTAB
  0
TABLE
  2
LAYER
 70
     9
  0
LAYER
  2
0
 70
     0
 62
     7
  6
CONTINUOUS
  0
LAYER
  2
DEFPOINTS
 70
     0
 62
     7
  6
CONTINUOUS
  0
LAYER
  2
TEAM-BODY
 70
     0
 62
     2
  6
CONTINUOUS
  0
LAYER
  2
TEAM-AXE
 70
     0
 62
    10
  6
31
  0
LAYER
  2
TEAM-MAS
 70
     0
 62
     9
  6
CONTINUOUS
  0
LAYER
  2
TEAM-TXT
 70
     0
 62
    11
  6
CONTINUOUS
  0
LAYER
  2
TEAM-DET1
 70
     0
 62
     4
  6
CONTINUOUS
  0
LAYER
  2
TEAM-DET3
 70
     0
 62
    14
  6
CONTINUOUS
  0
LAYER
  2
TEAM-INSP
 70
     0
 62
     5
  6
CONTINUOUS
  0
ENDTAB
  0
TABLE
  2
STYLE
 70
     2
  0
STYLE
  2
STANDARD
 70
     0
 40
0.0
 41
1.0
 50
0.0
 71
     0
 42
200.0
  3
txt
  4

  0
STYLE
  2
TEAM
 70
     0
 40
0.0
 41
0.8
 50
15.0
 71
     0
 42
7.0
  3
ROMANS.shx
  4

  0
ENDTAB
  0
TABLE
  2
VIEW
 70
     0
  0
ENDTAB
  0
TABLE
  2
UCS
 70
     0
  0
ENDTAB
  0
TABLE
  2
APPID
 70
     1
  0
APPID
  2
ACAD
 70
     0
  0
ENDTAB
  0
TABLE
  2
DIMSTYLE
 70
     1
  0
DIMSTYLE
  2
TEAM
 70
     0
  3

  4

  5

  6

  7

 40
0.0
 41
20.0
 42
10.0
 43
1.0
 44
1.0
 45
0.0
 46
0.0
 47
0.0
 48
0.0
140
35.0
141
1.0
142
0.0
143
25.4
144
1.0
145
0.0
146
1.0
147
15.0
 71
     0
 72
     0
 73
     0
 74
     0
 75
     0
 76
     0
 77
     0
 78
     0
170
     0
171
     2
172
     0
173
     0
174
     0
175
     0
176
     9
177
     9
178
    11
  0
ENDTAB
  0
ENDSEC
  0
SECTION
  2
BLOCKS
  0
BLOCK
  8
0
  2
$MODEL_SPACE
 70
     0
 10
0.0
 20
0.0
 30
0.0
  3
$MODEL_SPACE
  1

  0
ENDBLK
  5
12B
  8
0
  0
BLOCK
 67
     1
  8
0
  2
$PAPER_SPACE
 70
     0
 10
0.0
 20
0.0
 30
0.0
  3
$PAPER_SPACE
  1

  0
ENDBLK
  5
129
 67
     1
  8
0
  0
BLOCK
  8
0
  2
*D0
 70
     1
 10
0.0
 20
0.0
 30
0.0
  3
*D0
  1

  0
LINE
  5
63
  8
0
  6
BYBLOCK
 62
     9
 10
7400.0
 20
403490.0
 30
0.0
 11
7400.0
 21
403393.979004
 31
0.0
  0
LINE
  5
64
  8
0
  6
BYBLOCK
 62
     9
 10
8600.0
 20
403490.0
 30
0.0
 11
8600.0
 21
403393.979004
 31
0.0
  0
LINE
  5
65
  8
0
  6
BYBLOCK
 62
     9
 10
7420.0
 20
403394.979004
 30
0.0
 11
7944.73622
 21
403394.979004
 31
0.0
  0
LINE
  5
66
  8
0
  6
BYBLOCK
 62
     9
 10
8580.0
 20
403394.979004
 30
0.0
 11
8055.26378
 21
403394.979004
 31
0.0
  0
SOLID
  5
67
  8
0
  6
BYBLOCK
 62
     9
 10
7420.0
 20
403398.312337
 30
0.0
 11
7420.0
 21
403391.64567
 31
0.0
 12
7400.0
 22
403394.979004
 32
0.0
 13
7400.0
 23
403394.979004
 33
0.0
  0
SOLID
  5
68
  8
0
  6
BYBLOCK
 62
     9
 10
8580.0
 20
403398.312337
 30
0.0
 11
8580.0
 21
403391.64567
 31
0.0
 12
8600.0
 22
403394.979004
 32
0.0
 13
8600.0
 23
403394.979004
 33
0.0
  0
TEXT
  5
69
  8
0
  6
BYBLOCK
 62
    11
 10
7954.48622
 20
403377.479004
 30
0.0
 40
35.0
  1
1200
  0
POINT
  5
6A
  8
DEFPOINTS
  6
BYBLOCK
 62
     0
 10
7400.0
 20
403500.0
 30
0.0
  0
POINT
  5
6B
  8
DEFPOINTS
  6
BYBLOCK
 62
     0
 10
8600.0
 20
403500.0
 30
0.0
  0
POINT
  5
6C
  8
DEFPOINTS
  6
BYBLOCK
 62
     0
 10
8600.0
 20
403394.979004
 30
0.0
  0
ENDBLK
  5
6E
  8
0
  0
BLOCK
  8
0
  2
*D1
 70
     1
 10
0.0
 20
0.0
 30
0.0
  3
*D1
  1

  0
LINE
  5
52
  8
0
  6
BYBLOCK
 62
     9
 10
8610.0
 20
403500.0
 30
0.0
 11
8720.769076
 21
403500.0
 31
0.0
  0
LINE
  5
53
  8
0
  6
BYBLOCK
 62
     9
 10
8610.0
 20
404500.0
 30
0.0
 11
8720.769076
 21
404500.0
 31
0.0
  0
LINE
  5
54
  8
0
  6
BYBLOCK
 62
     9
 10
8719.769076
 20
403520.0
 30
0.0
 11
8719.769076
 21
403944.73622
 31
0.0
  0
LINE
  5
55
  8
0
  6
BYBLOCK
 62
     9
 10
8719.769076
 20
404480.0
 30
0.0
 11
8719.769076
 21
404055.26378
 31
0.0
  0
SOLID
  5
56
  8
0
  6
BYBLOCK
 62
     9
 10
8716.435742
 20
403520.0
 30
0.0
 11
8723.102409
 21
403520.0
 31
0.0
 12
8719.769076
 22
403500.0
 32
0.0
 13
8719.769076
 23
403500.0
 33
0.0
  0
SOLID
  5
57
  8
0
  6
BYBLOCK
 62
     9
 10
8716.435742
 20
404480.0
 30
0.0
 11
8723.102409
 21
404480.0
 31
0.0
 12
8719.769076
 22
404500.0
 32
0.0
 13
8719.769076
 23
404500.0
 33
0.0
  0
TEXT
  5
58
  8
0
  6
BYBLOCK
 62
    11
 10
8737.269076
 20
403954.48622
 30
0.0
 40
35.0
  1
1000
 50
90.0
  0
POINT
  5
59
  8
DEFPOINTS
  6
BYBLOCK
 62
     0
 10
8600.0
 20
403500.0
 30
0.0
  0
POINT
  5
5A
  8
DEFPOINTS
  6
BYBLOCK
 62
     0
 10
8600.0
 20
404500.0
 30
0.0
  0
POINT
  5
5B
  8
DEFPOINTS
  6
BYBLOCK
 62
     0
 10
8719.769076
 20
404500.0
 30
0.0
  0
ENDBLK
  5
5D
  8
0
  0
BLOCK
  8
0
  2
*D2
 70
     1
 10
0.0
 20
0.0
 30
0.0
  3
*D2
  1

  0
LINE
  5
44
  8
0
  6
BYBLOCK
 62
     9
 10
8000.0
 20
403990.0
 30
0.0
 11
8000.0
 21
403447.466652
 31
0.0
  0
LINE
  5
45
  8
0
  6
BYBLOCK
 62
     9
 10
8600.0
 20
403490.0
 30
0.0
 11
8600.0
 21
403447.466652
 31
0.0
  0
LINE
  5
46
  8
0
  6
BYBLOCK
 62
     9
 10
8020.0
 20
403448.466652
 30
0.0
 11
8252.438976
 21
403448.466652
 31
0.0
  0
LINE
  5
47
  8
0
  6
BYBLOCK
 62
     9
 10
8580.0
 20
403448.466652
 30
0.0
 11
8347.561024
 21
403448.466652
 31
0.0
  0
SOLID
  5
48
  8
0
  6
BYBLOCK
 62
     9
 10
8020.0
 20
403451.799986
 30
0.0
 11
8020.0
 21
403445.133319
 31
0.0
 12
8000.0
 22
403448.466652
 32
0.0
 13
8000.0
 23
403448.466652
 33
0.0
  0
SOLID
  5
49
  8
0
  6
BYBLOCK
 62
     9
 10
8580.0
 20
403451.799986
 30
0.0
 11
8580.0
 21
403445.133319
 31
0.0
 12
8600.0
 22
403448.466652
 32
0.0
 13
8600.0
 23
403448.466652
 33
0.0
  0
TEXT
  5
4A
  8
0
  6
BYBLOCK
 62
    11
 10
8264.283465
 20
403430.966652
 30
0.0
 40
35.0
  1
600
  0
POINT
  5
4B
  8
DEFPOINTS
  6
BYBLOCK
 62
     0
 10
8000.0
 20
404000.0
 30
0.0
  0
POINT
  5
4C
  8
DEFPOINTS
  6
BYBLOCK
 62
     0
 10
8600.0
 20
403500.0
 30
0.0
  0
POINT
  5
4D
  8
DEFPOINTS
  6
BYBLOCK
 62
     0
 10
8600.0
 20
403448.466652
 30
0.0
  0
ENDBLK
  5
4F
  8
0
  0
BLOCK
  8
0
  2
*D3
 70
     1
 10
0.0
 20
0.0
 30
0.0
  3
*D3
  1

  0
LINE
  5
35
  8
0
  6
BYBLOCK
 62
     9
 10
8610.0
 20
403500.0
 30
0.0
 11
8661.551761
 21
403500.0
 31
0.0
  0
LINE
  5
36
  8
0
  6
BYBLOCK
 62
     9
 10
8010.0
 20
404000.0
 30
0.0
 11
8661.551761
 21
404000.0
 31
0.0
  0
LINE
  5
37
  8
0
  6
BYBLOCK
 62
     9
 10
8660.551761
 20
403520.0
 30
0.0
 11
8660.551761
 21
403703.48622
 31
0.0
  0
LINE
  5
38
  8
0
  6
BYBLOCK
 62
     9
 10
8660.551761
 20
403980.0
 30
0.0
 11
8660.551761
 21
403796.51378
 31
0.0
  0
SOLID
  5
39
  8
0
  6
BYBLOCK
 62
     9
 10
8657.218428
 20
403520.0
 30
0.0
 11
8663.885094
 21
403520.0
 31
0.0
 12
8660.551761
 22
403500.0
 32
0.0
 13
8660.551761
 23
403500.0
 33
0.0
  0
SOLID
  5
3A
  8
0
  6
BYBLOCK
 62
     9
 10
8657.218428
 20
403980.0
 30
0.0
 11
8663.885094
 21
403980.0
 31
0.0
 12
8660.551761
 22
404000.0
 32
0.0
 13
8660.551761
 23
404000.0
 33
0.0
  0
TEXT
  5
3B
  8
0
  6
BYBLOCK
 62
    11
 10
8678.051761
 20
403713.23622
 30
0.0
 40
35.0
  1
500
 50
90.0
  0
POINT
  5
3C
  8
DEFPOINTS
  6
BYBLOCK
 62
     0
 10
8600.0
 20
403500.0
 30
0.0
  0
POINT
  5
3E
  8
DEFPOINTS
  6
BYBLOCK
 62
     0
 10
8000.0
 20
404000.0
 30
0.0
  0
POINT
  5
3F
  8
DEFPOINTS
  6
BYBLOCK
 62
     0
 10
8660.551761
 20
404000.0
 30
0.0
  0
ENDBLK
  5
41
  8
0
  0
ENDSEC
  0
SECTION
  2
ENTITIES
  0
TEXT
  5
20
  8
TEAM-TXT
 10
-471.525704
 20
327.177505
 30
0.0
 40
30.0
  1
team 141347
 41
0.8
 51
15.0
  7
TEAM
  0
CIRCLE
  5
23
  8
TEAM-DET3
 10
0.0
 20
0.0
 30
0.0
 40
52.0
  0
CIRCLE
  5
25
  8
TEAM-INSP
 10
0.0
 20
0.0
 30
0.0
 40
7.1
  0
CIRCLE
  5
27
  8
TEAM-DET3
 10
0.0
 20
0.0
 30
0.0
 40
45.0
  0
CIRCLE
  5
28
  8
TEAM-DET3
 10
0.0
 20
0.0
 30
0.0
 40
60.0
  0
LINE
  5
29
  8
TEAM-DET3
 10
60.0
 20
-60.0
 30
0.0
 11
-60.0
 21
-60.0
 31
0.0
  0
LINE
  5
2A
  8
TEAM-DET3
 10
-60.0
 20
60.0
 30
0.0
 11
60.0
 21
60.0
 31
0.0
  0
LINE
  5
2B
  8
TEAM-DET3
 10
-60.0
 20
-60.0
 30
0.0
 11
-60.0
 21
60.0
 31
0.0
  0
LINE
  5
2C
  8
TEAM-DET3
 10
60.0
 20
60.0
 30
0.0
 11
60.0
 21
-60.0
 31
0.0
  0
CIRCLE
  5
2D
  8
TEAM-DET1
 10
0.0
 20
0.0
 30
0.0
 40
40.0
  0
LINE
  5
2F
  8
TEAM-AXE
 10
0.0
 20
-60.0
 30
0.0
 11
0.0
 21
60.0
 31
0.0
  0
LINE
  5
32
  8
TEAM-AXE
 10
-60.0
 20
0.0
 30
0.0
 11
60.0
 21
0.0
 31
0.0
  0
DIMENSION
  5
33
  8
TEAM-MAS
  2
*D3
 10
660.551761
 20
0.0
 30
0.0
 11
660.551761
 21
-250.0
 31
0.0
 12
-8000.0
 22
-404000.0
 32
0.0
 13
600.0
 23
-500.0
 33
0.0
 14
0.0
 24
0.0
 34
0.0
 50
90.0
  0
DIMENSION
  5
42
  8
TEAM-MAS
  2
*D2
 10
600.0
 20
-551.533348
 30
0.0
 11
300.0
 21
-551.533348
 31
0.0
 12
-8000.0
 22
-404000.0
 32
0.0
 13
0.0
 23
0.0
 33
0.0
 14
600.0
 24
-500.0
 34
0.0
  0
DIMENSION
  5
50
  8
TEAM-MAS
  2
*D1
 10
719.769076
 20
500.0
 30
0.0
 11
719.769076
 21
0.0
 31
0.0
 12
-8000.0
 22
-404000.0
 32
0.0
 13
600.0
 23
-500.0
 33
0.0
 14
600.0
 24
500.0
 34
0.0
 50
90.0
  0
LINE
  5
5E
  8
TEAM-AXE
 10
0.0
 20
-500.0
 30
0.0
 11
0.0
 21
500.0
 31
0.0
  0
POLYLINE
  5
5F
  8
TEAM-BODY
 66
     1
 10
0.0
 20
0.0
 30
0.0
 70
     1
  0
VERTEX
  5
131
  8
TEAM-BODY
 10
-600.0
 20
-500.0
 30
0.0
  0
VERTEX
  5
132
  8
TEAM-BODY
 10
600.0
 20
-500.0
 30
0.0
  0
VERTEX
  5
133
  8
TEAM-BODY
 10
600.0
 20
500.0
 30
0.0
  0
VERTEX
  5
134
  8
TEAM-BODY
 10
-600.0
 20
500.0
 30
0.0
  0
SEQEND
  5
135
  8
TEAM-BODY
  0
DIMENSION
  5
61
  8
TEAM-MAS
  2
*D0
 10
600.0
 20
-605.020997
 30
0.0
 11
0.0
 21
-605.020997
 31
0.0
 12
-8000.0
 22
-404000.0
 32
0.0
 13
-600.0
 23
-500.0
 33
0.0
 14
600.0
 24
-500.0
 34
0.0
  0
LINE
  5
6F
  8
TEAM-AXE
 10
-600.0
 20
0.0
 30
0.0
 11
600.0
 21
0.0
 31
0.0
  0
ENDSEC
  0
EOF
