  0
SECTION
  2
HEADER
  9
$ACADVER
  1
AC1009
  9
$INSBASE
 10
0.0
 20
0.0
 30
0.0
  9
$EXTMIN
 10
-800.089121
 20
-497.534516
 30
0.0
  9
$EXTMAX
 10
937.298861
 20
375.041928
 30
0.000005
  9
$LIMMIN
 10
-800.089121
 20
-497.534516
  9
$LIMMAX
 10
937.298861
 20
375.041928
  9
$ORTHOMODE
 70
     1
  9
$REGENMODE
 70
     1
  9
$FILLMODE
 70
     1
  9
$QTEXTMODE
 70
     0
  9
$MIRRTEXT
 70
     0
  9
$DRAGMODE
 70
     2
  9
$LTSCALE
 40
50.0
  9
$OSMODE
 70
     7
  9
$ATTMODE
 70
     1
  9
$TEXTSIZE
 40
200.0
  9
$TRACEWID
 40
1.0
  9
$TEXTSTYLE
  7
STANDARD
  9
$CLAYER
  8
TEAM-MAS
  9
$CELTYPE
  6
BYLAYER
  9
$CECOLOR
 62
   256
  9
$DIMSCALE
 40
0.0
  9
$DIMASZ
 40
20.0
  9
$DIMEXO
 40
10.0
  9
$DIMDLI
 40
1.0
  9
$DIMRND
 40
0.0
  9
$DIMDLE
 40
0.0
  9
$DIMEXE
 40
1.0
  9
$DIMTP
 40
0.0
  9
$DIMTM
 40
0.0
  9
$DIMTXT
 40
35.0
  9
$DIMCEN
 40
1.0
  9
$DIMTSZ
 40
0.0
  9
$DIMTOL
 70
     0
  9
$DIMLIM
 70
     0
  9
$DIMTIH
 70
     0
  9
$DIMTOH
 70
     0
  9
$DIMSE1
 70
     0
  9
$DIMSE2
 70
     0
  9
$DIMTAD
 70
     0
  9
$DIMZIN
 70
     0
  9
$DIMBLK
  1

  9
$DIMASO
 70
     1
  9
$DIMSHO
 70
     0
  9
$DIMPOST
  1

  9
$DIMAPOST
  1

  9
$DIMALT
 70
     0
  9
$DIMALTD
 70
     2
  9
$DIMALTF
 40
25.4
  9
$DIMLFAC
 40
1.0
  9
$DIMTOFL
 70
     0
  9
$DIMTVP
 40
0.0
  9
$DIMTIX
 70
     0
  9
$DIMSOXD
 70
     0
  9
$DIMSAH
 70
     0
  9
$DIMBLK1
  1

  9
$DIMBLK2
  1

  9
$DIMSTYLE
  2
TEAM
  9
$DIMCLRD
 70
     9
  9
$DIMCLRE
 70
     9
  9
$DIMCLRT
 70
    11
  9
$DIMTFAC
 40
1.0
  9
$DIMGAP
 40
15.0
  9
$LUNITS
 70
     2
  9
$LUPREC
 70
     1
  9
$SKETCHINC
 40
1.0
  9
$FILLETRAD
 40
50.0
  9
$AUNITS
 70
     0
  9
$AUPREC
 70
     0
  9
$MENU
  1
ROPLANS
  9
$ELEVATION
 40
0.0
  9
$PELEVATION
 40
0.0
  9
$THICKNESS
 40
0.0
  9
$LIMCHECK
 70
     0
  9
$BLIPMODE
 70
     1
  9
$CHAMFERA
 40
0.0
  9
$CHAMFERB
 40
0.0
  9
$SKPOLY
 70
     0
  9
$TDCREATE
 40
2450392.957851
  9
$TDUPDATE
 40
2455817.684121
  9
$TDINDWG
 40
2.638353
  9
$TDUSRTIMER
 40
2.638353
  9
$USRTIMER
 70
     1
  9
$ANGBASE
 50
0.0
  9
$ANGDIR
 70
     0
  9
$PDMODE
 70
     0
  9
$PDSIZE
 40
0.0
  9
$PLINEWID
 40
0.0
  9
$COORDS
 70
     2
  9
$SPLFRAME
 70
     0
  9
$SPLINETYPE
 70
     6
  9
$SPLINESEGS
 70
     8
  9
$ATTDIA
 70
     0
  9
$ATTREQ
 70
     0
  9
$HANDLING
 70
     1
  9
$HANDSEED
  5
B9
  9
$SURFTAB1
 70
    36
  9
$SURFTAB2
 70
    36
  9
$SURFTYPE
 70
     6
  9
$SURFU
 70
     6
  9
$SURFV
 70
     6
  9
$UCSNAME
  2

  9
$UCSORG
 10
0.0
 20
0.0
 30
0.0
  9
$UCSXDIR
 10
1.0
 20
0.0
 30
0.0
  9
$UCSYDIR
 10
0.0
 20
1.0
 30
0.0
  9
$PUCSNAME
  2

  9
$PUCSORG
 10
0.0
 20
0.0
 30
0.0
  9
$PUCSXDIR
 10
1.0
 20
0.0
 30
0.0
  9
$PUCSYDIR
 10
0.0
 20
1.0
 30
0.0
  9
$USERI1
 70
     0
  9
$USERI2
 70
     0
  9
$USERI3
 70
     0
  9
$USERI4
 70
     0
  9
$USERI5
 70
     0
  9
$USERR1
 40
0.0
  9
$USERR2
 40
0.0
  9
$USERR3
 40
0.0
  9
$USERR4
 40
0.0
  9
$USERR5
 40
0.0
  9
$WORLDVIEW
 70
     1
  9
$SHADEDGE
 70
     1
  9
$SHADEDIF
 70
    70
  9
$TILEMODE
 70
     1
  9
$MAXACTVP
 70
    16
  9
$PLIMCHECK
 70
     0
  9
$PEXTMIN
 10
-0.805942
 20
0.005011
 30
0.0
  9
$PEXTMAX
 10
20.250094
 20
11.356329
 30
0.0
  9
$PLIMMIN
 10
0.0
 20
0.0
  9
$PLIMMAX
 10
12.0
 20
9.0
  9
$UNITMODE
 70
     0
  9
$VISRETAIN
 70
     0
  9
$PLINEGEN
 70
     0
  9
$PSLTSCALE
 70
     0
  0
ENDSEC
  0
SECTION
  2
TABLES
  0
TABLE
  2
VPORT
 70
     2
  0
VPORT
  2
*ACTIVE
 70
     0
 10
0.0
 20
0.0
 11
1.0
 21
1.0
 12
68.60487
 22
-61.246294
 13
0.0
 23
0.0
 14
1.0
 24
1.0
 15
50.0
 25
50.0
 16
0.0
 26
0.0
 36
1.0
 17
0.0
 27
0.0
 37
0.0
 40
915.611443
 41
1.903766
 42
50.0
 43
0.0
 44
0.0
 50
0.0
 51
0.0
 71
     0
 72
   100
 73
     1
 74
     1
 75
     0
 76
     0
 77
     0
 78
     0
  0
ENDTAB
  0
TABLE
  2
LTYPE
 70
     2
  0
LTYPE
  2
CONTINUOUS
 70
     0
  3
Solid Line
 72
    65
 73
     0
 40
0.0
  0
LTYPE
  2
31
 70
     0
  3

 72
    65
 73
     4
 40
2.1
 49
1.5
 49
-0.3
 49
0.0
 49
-0.3
  0
ENDTAB
  0
TABLE
  2
LAYER
 70
     9
  0
LAYER
  2
0
 70
     0
 62
     7
  6
CONTINUOUS
  0
LAYER
  2
DEFPOINTS
 70
     0
 62
     7
  6
CONTINUOUS
  0
LAYER
  2
TEAM-BODY
 70
     0
 62
     2
  6
CONTINUOUS
  0
LAYER
  2
TEAM-AXE
 70
     0
 62
    10
  6
31
  0
LAYER
  2
TEAM-MAS
 70
     0
 62
     9
  6
CONTINUOUS
  0
LAYER
  2
TEAM-TXT
 70
     0
 62
    11
  6
CONTINUOUS
  0
LAYER
  2
TEAM-DET1
 70
     0
 62
     4
  6
CONTINUOUS
  0
LAYER
  2
TEAM-DET3
 70
     0
 62
    14
  6
CONTINUOUS
  0
LAYER
  2
TEAM-INSP
 70
     0
 62
     5
  6
CONTINUOUS
  0
ENDTAB
  0
TABLE
  2
STYLE
 70
     2
  0
STYLE
  2
STANDARD
 70
     0
 40
0.0
 41
1.0
 50
0.0
 71
     0
 42
200.0
  3
txt
  4

  0
STYLE
  2
TEAM
 70
     0
 40
0.0
 41
0.8
 50
15.0
 71
     0
 42
7.0
  3
ROMANS.shx
  4

  0
ENDTAB
  0
TABLE
  2
VIEW
 70
     0
  0
ENDTAB
  0
TABLE
  2
UCS
 70
     0
  0
ENDTAB
  0
TABLE
  2
APPID
 70
     1
  0
APPID
  2
ACAD
 70
     0
  0
ENDTAB
  0
TABLE
  2
DIMSTYLE
 70
     1
  0
DIMSTYLE
  2
TEAM
 70
     0
  3

  4

  5

  6

  7

 40
0.0
 41
20.0
 42
10.0
 43
1.0
 44
1.0
 45
0.0
 46
0.0
 47
0.0
 48
0.0
140
35.0
141
1.0
142
0.0
143
25.4
144
1.0
145
0.0
146
1.0
147
15.0
 71
     0
 72
     0
 73
     0
 74
     0
 75
     0
 76
     0
 77
     0
 78
     0
170
     0
171
     2
172
     0
173
     0
174
     0
175
     0
176
     9
177
     9
178
    11
  0
ENDTAB
  0
ENDSEC
  0
SECTION
  2
BLOCKS
  0
BLOCK
  8
0
  2
$MODEL_SPACE
 70
     0
 10
0.0
 20
0.0
 30
0.0
  3
$MODEL_SPACE
  1

  0
ENDBLK
  5
AD
  8
0
  0
BLOCK
 67
     1
  8
0
  2
$PAPER_SPACE
 70
     0
 10
0.0
 20
0.0
 30
0.0
  3
$PAPER_SPACE
  1

  0
ENDBLK
  5
AB
 67
     1
  8
0
  0
BLOCK
  8
0
  2
*D0
 70
     1
 10
0.0
 20
0.0
 30
0.0
  3
*D0
  1

  0
LINE
  5
22
  8
0
  6
BYBLOCK
 62
     9
 10
3200.0
 20
87615.0
 30
0.0
 11
3200.0
 21
87518.979003
 31
0.0
  0
LINE
  5
23
  8
0
  6
BYBLOCK
 62
     9
 10
4800.0
 20
87615.0
 30
0.0
 11
4800.0
 21
87518.979003
 31
0.0
  0
LINE
  5
24
  8
0
  6
BYBLOCK
 62
     9
 10
3220.0
 20
87519.979003
 30
0.0
 11
3932.5
 21
87519.979003
 31
0.0
  0
LINE
  5
25
  8
0
  6
BYBLOCK
 62
     9
 10
4780.0
 20
87519.979003
 30
0.0
 11
4067.5
 21
87519.979003
 31
0.0
  0
SOLID
  5
26
  8
0
  6
BYBLOCK
 62
     9
 10
3220.0
 20
87523.312337
 30
0.0
 11
3220.0
 21
87516.64567
 31
0.0
 12
3200.0
 22
87519.979003
 32
0.0
 13
3200.0
 23
87519.979003
 33
0.0
  0
SOLID
  5
27
  8
0
  6
BYBLOCK
 62
     9
 10
4780.0
 20
87523.312337
 30
0.0
 11
4780.0
 21
87516.64567
 31
0.0
 12
4800.0
 22
87519.979003
 32
0.0
 13
4800.0
 23
87519.979003
 33
0.0
  0
TEXT
  5
28
  8
0
  6
BYBLOCK
 62
    11
 10
3947.5
 20
87502.479003
 30
0.0
 40
35.0
  1
1600
  0
POINT
  5
29
  8
DEFPOINTS
  6
BYBLOCK
 62
     0
 10
3200.0
 20
87625.0
 30
0.0
  0
POINT
  5
2B
  8
DEFPOINTS
  6
BYBLOCK
 62
     0
 10
4800.0
 20
87625.0
 30
0.0
  0
POINT
  5
2C
  8
DEFPOINTS
  6
BYBLOCK
 62
     0
 10
4800.0
 20
87519.979003
 30
0.0
  0
ENDBLK
  5
2E
  8
0
  0
BLOCK
  8
0
  2
*D1
 70
     1
 10
0.0
 20
0.0
 30
0.0
  3
*D1
  1

  0
LINE
  5
55
  8
0
  6
BYBLOCK
 62
     9
 10
4810.0
 20
87625.0
 30
0.0
 11
4920.769076
 21
87625.0
 31
0.0
  0
LINE
  5
56
  8
0
  6
BYBLOCK
 62
     9
 10
4810.0
 20
88375.0
 30
0.0
 11
4920.769076
 21
88375.0
 31
0.0
  0
LINE
  5
57
  8
0
  6
BYBLOCK
 62
     9
 10
4919.769076
 20
87645.0
 30
0.0
 11
4919.769076
 21
87941.25
 31
0.0
  0
LINE
  5
58
  8
0
  6
BYBLOCK
 62
     9
 10
4919.769076
 20
88355.0
 30
0.0
 11
4919.769076
 21
88058.75
 31
0.0
  0
SOLID
  5
59
  8
0
  6
BYBLOCK
 62
     9
 10
4916.435742
 20
87645.0
 30
0.0
 11
4923.102409
 21
87645.0
 31
0.0
 12
4919.769076
 22
87625.0
 32
0.0
 13
4919.769076
 23
87625.0
 33
0.0
  0
SOLID
  5
5A
  8
0
  6
BYBLOCK
 62
     9
 10
4916.435742
 20
88355.0
 30
0.0
 11
4923.102409
 21
88355.0
 31
0.0
 12
4919.769076
 22
88375.0
 32
0.0
 13
4919.769076
 23
88375.0
 33
0.0
  0
TEXT
  5
5B
  8
0
  6
BYBLOCK
 62
    11
 10
4937.269076
 20
87956.25
 30
0.0
 40
35.0
  1
750
 50
90.0
  0
POINT
  5
5C
  8
DEFPOINTS
  6
BYBLOCK
 62
     0
 10
4800.0
 20
87625.0
 30
0.0
  0
POINT
  5
5D
  8
DEFPOINTS
  6
BYBLOCK
 62
     0
 10
4800.0
 20
88375.0
 30
0.0
  0
POINT
  5
5E
  8
DEFPOINTS
  6
BYBLOCK
 62
     0
 10
4919.769076
 20
88375.0
 30
0.0
  0
ENDBLK
  5
60
  8
0
  0
BLOCK
  8
0
  2
*D2
 70
     1
 10
0.0
 20
0.0
 30
0.0
  3
*D2
  1

  0
LINE
  5
47
  8
0
  6
BYBLOCK
 62
     9
 10
4000.0
 20
87990.0
 30
0.0
 11
4000.0
 21
87572.466652
 31
0.0
  0
LINE
  5
48
  8
0
  6
BYBLOCK
 62
     9
 10
4800.0
 20
87615.0
 30
0.0
 11
4800.0
 21
87572.466652
 31
0.0
  0
LINE
  5
49
  8
0
  6
BYBLOCK
 62
     9
 10
4020.0
 20
87573.466652
 30
0.0
 11
4344.166667
 21
87573.466652
 31
0.0
  0
LINE
  5
4A
  8
0
  6
BYBLOCK
 62
     9
 10
4780.0
 20
87573.466652
 30
0.0
 11
4455.833333
 21
87573.466652
 31
0.0
  0
SOLID
  5
4B
  8
0
  6
BYBLOCK
 62
     9
 10
4020.0
 20
87576.799986
 30
0.0
 11
4020.0
 21
87570.133319
 31
0.0
 12
4000.0
 22
87573.466652
 32
0.0
 13
4000.0
 23
87573.466652
 33
0.0
  0
SOLID
  5
4C
  8
0
  6
BYBLOCK
 62
     9
 10
4780.0
 20
87576.799986
 30
0.0
 11
4780.0
 21
87570.133319
 31
0.0
 12
4800.0
 22
87573.466652
 32
0.0
 13
4800.0
 23
87573.466652
 33
0.0
  0
TEXT
  5
4D
  8
0
  6
BYBLOCK
 62
    11
 10
4359.166667
 20
87555.966652
 30
0.0
 40
35.0
  1
800
  0
POINT
  5
4E
  8
DEFPOINTS
  6
BYBLOCK
 62
     0
 10
4000.0
 20
88000.0
 30
0.0
  0
POINT
  5
4F
  8
DEFPOINTS
  6
BYBLOCK
 62
     0
 10
4800.0
 20
87625.0
 30
0.0
  0
POINT
  5
50
  8
DEFPOINTS
  6
BYBLOCK
 62
     0
 10
4800.0
 20
87573.466652
 30
0.0
  0
ENDBLK
  5
52
  8
0
  0
BLOCK
  8
0
  2
*D3
 70
     1
 10
0.0
 20
0.0
 30
0.0
  3
*D3
  1

  0
LINE
  5
39
  8
0
  6
BYBLOCK
 62
     9
 10
4810.0
 20
87625.0
 30
0.0
 11
4861.551761
 21
87625.0
 31
0.0
  0
LINE
  5
3A
  8
0
  6
BYBLOCK
 62
     9
 10
4010.0
 20
88000.0
 30
0.0
 11
4861.551761
 21
88000.0
 31
0.0
  0
LINE
  5
3B
  8
0
  6
BYBLOCK
 62
     9
 10
4860.551761
 20
87645.0
 30
0.0
 11
4860.551761
 21
87750.833333
 31
0.0
  0
LINE
  5
3C
  8
0
  6
BYBLOCK
 62
     9
 10
4860.551761
 20
87980.0
 30
0.0
 11
4860.551761
 21
87874.166667
 31
0.0
  0
SOLID
  5
3D
  8
0
  6
BYBLOCK
 62
     9
 10
4857.218428
 20
87645.0
 30
0.0
 11
4863.885094
 21
87645.0
 31
0.0
 12
4860.551761
 22
87625.0
 32
0.0
 13
4860.551761
 23
87625.0
 33
0.0
  0
SOLID
  5
3E
  8
0
  6
BYBLOCK
 62
     9
 10
4857.218428
 20
87980.0
 30
0.0
 11
4863.885094
 21
87980.0
 31
0.0
 12
4860.551761
 22
88000.0
 32
0.0
 13
4860.551761
 23
88000.0
 33
0.0
  0
TEXT
  5
3F
  8
0
  6
BYBLOCK
 62
    11
 10
4878.051761
 20
87765.833333
 30
0.0
 40
35.0
  1
375
 50
90.0
  0
POINT
  5
40
  8
DEFPOINTS
  6
BYBLOCK
 62
     0
 10
4800.0
 20
87625.0
 30
0.0
  0
POINT
  5
41
  8
DEFPOINTS
  6
BYBLOCK
 62
     0
 10
4000.0
 20
88000.0
 30
0.0
  0
POINT
  5
42
  8
DEFPOINTS
  6
BYBLOCK
 62
     0
 10
4860.551761
 20
88000.0
 30
0.0
  0
ENDBLK
  5
44
  8
0
  0
ENDSEC
  0
SECTION
  2
ENTITIES
  0
DIMENSION
  5
20
  8
TEAM-MAS
  2
*D0
 10
800.0
 20
-480.020997
 30
0.0
 11
0.0
 21
-480.020997
 31
0.0
 12
-4000.0
 22
-88000.0
 32
0.0
 13
-800.0
 23
-375.0
 33
0.0
 14
800.0
 24
-375.0
 34
0.0
  0
LINE
  5
2F
  8
TEAM-AXE
 10
-800.0
 20
0.0
 30
0.0
 11
800.0
 21
0.0
 31
0.0
  0
POLYLINE
  5
32
  8
TEAM-BODY
 66
     1
 10
0.0
 20
0.0
 30
0.0
 70
     1
  0
VERTEX
  5
B3
  8
TEAM-BODY
 10
-800.0
 20
-375.0
 30
0.0
  0
VERTEX
  5
B4
  8
TEAM-BODY
 10
800.0
 20
-375.0
 30
0.0
  0
VERTEX
  5
B5
  8
TEAM-BODY
 10
800.0
 20
375.0
 30
0.0
  0
VERTEX
  5
B6
  8
TEAM-BODY
 10
-800.0
 20
375.0
 30
0.0
  0
SEQEND
  5
B7
  8
TEAM-BODY
  0
TEXT
  5
34
  8
TEAM-TXT
 10
-671.525704
 20
202.177505
 30
0.0
 40
30.0
  1
team 141364
 41
0.8
 51
15.0
  7
TEAM
  0
DIMENSION
  5
37
  8
TEAM-MAS
  2
*D3
 10
860.551761
 20
0.0
 30
0.0
 11
860.551761
 21
-187.5
 31
0.0
 12
-4000.0
 22
-88000.0
 32
0.0
 13
800.0
 23
-375.0
 33
0.0
 14
0.0
 24
0.0
 34
0.0
 50
90.0
  0
DIMENSION
  5
45
  8
TEAM-MAS
  2
*D2
 10
800.0
 20
-426.533348
 30
0.0
 11
400.0
 21
-426.533348
 31
0.0
 12
-4000.0
 22
-88000.0
 32
0.0
 13
0.0
 23
0.0
 33
0.0
 14
800.0
 24
-375.0
 34
0.0
  0
DIMENSION
  5
53
  8
TEAM-MAS
  2
*D1
 10
919.769076
 20
375.0
 30
0.0
 11
919.769076
 21
0.0
 31
0.0
 12
-4000.0
 22
-88000.0
 32
0.0
 13
800.0
 23
-375.0
 33
0.0
 14
800.0
 24
375.0
 34
0.0
 50
90.0
  0
LINE
  5
61
  8
TEAM-AXE
 10
0.0
 20
-375.0
 30
0.0
 11
0.0
 21
375.0
 31
0.0
  0
LINE
  5
62
  8
TEAM-AXE
 10
-60.0
 20
0.0
 30
0.0
 11
60.0
 21
0.0
 31
0.0
  0
LINE
  5
63
  8
TEAM-AXE
 10
0.0
 20
-60.0
 30
0.0
 11
0.0
 21
60.0
 31
0.0
  0
CIRCLE
  5
64
  8
TEAM-DET1
 10
0.0
 20
0.0
 30
0.0
 40
40.0
  0
LINE
  5
66
  8
TEAM-DET3
 10
60.0
 20
60.0
 30
0.0
 11
60.0
 21
-60.0
 31
0.0
  0
LINE
  5
68
  8
TEAM-DET3
 10
-60.0
 20
-60.0
 30
0.0
 11
-60.0
 21
60.0
 31
0.0
  0
LINE
  5
69
  8
TEAM-DET3
 10
-60.0
 20
60.0
 30
0.0
 11
60.0
 21
60.0
 31
0.0
  0
LINE
  5
6A
  8
TEAM-DET3
 10
60.0
 20
-60.0
 30
0.0
 11
-60.0
 21
-60.0
 31
0.0
  0
CIRCLE
  5
6B
  8
TEAM-DET3
 10
0.0
 20
0.0
 30
0.0
 40
60.0
  0
CIRCLE
  5
6C
  8
TEAM-DET3
 10
0.0
 20
0.0
 30
0.0
 40
45.0
  0
CIRCLE
  5
6D
  8
TEAM-INSP
 10
0.0
 20
0.0
 30
0.0
 40
7.1
  0
CIRCLE
  5
6F
  8
TEAM-DET3
 10
0.0
 20
0.0
 30
0.0
 40
52.0
  0
ENDSEC
  0
EOF
