  0
SECTION
  2
HEADER
  9
$ACADVER
  1
AC1009
  9
$INSBASE
 10
0.0
 20
0.0
 30
0.0
  9
$EXTMIN
 10
-800.123201
 20
-62.267194
 30
0.0
  9
$EXTMAX
 10
996.37673
 20
223.444365
 30
0.000005
  9
$LIMMIN
 10
-800.123201
 20
-62.267194
  9
$LIMMAX
 10
996.37673
 20
223.444365
  9
$ORTHOMODE
 70
     1
  9
$REGENMODE
 70
     1
  9
$FILLMODE
 70
     1
  9
$QTEXTMODE
 70
     0
  9
$MIRRTEXT
 70
     0
  9
$DRAGMODE
 70
     2
  9
$LTSCALE
 40
50.0
  9
$OSMODE
 70
     7
  9
$ATTMODE
 70
     1
  9
$TEXTSIZE
 40
200.0
  9
$TRACEWID
 40
1.0
  9
$TEXTSTYLE
  7
STANDARD
  9
$CLAYER
  8
TEAM-MAS
  9
$CELTYPE
  6
BYLAYER
  9
$CECOLOR
 62
   256
  9
$DIMSCALE
 40
0.0
  9
$DIMASZ
 40
20.0
  9
$DIMEXO
 40
10.0
  9
$DIMDLI
 40
1.0
  9
$DIMRND
 40
0.0
  9
$DIMDLE
 40
0.0
  9
$DIMEXE
 40
1.0
  9
$DIMTP
 40
0.0
  9
$DIMTM
 40
0.0
  9
$DIMTXT
 40
35.0
  9
$DIMCEN
 40
1.0
  9
$DIMTSZ
 40
0.0
  9
$DIMTOL
 70
     0
  9
$DIMLIM
 70
     0
  9
$DIMTIH
 70
     0
  9
$DIMTOH
 70
     0
  9
$DIMSE1
 70
     0
  9
$DIMSE2
 70
     0
  9
$DIMTAD
 70
     0
  9
$DIMZIN
 70
     0
  9
$DIMBLK
  1

  9
$DIMASO
 70
     1
  9
$DIMSHO
 70
     0
  9
$DIMPOST
  1

  9
$DIMAPOST
  1

  9
$DIMALT
 70
     0
  9
$DIMALTD
 70
     2
  9
$DIMALTF
 40
25.4
  9
$DIMLFAC
 40
1.0
  9
$DIMTOFL
 70
     0
  9
$DIMTVP
 40
0.0
  9
$DIMTIX
 70
     0
  9
$DIMSOXD
 70
     0
  9
$DIMSAH
 70
     0
  9
$DIMBLK1
  1

  9
$DIMBLK2
  1

  9
$DIMSTYLE
  2
TEAM
  9
$DIMCLRD
 70
     9
  9
$DIMCLRE
 70
     9
  9
$DIMCLRT
 70
    11
  9
$DIMTFAC
 40
1.0
  9
$DIMGAP
 40
15.0
  9
$LUNITS
 70
     2
  9
$LUPREC
 70
     1
  9
$SKETCHINC
 40
1.0
  9
$FILLETRAD
 40
50.0
  9
$AUNITS
 70
     0
  9
$AUPREC
 70
     0
  9
$MENU
  1
ROPLANS
  9
$ELEVATION
 40
0.0
  9
$PELEVATION
 40
0.0
  9
$THICKNESS
 40
0.0
  9
$LIMCHECK
 70
     0
  9
$BLIPMODE
 70
     1
  9
$CHAMFERA
 40
0.0
  9
$CHAMFERB
 40
0.0
  9
$SKPOLY
 70
     0
  9
$TDCREATE
 40
2450392.957851
  9
$TDUPDATE
 40
2455817.684121
  9
$TDINDWG
 40
2.638353
  9
$TDUSRTIMER
 40
2.638353
  9
$USRTIMER
 70
     1
  9
$ANGBASE
 50
0.0
  9
$ANGDIR
 70
     0
  9
$PDMODE
 70
     0
  9
$PDSIZE
 40
0.0
  9
$PLINEWID
 40
0.0
  9
$COORDS
 70
     2
  9
$SPLFRAME
 70
     0
  9
$SPLINETYPE
 70
     6
  9
$SPLINESEGS
 70
     8
  9
$ATTDIA
 70
     0
  9
$ATTREQ
 70
     0
  9
$HANDLING
 70
     1
  9
$HANDSEED
  5
DC
  9
$SURFTAB1
 70
    36
  9
$SURFTAB2
 70
    36
  9
$SURFTYPE
 70
     6
  9
$SURFU
 70
     6
  9
$SURFV
 70
     6
  9
$UCSNAME
  2

  9
$UCSORG
 10
0.0
 20
0.0
 30
0.0
  9
$UCSXDIR
 10
1.0
 20
0.0
 30
0.0
  9
$UCSYDIR
 10
0.0
 20
1.0
 30
0.0
  9
$PUCSNAME
  2

  9
$PUCSORG
 10
0.0
 20
0.0
 30
0.0
  9
$PUCSXDIR
 10
1.0
 20
0.0
 30
0.0
  9
$PUCSYDIR
 10
0.0
 20
1.0
 30
0.0
  9
$USERI1
 70
     0
  9
$USERI2
 70
     0
  9
$USERI3
 70
     0
  9
$USERI4
 70
     0
  9
$USERI5
 70
     0
  9
$USERR1
 40
0.0
  9
$USERR2
 40
0.0
  9
$USERR3
 40
0.0
  9
$USERR4
 40
0.0
  9
$USERR5
 40
0.0
  9
$WORLDVIEW
 70
     1
  9
$SHADEDGE
 70
     1
  9
$SHADEDIF
 70
    70
  9
$TILEMODE
 70
     1
  9
$MAXACTVP
 70
    16
  9
$PLIMCHECK
 70
     0
  9
$PEXTMIN
 10
-0.805942
 20
0.005011
 30
0.0
  9
$PEXTMAX
 10
20.250094
 20
11.356329
 30
0.0
  9
$PLIMMIN
 10
0.0
 20
0.0
  9
$PLIMMAX
 10
12.0
 20
9.0
  9
$UNITMODE
 70
     0
  9
$VISRETAIN
 70
     0
  9
$PLINEGEN
 70
     0
  9
$PSLTSCALE
 70
     0
  0
ENDSEC
  0
SECTION
  2
TABLES
  0
TABLE
  2
VPORT
 70
     2
  0
VPORT
  2
*ACTIVE
 70
     0
 10
0.0
 20
0.0
 11
1.0
 21
1.0
 12
98.126765
 22
80.588586
 13
0.0
 23
0.0
 14
1.0
 24
1.0
 15
50.0
 25
50.0
 16
0.0
 26
0.0
 36
1.0
 17
0.0
 27
0.0
 37
0.0
 40
946.763711
 41
1.903766
 42
50.0
 43
0.0
 44
0.0
 50
0.0
 51
0.0
 71
     0
 72
   100
 73
     1
 74
     1
 75
     0
 76
     0
 77
     0
 78
     0
  0
ENDTAB
  0
TABLE
  2
LTYPE
 70
     3
  0
LTYPE
  2
CONTINUOUS
 70
     0
  3
Solid Line
 72
    65
 73
     0
 40
0.0
  0
LTYPE
  2
31
 70
     0
  3

 72
    65
 73
     4
 40
2.1
 49
1.5
 49
-0.3
 49
0.0
 49
-0.3
  0
LTYPE
  2
22
 70
     0
  3

 72
    65
 73
     2
 40
1.4
 49
1.2
 49
-0.2
  0
ENDTAB
  0
TABLE
  2
LAYER
 70
    10
  0
LAYER
  2
0
 70
     0
 62
     7
  6
CONTINUOUS
  0
LAYER
  2
DEFPOINTS
 70
     0
 62
     7
  6
CONTINUOUS
  0
LAYER
  2
TEAM-BODY
 70
     0
 62
     2
  6
CONTINUOUS
  0
LAYER
  2
TEAM-AXE
 70
     0
 62
    10
  6
31
  0
LAYER
  2
TEAM-MAS
 70
     0
 62
     9
  6
CONTINUOUS
  0
LAYER
  2
TEAM-TXT
 70
     0
 62
    11
  6
CONTINUOUS
  0
LAYER
  2
TEAM-DET1
 70
     0
 62
     4
  6
CONTINUOUS
  0
LAYER
  2
TEAM-HIDE
 70
     0
 62
     8
  6
22
  0
LAYER
  2
TEAM-DET3
 70
     0
 62
    14
  6
CONTINUOUS
  0
LAYER
  2
TEAM-INSP
 70
     0
 62
     5
  6
CONTINUOUS
  0
ENDTAB
  0
TABLE
  2
STYLE
 70
     2
  0
STYLE
  2
STANDARD
 70
     0
 40
0.0
 41
1.0
 50
0.0
 71
     0
 42
200.0
  3
txt
  4

  0
STYLE
  2
TEAM
 70
     0
 40
0.0
 41
0.8
 50
15.0
 71
     0
 42
7.0
  3
ROMANS.shx
  4

  0
ENDTAB
  0
TABLE
  2
VIEW
 70
     0
  0
ENDTAB
  0
TABLE
  2
UCS
 70
     0
  0
ENDTAB
  0
TABLE
  2
APPID
 70
     1
  0
APPID
  2
ACAD
 70
     0
  0
ENDTAB
  0
TABLE
  2
DIMSTYLE
 70
     1
  0
DIMSTYLE
  2
TEAM
 70
     0
  3

  4

  5

  6

  7

 40
0.0
 41
20.0
 42
10.0
 43
1.0
 44
1.0
 45
0.0
 46
0.0
 47
0.0
 48
0.0
140
35.0
141
1.0
142
0.0
143
25.4
144
1.0
145
0.0
146
1.0
147
15.0
 71
     0
 72
     0
 73
     0
 74
     0
 75
     0
 76
     0
 77
     0
 78
     0
170
     0
171
     2
172
     0
173
     0
174
     0
175
     0
176
     9
177
     9
178
    11
  0
ENDTAB
  0
ENDSEC
  0
SECTION
  2
BLOCKS
  0
BLOCK
  8
0
  2
$MODEL_SPACE
 70
     0
 10
0.0
 20
0.0
 30
0.0
  3
$MODEL_SPACE
  1

  0
ENDBLK
  5
D5
  8
0
  0
BLOCK
 67
     1
  8
0
  2
$PAPER_SPACE
 70
     0
 10
0.0
 20
0.0
 30
0.0
  3
$PAPER_SPACE
  1

  0
ENDBLK
  5
D3
 67
     1
  8
0
  0
BLOCK
  8
0
  2
*D0
 70
     1
 10
0.0
 20
0.0
 30
0.0
  3
*D0
  1

  0
LINE
  5
22
  8
0
  6
BYBLOCK
 62
     9
 10
7940.0
 20
84065.0
 30
0.0
 11
7940.0
 21
83954.251855
 31
0.0
  0
LINE
  5
23
  8
0
  6
BYBLOCK
 62
     9
 10
8060.0
 20
84065.0
 30
0.0
 11
8060.0
 21
83954.251855
 31
0.0
  0
LINE
  5
24
  8
0
  6
BYBLOCK
 62
     9
 10
7920.0
 20
83955.251855
 30
0.0
 11
7900.0
 21
83955.251855
 31
0.0
  0
LINE
  5
25
  8
0
  6
BYBLOCK
 62
     9
 10
8080.0
 20
83955.251855
 30
0.0
 11
8100.0
 21
83955.251855
 31
0.0
  0
SOLID
  5
26
  8
0
  6
BYBLOCK
 62
     9
 10
7920.0
 20
83958.585188
 30
0.0
 11
7920.0
 21
83951.918522
 31
0.0
 12
7940.0
 22
83955.251855
 32
0.0
 13
7940.0
 23
83955.251855
 33
0.0
  0
SOLID
  5
27
  8
0
  6
BYBLOCK
 62
     9
 10
8080.0
 20
83958.585188
 30
0.0
 11
8080.0
 21
83951.918522
 31
0.0
 12
8060.0
 22
83955.251855
 32
0.0
 13
8060.0
 23
83955.251855
 33
0.0
  0
TEXT
  5
28
  8
0
  6
BYBLOCK
 62
    11
 10
7962.083333
 20
83937.751855
 30
0.0
 40
35.0
  1
120
  0
POINT
  5
29
  8
DEFPOINTS
  6
BYBLOCK
 62
     0
 10
7940.0
 20
84075.0
 30
0.0
  0
POINT
  5
2B
  8
DEFPOINTS
  6
BYBLOCK
 62
     0
 10
8060.0
 20
84075.0
 30
0.0
  0
POINT
  5
2C
  8
DEFPOINTS
  6
BYBLOCK
 62
     0
 10
8060.0
 20
83955.251855
 30
0.0
  0
ENDBLK
  5
2E
  8
0
  0
BLOCK
  8
0
  2
*D1
 70
     1
 10
0.0
 20
0.0
 30
0.0
  3
*D1
  1

  0
LINE
  5
31
  8
0
  6
BYBLOCK
 62
     9
 10
8800.0
 20
84109.0
 30
0.0
 11
8800.0
 21
84185.812986
 31
0.0
  0
LINE
  5
32
  8
0
  6
BYBLOCK
 62
     9
 10
7200.0
 20
84109.0
 30
0.0
 11
7200.0
 21
84185.812986
 31
0.0
  0
LINE
  5
33
  8
0
  6
BYBLOCK
 62
     9
 10
8780.0
 20
84184.812986
 30
0.0
 11
8067.5
 21
84184.812986
 31
0.0
  0
LINE
  5
34
  8
0
  6
BYBLOCK
 62
     9
 10
7220.0
 20
84184.812986
 30
0.0
 11
7932.5
 21
84184.812986
 31
0.0
  0
SOLID
  5
35
  8
0
  6
BYBLOCK
 62
     9
 10
8780.0
 20
84188.146319
 30
0.0
 11
8780.0
 21
84181.479653
 31
0.0
 12
8800.0
 22
84184.812986
 32
0.0
 13
8800.0
 23
84184.812986
 33
0.0
  0
SOLID
  5
36
  8
0
  6
BYBLOCK
 62
     9
 10
7220.0
 20
84188.146319
 30
0.0
 11
7220.0
 21
84181.479653
 31
0.0
 12
7200.0
 22
84184.812986
 32
0.0
 13
7200.0
 23
84184.812986
 33
0.0
  0
TEXT
  5
37
  8
0
  6
BYBLOCK
 62
    11
 10
7947.5
 20
84167.312986
 30
0.0
 40
35.0
  1
1600
  0
POINT
  5
38
  8
DEFPOINTS
  6
BYBLOCK
 62
     0
 10
8800.0
 20
84099.0
 30
0.0
  0
POINT
  5
39
  8
DEFPOINTS
  6
BYBLOCK
 62
     0
 10
7200.0
 20
84099.0
 30
0.0
  0
POINT
  5
3A
  8
DEFPOINTS
  6
BYBLOCK
 62
     0
 10
7200.0
 20
84184.812986
 30
0.0
  0
ENDBLK
  5
3C
  8
0
  0
BLOCK
  8
0
  2
*D2
 70
     1
 10
0.0
 20
0.0
 30
0.0
  3
*D2
  1

  0
LINE
  5
72
  8
0
  6
BYBLOCK
 62
     9
 10
8796.0
 20
84107.0
 30
0.0
 11
8895.375886
 21
84107.0
 31
0.0
  0
LINE
  5
73
  8
0
  6
BYBLOCK
 62
     9
 10
8810.0
 20
84075.0
 30
0.0
 11
8895.375886
 21
84075.0
 31
0.0
  0
LINE
  5
74
  8
0
  6
BYBLOCK
 62
     9
 10
8894.375886
 20
84127.0
 30
0.0
 11
8894.375886
 21
84147.0
 31
0.0
  0
LINE
  5
75
  8
0
  6
BYBLOCK
 62
     9
 10
8894.375886
 20
84055.0
 30
0.0
 11
8894.375886
 21
84035.0
 31
0.0
  0
TEXT
  5
76
  8
0
  6
BYBLOCK
 62
    11
 10
8911.875886
 20
84165.091724
 30
0.0
 40
35.0
  1
32
 50
90.0
  0
LINE
  5
77
  8
0
  6
BYBLOCK
 62
     9
 10
8894.375886
 20
84107.0
 30
0.0
 11
8894.375886
 21
84075.0
 31
0.0
  0
SOLID
  5
78
  8
0
  6
BYBLOCK
 62
     9
 10
8891.042553
 20
84127.0
 30
0.0
 11
8897.709219
 21
84127.0
 31
0.0
 12
8894.375886
 22
84107.0
 32
0.0
 13
8894.375886
 23
84107.0
 33
0.0
  0
SOLID
  5
79
  8
0
  6
BYBLOCK
 62
     9
 10
8891.042553
 20
84055.0
 30
0.0
 11
8897.709219
 21
84055.0
 31
0.0
 12
8894.375886
 22
84075.0
 32
0.0
 13
8894.375886
 23
84075.0
 33
0.0
  0
POINT
  5
7A
  8
DEFPOINTS
  6
BYBLOCK
 62
     0
 10
8786.0
 20
84107.0
 30
0.0
  0
POINT
  5
7B
  8
DEFPOINTS
  6
BYBLOCK
 62
     0
 10
8800.0
 20
84075.0
 30
0.0
  0
POINT
  5
7C
  8
DEFPOINTS
  6
BYBLOCK
 62
     0
 10
8894.375886
 20
84075.0
 30
0.0
  0
ENDBLK
  5
7E
  8
0
  0
BLOCK
  8
0
  2
*D3
 70
     1
 10
0.0
 20
0.0
 30
0.0
  3
*D3
  1

  0
LINE
  5
65
  8
0
  6
BYBLOCK
 62
     9
 10
8796.0
 20
84107.0
 30
0.0
 11
8979.791026
 21
84107.0
 31
0.0
  0
LINE
  5
66
  8
0
  6
BYBLOCK
 62
     9
 10
8790.0
 20
84000.0
 30
0.0
 11
8979.791026
 21
84000.0
 31
0.0
  0
LINE
  5
67
  8
0
  6
BYBLOCK
 62
     9
 10
8978.791026
 20
84087.0
 30
0.0
 11
8978.791026
 21
84020.0
 31
0.0
  0
TEXT
  5
68
  8
0
  6
BYBLOCK
 62
    11
 10
8996.291026
 20
84118.301641
 30
0.0
 40
35.0
  1
107
 50
90.0
  0
SOLID
  5
69
  8
0
  6
BYBLOCK
 62
     9
 10
8975.457693
 20
84087.0
 30
0.0
 11
8982.12436
 21
84087.0
 31
0.0
 12
8978.791026
 22
84107.0
 32
0.0
 13
8978.791026
 23
84107.0
 33
0.0
  0
SOLID
  5
6A
  8
0
  6
BYBLOCK
 62
     9
 10
8975.457693
 20
84020.0
 30
0.0
 11
8982.12436
 21
84020.0
 31
0.0
 12
8978.791026
 22
84000.0
 32
0.0
 13
8978.791026
 23
84000.0
 33
0.0
  0
POINT
  5
6B
  8
DEFPOINTS
  6
BYBLOCK
 62
     0
 10
8786.0
 20
84107.0
 30
0.0
  0
POINT
  5
6C
  8
DEFPOINTS
  6
BYBLOCK
 62
     0
 10
8780.0
 20
84000.0
 30
0.0
  0
POINT
  5
6D
  8
DEFPOINTS
  6
BYBLOCK
 62
     0
 10
8978.791026
 20
84000.0
 30
0.0
  0
ENDBLK
  5
6F
  8
0
  0
ENDSEC
  0
SECTION
  2
ENTITIES
  0
DIMENSION
  5
20
  8
TEAM-MAS
  2
*D0
 10
60.0
 20
-44.748145
 30
0.0
 11
0.0
 21
-44.748145
 31
0.0
 12
-8000.0
 22
-84000.0
 32
0.0
 13
-60.0
 23
75.0
 33
0.0
 14
60.0
 24
75.0
 34
0.0
  0
DIMENSION
  5
2F
  8
TEAM-MAS
  2
*D1
 10
-800.0
 20
184.812986
 30
0.0
 11
0.0
 21
184.812986
 31
0.0
 12
-8000.0
 22
-84000.0
 32
0.0
 13
800.0
 23
99.0
 33
0.0
 14
-800.0
 24
99.0
 34
0.0
1001
ACAD
1000
DSTYLE
1002
{
1070
    78
1070
     0
1070
    40
1040
1.0
1002
}
  0
LINE
  5
3D
  8
TEAM-DET1
 10
-60.0
 20
75.0
 30
0.0
 11
60.0
 21
75.0
 31
0.0
  0
LINE
  5
3F
  8
TEAM-DET1
 10
-60.0
 20
0.0
 30
0.0
 11
60.0
 21
0.0
 31
0.0
  0
LINE
  5
40
  8
TEAM-DET3
 10
800.0
 20
0.0
 30
0.0
 11
-800.0
 21
0.0
 31
0.0
  0
LINE
  5
42
  8
TEAM-DET3
 10
800.0
 20
85.01264
 30
0.0
 11
-800.0
 21
85.01264
 31
0.0
  0
LINE
  5
43
  8
TEAM-DET1
 10
-800.0
 20
107.0
 30
0.0
 11
800.0
 21
107.0
 31
0.0
  0
LINE
  5
44
  8
TEAM-HIDE
 10
-800.0
 20
75.0
 30
0.0
 11
800.0
 21
75.0
 31
0.0
  0
LINE
  5
47
  8
TEAM-BODY
 10
-57.0
 20
85.01264
 30
0.0
 11
57.0
 21
85.01264
 31
0.0
  0
CIRCLE
  5
49
  8
TEAM-INSP
 10
0.0
 20
0.0
 30
0.0
 40
7.1
  0
LINE
  5
4B
  8
TEAM-AXE
 10
0.0
 20
101.619397
 30
0.0
 11
0.0
 21
63.806188
 31
0.0
  0
LINE
  5
4E
  8
TEAM-DET3
 10
-197.267464
 20
85.01264
 30
0.0
 11
-197.267464
 21
0.0
 31
0.0
  0
LINE
  5
4F
  8
TEAM-DET3
 10
-177.267464
 20
85.01264
 30
0.0
 11
-177.267464
 21
0.0
 31
0.0
  0
LINE
  5
50
  8
TEAM-DET3
 10
-97.267464
 20
85.01264
 30
0.0
 11
-97.267464
 21
0.0
 31
0.0
  0
LINE
  5
51
  8
TEAM-DET3
 10
-77.267464
 20
85.01264
 30
0.0
 11
-77.267464
 21
0.0
 31
0.0
  0
LINE
  5
52
  8
TEAM-DET1
 10
-60.0
 20
85.01264
 30
0.0
 11
-60.0
 21
75.0
 31
0.0
  0
LINE
  5
53
  8
TEAM-DET1
 10
-60.0
 20
75.0
 30
0.0
 11
-60.0
 21
0.0
 31
0.0
  0
TEXT
  5
54
  8
TEAM-TXT
 10
-675.46565
 20
133.704849
 30
0.0
 40
30.0
  1
team 141369
 41
0.8
 51
15.0
  7
TEAM
  0
LINE
  5
57
  8
TEAM-BODY
 10
-800.0
 20
107.0
 30
0.0
 11
-800.0
 21
75.0
 31
0.0
  0
LINE
  5
58
  8
TEAM-BODY
 10
-800.0
 20
107.0
 30
0.0
 11
-60.0
 21
85.01264
 31
0.0
  0
LINE
  5
59
  8
TEAM-DET3
 10
-800.0
 20
107.0
 30
0.0
 11
-800.0
 21
0.0
 31
0.0
  0
LINE
  5
5A
  8
TEAM-DET3
 10
-780.0
 20
85.01264
 30
0.0
 11
-780.0
 21
0.0
 31
0.0
  0
LINE
  5
5B
  8
TEAM-DET3
 10
-630.0
 20
85.01264
 30
0.0
 11
-630.0
 21
0.0
 31
0.0
  0
LINE
  5
5C
  8
TEAM-DET3
 10
-650.0
 20
85.01264
 30
0.0
 11
-650.0
 21
0.0
 31
0.0
  0
LINE
  5
5D
  8
TEAM-DET3
 10
-407.267464
 20
85.01264
 30
0.0
 11
-407.267464
 21
0.0
 31
0.0
  0
LINE
  5
5E
  8
TEAM-DET3
 10
-387.267464
 20
85.01264
 30
0.0
 11
-387.267464
 21
0.0
 31
0.0
  0
LINE
  5
5F
  8
TEAM-DET3
 10
-497.267464
 20
85.01264
 30
0.0
 11
-497.267464
 21
0.0
 31
0.0
  0
LINE
  5
60
  8
TEAM-DET3
 10
-517.267464
 20
85.01264
 30
0.0
 11
-517.267464
 21
0.0
 31
0.0
  0
LINE
  5
61
  8
TEAM-DET3
 10
-297.267464
 20
85.01264
 30
0.0
 11
-297.267464
 21
0.0
 31
0.0
  0
LINE
  5
62
  8
TEAM-DET3
 10
-277.267464
 20
85.01264
 30
0.0
 11
-277.267464
 21
0.0
 31
0.0
  0
DIMENSION
  5
63
  8
TEAM-MAS
  2
*D3
 10
978.791026
 20
0.0
 30
0.0
 11
978.791026
 21
156.218308
 31
0.0
 12
-8000.0
 22
-84000.0
 32
0.0
 70
   128
 13
786.0
 23
107.0
 33
0.0
 14
780.0
 24
0.0
 34
0.0
 50
90.0
1001
ACAD
1000
DSTYLE
1002
{
1070
    78
1070
     0
1070
    40
1040
1.0
1002
}
  0
DIMENSION
  5
70
  8
TEAM-MAS
  2
*D2
 10
894.375886
 20
75.0
 30
0.0
 11
894.375886
 21
194.258391
 31
0.0
 12
-8000.0
 22
-84000.0
 32
0.0
 70
   128
 13
786.0
 23
107.0
 33
0.0
 14
800.0
 24
75.0
 34
0.0
 50
90.0
  0
LINE
  5
7F
  8
TEAM-DET1
 10
60.0
 20
85.01264
 30
0.0
 11
60.0
 21
75.0
 31
0.0
  0
LINE
  5
80
  8
TEAM-DET1
 10
60.0
 20
75.0
 30
0.0
 11
60.0
 21
0.0
 31
0.0
  0
LINE
  5
81
  8
TEAM-DET1
 10
205.876664
 20
65.5
 30
0.0
 11
205.876664
 21
9.5
 31
0.0
  0
LINE
  5
82
  8
TEAM-DET1
 10
100.210324
 20
69.5
 30
0.0
 11
140.210324
 21
69.5
 31
0.0
  0
LINE
  5
83
  8
TEAM-DET1
 10
100.210324
 20
5.5
 30
0.0
 11
100.210324
 21
69.5
 31
0.0
  0
LINE
  5
84
  8
TEAM-DET1
 10
140.210324
 20
69.5
 30
0.0
 11
140.210324
 21
5.5
 31
0.0
  0
LINE
  5
85
  8
TEAM-DET1
 10
140.210324
 20
5.5
 30
0.0
 11
100.210324
 21
5.5
 31
0.0
  0
LINE
  5
86
  8
TEAM-DET1
 10
140.210324
 20
9.5
 30
0.0
 11
140.210324
 21
65.5
 31
0.0
  0
LINE
  5
87
  8
TEAM-DET1
 10
205.876664
 20
9.5
 30
0.0
 11
140.210324
 21
9.5
 31
0.0
  0
LINE
  5
88
  8
TEAM-DET1
 10
140.210324
 20
65.5
 30
0.0
 11
205.876664
 21
65.5
 31
0.0
  0
LINE
  5
89
  8
TEAM-DET1
 10
60.0
 20
57.5
 30
0.0
 11
60.0
 21
17.5
 31
0.0
  0
LINE
  5
8A
  8
TEAM-DET1
 10
60.0
 20
57.5
 30
0.0
 11
100.210324
 21
61.510489
 31
0.0
  0
LINE
  5
8B
  8
TEAM-DET1
 10
60.0
 20
17.5
 30
0.0
 11
100.210324
 21
13.489511
 31
0.0
  0
LINE
  5
8C
  8
TEAM-DET3
 10
197.267464
 20
85.01264
 30
0.0
 11
197.267464
 21
65.5
 31
0.0
  0
LINE
  5
8D
  8
TEAM-DET3
 10
197.267464
 20
9.5
 30
0.0
 11
197.267464
 21
0.0
 31
0.0
  0
LINE
  5
8E
  8
TEAM-DET3
 10
177.267464
 20
85.01264
 30
0.0
 11
177.267464
 21
65.5
 31
0.0
  0
LINE
  5
8F
  8
TEAM-DET3
 10
177.267464
 20
9.5
 30
0.0
 11
177.267464
 21
0.0
 31
0.0
  0
LINE
  5
90
  8
TEAM-DET3
 10
77.267464
 20
85.01264
 30
0.0
 11
77.267464
 21
59.222219
 31
0.0
  0
LINE
  5
91
  8
TEAM-DET3
 10
77.267464
 20
15.777781
 30
0.0
 11
77.267464
 21
0.0
 31
0.0
  0
LINE
  5
92
  8
TEAM-DET3
 10
97.267464
 20
85.01264
 30
0.0
 11
97.267464
 21
61.216974
 31
0.0
  0
LINE
  5
93
  8
TEAM-DET3
 10
97.267464
 20
13.783026
 30
0.0
 11
97.267464
 21
0.0
 31
0.0
  0
LINE
  5
94
  8
TEAM-BODY
 10
800.0
 20
107.0
 30
0.0
 11
60.0
 21
85.01264
 31
0.0
  0
LINE
  5
95
  8
TEAM-BODY
 10
800.0
 20
107.0
 30
0.0
 11
800.0
 21
75.0
 31
0.0
  0
LINE
  5
96
  8
TEAM-DET3
 10
800.0
 20
107.0
 30
0.0
 11
800.0
 21
0.0
 31
0.0
  0
LINE
  5
97
  8
TEAM-DET3
 10
780.0
 20
85.01264
 30
0.0
 11
780.0
 21
0.0
 31
0.0
  0
LINE
  5
98
  8
TEAM-DET3
 10
650.0
 20
85.01264
 30
0.0
 11
650.0
 21
0.0
 31
0.0
  0
LINE
  5
99
  8
TEAM-DET3
 10
630.0
 20
85.01264
 30
0.0
 11
630.0
 21
0.0
 31
0.0
  0
LINE
  5
9A
  8
TEAM-DET3
 10
277.267464
 20
85.01264
 30
0.0
 11
277.267464
 21
0.0
 31
0.0
  0
LINE
  5
9B
  8
TEAM-DET3
 10
297.267464
 20
85.01264
 30
0.0
 11
297.267464
 21
0.0
 31
0.0
  0
LINE
  5
9C
  8
TEAM-DET3
 10
517.267464
 20
85.01264
 30
0.0
 11
517.267464
 21
0.0
 31
0.0
  0
LINE
  5
9D
  8
TEAM-DET3
 10
497.267464
 20
85.01264
 30
0.0
 11
497.267464
 21
0.0
 31
0.0
  0
LINE
  5
9E
  8
TEAM-DET3
 10
387.267464
 20
85.01264
 30
0.0
 11
387.267464
 21
0.0
 31
0.0
  0
LINE
  5
9F
  8
TEAM-DET3
 10
407.267464
 20
85.01264
 30
0.0
 11
407.267464
 21
0.0
 31
0.0
  0
ENDSEC
  0
EOF
