  0
SECTION
  2
HEADER
  9
$ACADVER
  1
AC1009
  9
$INSBASE
 10
0.0
 20
0.0
 30
0.0
  9
$EXTMIN
 10
-362.946437
 20
-610.170567
 30
0.0
  9
$EXTMAX
 10
410.33689
 20
10.369648
 30
0.0
  9
$LIMMIN
 10
-362.946437
 20
-610.170567
  9
$LIMMAX
 10
410.33689
 20
10.369648
  9
$ORTHOMODE
 70
     1
  9
$REGENMODE
 70
     1
  9
$FILLMODE
 70
     1
  9
$QTEXTMODE
 70
     0
  9
$MIRRTEXT
 70
     0
  9
$DRAGMODE
 70
     2
  9
$LTSCALE
 40
25.0
  9
$OSMODE
 70
     0
  9
$ATTMODE
 70
     1
  9
$TEXTSIZE
 40
200.0
  9
$TRACEWID
 40
1.0
  9
$TEXTSTYLE
  7
STANDARD
  9
$CLAYER
  8
TEAM-MAS
  9
$CELTYPE
  6
BYLAYER
  9
$CECOLOR
 62
   256
  9
$DIMSCALE
 40
0.0
  9
$DIMASZ
 40
20.0
  9
$DIMEXO
 40
10.0
  9
$DIMDLI
 40
1.0
  9
$DIMRND
 40
0.0
  9
$DIMDLE
 40
0.0
  9
$DIMEXE
 40
1.0
  9
$DIMTP
 40
0.0
  9
$DIMTM
 40
0.0
  9
$DIMTXT
 40
35.0
  9
$DIMCEN
 40
1.0
  9
$DIMTSZ
 40
0.0
  9
$DIMTOL
 70
     0
  9
$DIMLIM
 70
     0
  9
$DIMTIH
 70
     0
  9
$DIMTOH
 70
     0
  9
$DIMSE1
 70
     0
  9
$DIMSE2
 70
     0
  9
$DIMTAD
 70
     0
  9
$DIMZIN
 70
     0
  9
$DIMBLK
  1

  9
$DIMASO
 70
     1
  9
$DIMSHO
 70
     0
  9
$DIMPOST
  1

  9
$DIMAPOST
  1

  9
$DIMALT
 70
     0
  9
$DIMALTD
 70
     2
  9
$DIMALTF
 40
25.4
  9
$DIMLFAC
 40
1.0
  9
$DIMTOFL
 70
     0
  9
$DIMTVP
 40
0.0
  9
$DIMTIX
 70
     0
  9
$DIMSOXD
 70
     0
  9
$DIMSAH
 70
     0
  9
$DIMBLK1
  1

  9
$DIMBLK2
  1

  9
$DIMSTYLE
  2
TEAM
  9
$DIMCLRD
 70
     9
  9
$DIMCLRE
 70
     9
  9
$DIMCLRT
 70
    11
  9
$DIMTFAC
 40
1.0
  9
$DIMGAP
 40
15.0
  9
$LUNITS
 70
     2
  9
$LUPREC
 70
     1
  9
$SKETCHINC
 40
1.0
  9
$FILLETRAD
 40
50.0
  9
$AUNITS
 70
     0
  9
$AUPREC
 70
     0
  9
$MENU
  1
ROPLANS
  9
$ELEVATION
 40
0.0
  9
$PELEVATION
 40
0.0
  9
$THICKNESS
 40
0.0
  9
$LIMCHECK
 70
     0
  9
$BLIPMODE
 70
     1
  9
$CHAMFERA
 40
0.0
  9
$CHAMFERB
 40
0.0
  9
$SKPOLY
 70
     0
  9
$TDCREATE
 40
2450392.957851
  9
$TDUPDATE
 40
2455498.624065
  9
$TDINDWG
 40
1.987034
  9
$TDUSRTIMER
 40
1.987034
  9
$USRTIMER
 70
     1
  9
$ANGBASE
 50
0.0
  9
$ANGDIR
 70
     0
  9
$PDMODE
 70
     0
  9
$PDSIZE
 40
0.0
  9
$PLINEWID
 40
0.0
  9
$COORDS
 70
     2
  9
$SPLFRAME
 70
     0
  9
$SPLINETYPE
 70
     6
  9
$SPLINESEGS
 70
     8
  9
$ATTDIA
 70
     0
  9
$ATTREQ
 70
     0
  9
$HANDLING
 70
     1
  9
$HANDSEED
  5
E0
  9
$SURFTAB1
 70
    24
  9
$SURFTAB2
 70
    24
  9
$SURFTYPE
 70
     6
  9
$SURFU
 70
     6
  9
$SURFV
 70
     6
  9
$UCSNAME
  2

  9
$UCSORG
 10
0.0
 20
0.0
 30
0.0
  9
$UCSXDIR
 10
1.0
 20
0.0
 30
0.0
  9
$UCSYDIR
 10
0.0
 20
1.0
 30
0.0
  9
$PUCSNAME
  2

  9
$PUCSORG
 10
0.0
 20
0.0
 30
0.0
  9
$PUCSXDIR
 10
1.0
 20
0.0
 30
0.0
  9
$PUCSYDIR
 10
0.0
 20
1.0
 30
0.0
  9
$USERI1
 70
     0
  9
$USERI2
 70
     0
  9
$USERI3
 70
     0
  9
$USERI4
 70
     0
  9
$USERI5
 70
     0
  9
$USERR1
 40
0.0
  9
$USERR2
 40
0.0
  9
$USERR3
 40
0.0
  9
$USERR4
 40
0.0
  9
$USERR5
 40
0.0
  9
$WORLDVIEW
 70
     1
  9
$SHADEDGE
 70
     0
  9
$SHADEDIF
 70
    70
  9
$TILEMODE
 70
     1
  9
$MAXACTVP
 70
    16
  9
$PLIMCHECK
 70
     0
  9
$PEXTMIN
 10
-0.805942
 20
0.005011
 30
0.0
  9
$PEXTMAX
 10
20.250094
 20
11.356329
 30
0.0
  9
$PLIMMIN
 10
0.0
 20
0.0
  9
$PLIMMAX
 10
12.0
 20
9.0
  9
$UNITMODE
 70
     0
  9
$VISRETAIN
 70
     0
  9
$PLINEGEN
 70
     0
  9
$PSLTSCALE
 70
     0
  0
ENDSEC
  0
SECTION
  2
TABLES
  0
TABLE
  2
VPORT
 70
     2
  0
VPORT
  2
*ACTIVE
 70
     0
 10
0.0
 20
0.0
 11
1.0
 21
1.0
 12
23.695227
 22
-299.900459
 13
0.0
 23
0.0
 14
1.0
 24
1.0
 15
50.0
 25
50.0
 16
0.0
 26
0.0
 36
1.0
 17
0.0
 27
0.0
 37
0.0
 40
624.351107
 41
1.865779
 42
50.0
 43
0.0
 44
0.0
 50
0.0
 51
0.0
 71
     0
 72
   100
 73
     1
 74
     1
 75
     0
 76
     0
 77
     0
 78
     0
  0
ENDTAB
  0
TABLE
  2
LTYPE
 70
     2
  0
LTYPE
  2
CONTINUOUS
 70
     0
  3
Solid Line
 72
    65
 73
     0
 40
0.0
  0
LTYPE
  2
31
 70
     0
  3

 72
    65
 73
     4
 40
2.1
 49
1.5
 49
-0.3
 49
0.0
 49
-0.3
  0
ENDTAB
  0
TABLE
  2
LAYER
 70
    10
  0
LAYER
  2
0
 70
     0
 62
     7
  6
CONTINUOUS
  0
LAYER
  2
DEFPOINTS
 70
     0
 62
     7
  6
CONTINUOUS
  0
LAYER
  2
TEAM-BODY
 70
     0
 62
     2
  6
CONTINUOUS
  0
LAYER
  2
TEAM-AXE
 70
     0
 62
    10
  6
31
  0
LAYER
  2
TEAM-MAS
 70
     0
 62
     9
  6
CONTINUOUS
  0
LAYER
  2
TEAM-TXT
 70
     0
 62
    11
  6
CONTINUOUS
  0
LAYER
  2
TEAM-DET1
 70
     0
 62
     4
  6
CONTINUOUS
  0
LAYER
  2
TEAM-COLD
 70
     0
 62
     3
  6
CONTINUOUS
  0
LAYER
  2
TEAM-WARM
 70
     0
 62
     1
  6
CONTINUOUS
  0
LAYER
  2
TEAM-INSP
 70
     0
 62
     5
  6
CONTINUOUS
  0
ENDTAB
  0
TABLE
  2
STYLE
 70
     2
  0
STYLE
  2
STANDARD
 70
     0
 40
0.0
 41
1.0
 50
0.0
 71
     0
 42
200.0
  3
txt
  4

  0
STYLE
  2
TEAM
 70
     0
 40
0.0
 41
0.8
 50
15.0
 71
     0
 42
7.0
  3
ROMANS.shx
  4

  0
ENDTAB
  0
TABLE
  2
VIEW
 70
     0
  0
ENDTAB
  0
TABLE
  2
UCS
 70
     0
  0
ENDTAB
  0
TABLE
  2
APPID
 70
     1
  0
APPID
  2
ACAD
 70
     0
  0
ENDTAB
  0
TABLE
  2
DIMSTYLE
 70
     1
  0
DIMSTYLE
  2
TEAM
 70
     0
  3

  4

  5

  6

  7

 40
0.0
 41
20.0
 42
10.0
 43
1.0
 44
1.0
 45
0.0
 46
0.0
 47
0.0
 48
0.0
140
35.0
141
1.0
142
0.0
143
25.4
144
1.0
145
0.0
146
1.0
147
15.0
 71
     0
 72
     0
 73
     0
 74
     0
 75
     0
 76
     0
 77
     0
 78
     0
170
     0
171
     2
172
     0
173
     0
174
     0
175
     0
176
     9
177
     9
178
    11
  0
ENDTAB
  0
ENDSEC
  0
SECTION
  2
BLOCKS
  0
BLOCK
  8
0
  2
$MODEL_SPACE
 70
     0
 10
0.0
 20
0.0
 30
0.0
  3
$MODEL_SPACE
  1

  0
ENDBLK
  5
D9
  8
0
  0
BLOCK
 67
     1
  8
0
  2
$PAPER_SPACE
 70
     0
 10
0.0
 20
0.0
 30
0.0
  3
$PAPER_SPACE
  1

  0
ENDBLK
  5
D7
 67
     1
  8
0
  0
BLOCK
  8
0
  2
*D0
 70
     1
 10
0.0
 20
0.0
 30
0.0
  3
*D0
  1

  0
LINE
  5
67
  8
0
  6
BYBLOCK
 62
     9
 10
12320.0
 20
28000.0
 30
0.0
 11
12394.111738
 21
28000.0
 31
0.0
  0
LINE
  5
68
  8
0
  6
BYBLOCK
 62
     9
 10
12010.0
 20
27490.0
 30
0.0
 11
12394.111738
 21
27490.0
 31
0.0
  0
LINE
  5
69
  8
0
  6
BYBLOCK
 62
     9
 10
12393.111738
 20
27980.0
 30
0.0
 11
12393.111738
 21
27788.01378
 31
0.0
  0
LINE
  5
6A
  8
0
  6
BYBLOCK
 62
     9
 10
12393.111738
 20
27510.0
 30
0.0
 11
12393.111738
 21
27701.98622
 31
0.0
  0
SOLID
  5
6B
  8
0
  6
BYBLOCK
 62
     9
 10
12389.778405
 20
27980.0
 30
0.0
 11
12396.445072
 21
27980.0
 31
0.0
 12
12393.111738
 22
28000.0
 32
0.0
 13
12393.111738
 23
28000.0
 33
0.0
  0
SOLID
  5
6C
  8
0
  6
BYBLOCK
 62
     9
 10
12389.778405
 20
27510.0
 30
0.0
 11
12396.445072
 21
27510.0
 31
0.0
 12
12393.111738
 22
27490.0
 32
0.0
 13
12393.111738
 23
27490.0
 33
0.0
  0
TEXT
  5
6D
  8
0
  6
BYBLOCK
 62
    11
 10
12410.611738
 20
27711.73622
 30
0.0
 40
35.0
  1
510
 50
90.0
  0
POINT
  5
6E
  8
DEFPOINTS
  6
BYBLOCK
 62
     0
 10
12310.0
 20
28000.0
 30
0.0
  0
POINT
  5
6F
  8
DEFPOINTS
  6
BYBLOCK
 62
     0
 10
12000.0
 20
27490.0
 30
0.0
  0
POINT
  5
70
  8
DEFPOINTS
  6
BYBLOCK
 62
     0
 10
12393.111738
 20
27490.0
 30
0.0
  0
ENDBLK
  5
72
  8
0
  0
BLOCK
  8
0
  2
*D1
 70
     1
 10
0.0
 20
0.0
 30
0.0
  3
*D1
  1

  0
LINE
  5
58
  8
0
  6
BYBLOCK
 62
     9
 10
11690.0
 20
27741.794511
 30
0.0
 11
11690.0
 21
27404.637891
 31
0.0
  0
LINE
  5
59
  8
0
  6
BYBLOCK
 62
     9
 10
12310.0
 20
27741.794511
 30
0.0
 11
12310.0
 21
27404.637891
 31
0.0
  0
LINE
  5
5A
  8
0
  6
BYBLOCK
 62
     9
 10
11710.0
 20
27405.637891
 30
0.0
 11
11952.438976
 21
27405.637891
 31
0.0
  0
LINE
  5
5B
  8
0
  6
BYBLOCK
 62
     9
 10
12290.0
 20
27405.637891
 30
0.0
 11
12047.561024
 21
27405.637891
 31
0.0
  0
SOLID
  5
5C
  8
0
  6
BYBLOCK
 62
     9
 10
11710.0
 20
27408.971224
 30
0.0
 11
11710.0
 21
27402.304558
 31
0.0
 12
11690.0
 22
27405.637891
 32
0.0
 13
11690.0
 23
27405.637891
 33
0.0
  0
SOLID
  5
5D
  8
0
  6
BYBLOCK
 62
     9
 10
12290.0
 20
27408.971224
 30
0.0
 11
12290.0
 21
27402.304558
 31
0.0
 12
12310.0
 22
27405.637891
 32
0.0
 13
12310.0
 23
27405.637891
 33
0.0
  0
TEXT
  5
5E
  8
0
  6
BYBLOCK
 62
    11
 10
11964.283465
 20
27388.137891
 30
0.0
 40
35.0
  1
620
  0
POINT
  5
5F
  8
DEFPOINTS
  6
BYBLOCK
 62
     0
 10
11690.0
 20
27751.794511
 30
0.0
  0
POINT
  5
61
  8
DEFPOINTS
  6
BYBLOCK
 62
     0
 10
12310.0
 20
27751.794511
 30
0.0
  0
POINT
  5
62
  8
DEFPOINTS
  6
BYBLOCK
 62
     0
 10
12310.0
 20
27405.637891
 30
0.0
  0
ENDBLK
  5
64
  8
0
  0
ENDSEC
  0
SECTION
  2
ENTITIES
  0
ARC
  5
20
  8
TEAM-BODY
 10
157.088556
 20
-224.339842
 30
0.0
 40
103.333333
 50
58.089684
 51
82.056236
  0
ARC
  5
22
  8
TEAM-DET1
 10
156.4022
 20
-255.550448
 30
0.0
 40
103.333333
 50
64.435738
 51
81.867944
  0
ARC
  5
24
  8
TEAM-BODY
 10
235.565211
 20
-47.381596
 30
0.0
 40
31.0
 50
3.935209
 51
88.798492
  0
ARC
  5
25
  8
TEAM-DET1
 10
145.372295
 20
-278.608533
 30
0.0
 40
128.893734
 50
347.262156
 51
64.435738
  0
ARC
  5
26
  8
TEAM-BODY
 10
136.852318
 20
-256.837675
 30
0.0
 40
141.616678
 50
352.815262
 51
58.089684
  0
LINE
  5
27
  8
TEAM-BODY
 10
266.492122
 20
-45.254116
 30
0.0
 11
278.360549
 21
-231.783977
 31
0.0
  0
LINE
  5
28
  8
TEAM-BODY
 10
310.0
 20
0.0
 30
0.0
 11
309.282966
 21
-229.592153
 31
0.0
  0
ARC
  5
29
  8
TEAM-BODY
 10
-157.088556
 20
-224.339842
 30
0.0
 40
103.333333
 50
97.943764
 51
121.910316
  0
ARC
  5
2A
  8
TEAM-DET1
 10
-156.4022
 20
-255.550448
 30
0.0
 40
103.333333
 50
98.132056
 51
115.564262
  0
ARC
  5
2B
  8
TEAM-BODY
 10
0.0
 20
-1350.099273
 30
0.0
 40
1240.0
 50
90.0
 51
97.943764
  0
ARC
  5
2C
  8
TEAM-DET1
 10
0.0
 20
-1350.099273
 30
0.0
 40
1209.0
 50
90.0
 51
98.132056
  0
ARC
  5
2D
  8
TEAM-BODY
 10
-2886.520087
 20
126348.973518
 30
0.0
 40
126393.151759
 50
271.201508
 51
271.308614
  0
LINE
  5
2E
  8
TEAM-BODY
 10
0.0
 20
0.0
 30
0.0
 11
-310.0
 21
0.0
 31
0.0
  0
ARC
  5
2F
  8
TEAM-BODY
 10
-235.565211
 20
-47.381596
 30
0.0
 40
31.0
 50
91.201508
 51
176.064791
  0
CIRCLE
  5
30
  8
TEAM-WARM
 10
-79.05
 20
-54.059271
 30
0.0
 40
15.5
  0
LINE
  5
32
  8
TEAM-AXE
 10
-99.716667
 20
-54.059271
 30
0.0
 11
-58.383333
 21
-54.059271
 31
0.0
  0
LINE
  5
35
  8
TEAM-AXE
 10
-79.05
 20
-74.725937
 30
0.0
 11
-79.05
 21
-33.392604
 31
0.0
  0
LINE
  5
36
  8
TEAM-AXE
 10
-17.222222
 20
-54.059271
 30
0.0
 11
17.222222
 21
-54.059271
 31
0.0
  0
LINE
  5
37
  8
TEAM-AXE
 10
0.0
 20
-36.837049
 30
0.0
 11
0.0
 21
-71.281493
 31
0.0
210
0.0
220
-0.0
230
-1.0
  0
CIRCLE
  5
38
  8
TEAM-DET1
 10
0.0
 20
-54.059271
 30
0.0
 40
15.5
  0
CIRCLE
  5
39
  8
TEAM-COLD
 10
79.05
 20
-54.059271
 30
0.0
 40
15.5
  0
LINE
  5
3B
  8
TEAM-AXE
 10
58.383333
 20
-54.059271
 30
0.0
 11
99.716667
 21
-54.059271
 31
0.0
  0
LINE
  5
3C
  8
TEAM-AXE
 10
79.05
 20
-74.725937
 30
0.0
 11
79.05
 21
-33.392604
 31
0.0
  0
LINE
  5
3D
  8
TEAM-AXE
 10
-43.055555
 20
-193.972218
 30
0.0
 11
43.055555
 21
-193.972218
 31
0.0
  0
ARC
  5
3E
  8
TEAM-BODY
 10
0.0
 20
99.666667
 30
0.0
 40
578.666667
 50
261.555106
 51
270.0
  0
ARC
  5
3F
  8
TEAM-BODY
 10
0.0
 20
99.666667
 30
0.0
 40
609.666667
 50
261.555106
 51
270.0
  0
ARC
  5
40
  8
TEAM-BODY
 10
0.0
 20
99.666667
 30
0.0
 40
578.666667
 50
270.0
 51
278.444894
  0
ARC
  5
41
  8
TEAM-BODY
 10
0.0
 20
99.666667
 30
0.0
 40
609.666667
 50
270.0
 51
278.444894
  0
ARC
  5
42
  8
TEAM-BODY
 10
-51.596154
 20
-247.857358
 30
0.0
 40
258.333333
 50
175.945575
 51
261.555106
  0
ARC
  5
43
  8
TEAM-BODY
 10
-51.596154
 20
-247.857358
 30
0.0
 40
227.333333
 50
175.945575
 51
261.555106
  0
TEXT
  5
44
  8
TEAM-TXT
 10
-219.609297
 20
-308.586167
 30
0.0
 40
24.999999
  1
team 211023
 41
0.8
 51
15.0
  7
TEAM
  0
LINE
  5
47
  8
TEAM-AXE
 10
0.0
 20
-150.916663
 30
0.0
 11
0.0
 21
-237.027772
 31
0.0
  0
CIRCLE
  5
48
  8
TEAM-BODY
 10
0.0
 20
-193.972218
 30
0.0
 40
31.0
  0
CIRCLE
  5
49
  8
TEAM-DET1
 10
0.0
 20
-193.972218
 30
0.0
 40
41.333333
  0
ARC
  5
4A
  8
TEAM-BODY
 10
-136.852318
 20
-256.837675
 30
0.0
 40
141.616678
 50
121.910316
 51
187.184738
  0
ARC
  5
4B
  8
TEAM-DET1
 10
-145.372295
 20
-278.608533
 30
0.0
 40
128.893734
 50
115.564262
 51
192.737844
  0
LINE
  5
4C
  8
TEAM-BODY
 10
-266.492122
 20
-45.254116
 30
0.0
 11
-278.360549
 21
-231.783977
 31
0.0
  0
LINE
  5
4D
  8
TEAM-BODY
 10
-310.0
 20
0.0
 30
0.0
 11
-309.282966
 21
-229.592153
 31
0.0
  0
ARC
  5
4E
  8
TEAM-BODY
 10
0.0
 20
-1350.099273
 30
0.0
 40
1240.0
 50
82.056236
 51
90.0
  0
ARC
  5
4F
  8
TEAM-DET1
 10
0.0
 20
-1350.099273
 30
0.0
 40
1209.0
 50
81.867944
 51
90.0
  0
ARC
  5
50
  8
TEAM-BODY
 10
51.596154
 20
-247.857358
 30
0.0
 40
227.333333
 50
278.444894
 51
4.054425
  0
ARC
  5
51
  8
TEAM-BODY
 10
51.596154
 20
-247.857358
 30
0.0
 40
258.333333
 50
278.444894
 51
4.054425
  0
LINE
  5
52
  8
TEAM-BODY
 10
0.0
 20
0.0
 30
0.0
 11
310.0
 21
0.0
 31
0.0
  0
ARC
  5
53
  8
TEAM-BODY
 10
2886.520087
 20
126348.973519
 30
0.0
 40
126393.151759
 50
268.691386
 51
268.798492
  0
CIRCLE
  5
54
  8
TEAM-INSP
 10
0.0
 20
0.0
 30
0.0
 40
10.333333
  0
DIMENSION
  5
56
  8
TEAM-MAS
  2
*D1
 10
310.0
 20
-594.362109
 30
0.0
 11
0.0
 21
-594.362109
 31
0.0
 12
-12000.0
 22
-28000.0
 32
0.0
 13
-310.0
 23
-248.205489
 33
0.0
 14
310.0
 24
-248.205489
 34
0.0
  0
DIMENSION
  5
65
  8
TEAM-MAS
  2
*D0
 10
393.111738
 20
-510.0
 30
0.0
 11
393.111738
 21
-255.0
 31
0.0
 12
-12000.0
 22
-28000.0
 32
0.0
 13
310.0
 23
0.0
 33
0.0
 14
0.0
 24
-510.0
 34
0.0
 50
90.0
  0
ENDSEC
  0
EOF
