  0
SECTION
  2
HEADER
  9
$ACADVER
  1
AC1009
  9
$INSBASE
 10
0.0
 20
0.0
 30
0.0
  9
$EXTMIN
 10
-325.550201
 20
-10.066122
 30
0.0
  9
$EXTMAX
 10
555.062997
 20
899.249752
 30
0.000005
  9
$LIMMIN
 10
-325.550201
 20
-10.066122
  9
$LIMMAX
 10
555.062997
 20
899.249752
  9
$ORTHOMODE
 70
     1
  9
$REGENMODE
 70
     1
  9
$FILLMODE
 70
     1
  9
$QTEXTMODE
 70
     0
  9
$MIRRTEXT
 70
     0
  9
$DRAGMODE
 70
     2
  9
$LTSCALE
 40
50.0
  9
$OSMODE
 70
     0
  9
$ATTMODE
 70
     1
  9
$TEXTSIZE
 40
200.0
  9
$TRACEWID
 40
1.0
  9
$TEXTSTYLE
  7
STANDARD
  9
$CLAYER
  8
TEAM-MAS
  9
$CELTYPE
  6
BYLAYER
  9
$CECOLOR
 62
   256
  9
$DIMSCALE
 40
0.0
  9
$DIMASZ
 40
20.0
  9
$DIMEXO
 40
10.0
  9
$DIMDLI
 40
1.0
  9
$DIMRND
 40
0.0
  9
$DIMDLE
 40
0.0
  9
$DIMEXE
 40
1.0
  9
$DIMTP
 40
0.0
  9
$DIMTM
 40
0.0
  9
$DIMTXT
 40
35.0
  9
$DIMCEN
 40
1.0
  9
$DIMTSZ
 40
0.0
  9
$DIMTOL
 70
     0
  9
$DIMLIM
 70
     0
  9
$DIMTIH
 70
     0
  9
$DIMTOH
 70
     0
  9
$DIMSE1
 70
     0
  9
$DIMSE2
 70
     0
  9
$DIMTAD
 70
     0
  9
$DIMZIN
 70
     0
  9
$DIMBLK
  1

  9
$DIMASO
 70
     1
  9
$DIMSHO
 70
     0
  9
$DIMPOST
  1

  9
$DIMAPOST
  1

  9
$DIMALT
 70
     0
  9
$DIMALTD
 70
     2
  9
$DIMALTF
 40
25.4
  9
$DIMLFAC
 40
1.0
  9
$DIMTOFL
 70
     0
  9
$DIMTVP
 40
0.0
  9
$DIMTIX
 70
     0
  9
$DIMSOXD
 70
     0
  9
$DIMSAH
 70
     0
  9
$DIMBLK1
  1

  9
$DIMBLK2
  1

  9
$DIMSTYLE
  2
TEAM
  9
$DIMCLRD
 70
     9
  9
$DIMCLRE
 70
     9
  9
$DIMCLRT
 70
    11
  9
$DIMTFAC
 40
1.0
  9
$DIMGAP
 40
7.0
  9
$LUNITS
 70
     2
  9
$LUPREC
 70
     1
  9
$SKETCHINC
 40
1.0
  9
$FILLETRAD
 40
50.0
  9
$AUNITS
 70
     0
  9
$AUPREC
 70
     0
  9
$MENU
  1
ROPLANS
  9
$ELEVATION
 40
0.0
  9
$PELEVATION
 40
0.0
  9
$THICKNESS
 40
0.0
  9
$LIMCHECK
 70
     0
  9
$BLIPMODE
 70
     1
  9
$CHAMFERA
 40
0.0
  9
$CHAMFERB
 40
0.0
  9
$SKPOLY
 70
     0
  9
$TDCREATE
 40
2450392.957851
  9
$TDUPDATE
 40
2456279.880111
  9
$TDINDWG
 40
2.294971
  9
$TDUSRTIMER
 40
2.294971
  9
$USRTIMER
 70
     1
  9
$ANGBASE
 50
0.0
  9
$ANGDIR
 70
     0
  9
$PDMODE
 70
     0
  9
$PDSIZE
 40
0.0
  9
$PLINEWID
 40
0.0
  9
$COORDS
 70
     2
  9
$SPLFRAME
 70
     0
  9
$SPLINETYPE
 70
     6
  9
$SPLINESEGS
 70
     8
  9
$ATTDIA
 70
     0
  9
$ATTREQ
 70
     0
  9
$HANDLING
 70
     1
  9
$HANDSEED
  5
11A
  9
$SURFTAB1
 70
    24
  9
$SURFTAB2
 70
    24
  9
$SURFTYPE
 70
     6
  9
$SURFU
 70
     6
  9
$SURFV
 70
     6
  9
$UCSNAME
  2

  9
$UCSORG
 10
0.0
 20
0.0
 30
0.0
  9
$UCSXDIR
 10
1.0
 20
0.0
 30
0.0
  9
$UCSYDIR
 10
0.0
 20
1.0
 30
0.0
  9
$PUCSNAME
  2

  9
$PUCSORG
 10
0.0
 20
0.0
 30
0.0
  9
$PUCSXDIR
 10
1.0
 20
0.0
 30
0.0
  9
$PUCSYDIR
 10
0.0
 20
1.0
 30
0.0
  9
$USERI1
 70
     0
  9
$USERI2
 70
     0
  9
$USERI3
 70
     0
  9
$USERI4
 70
     0
  9
$USERI5
 70
     0
  9
$USERR1
 40
0.0
  9
$USERR2
 40
0.0
  9
$USERR3
 40
0.0
  9
$USERR4
 40
0.0
  9
$USERR5
 40
0.0
  9
$WORLDVIEW
 70
     1
  9
$SHADEDGE
 70
     0
  9
$SHADEDIF
 70
    70
  9
$TILEMODE
 70
     1
  9
$MAXACTVP
 70
    16
  9
$PLIMCHECK
 70
     0
  9
$PEXTMIN
 10
-0.805942
 20
0.005011
 30
0.0
  9
$PEXTMAX
 10
20.250094
 20
11.356329
 30
0.0
  9
$PLIMMIN
 10
0.0
 20
0.0
  9
$PLIMMAX
 10
12.0
 20
9.0
  9
$UNITMODE
 70
     0
  9
$VISRETAIN
 70
     0
  9
$PLINEGEN
 70
     0
  9
$PSLTSCALE
 70
     0
  0
ENDSEC
  0
SECTION
  2
TABLES
  0
TABLE
  2
VPORT
 70
     2
  0
VPORT
  2
*ACTIVE
 70
     0
 10
0.0
 20
0.0
 11
1.0
 21
1.0
 12
114.756398
 22
444.591815
 13
0.0
 23
0.0
 14
1.0
 24
1.0
 15
50.0
 25
50.0
 16
0.0
 26
0.0
 36
1.0
 17
0.0
 27
0.0
 37
0.0
 40
915.040842
 41
1.911765
 42
50.0
 43
0.0
 44
0.0
 50
0.0
 51
0.0
 71
     0
 72
   100
 73
     1
 74
     1
 75
     0
 76
     0
 77
     0
 78
     0
  0
ENDTAB
  0
TABLE
  2
LTYPE
 70
     4
  0
LTYPE
  2
CONTINUOUS
 70
     0
  3
Solid Line
 72
    65
 73
     0
 40
0.0
  0
LTYPE
  2
31
 70
     0
  3

 72
    65
 73
     4
 40
2.1
 49
1.5
 49
-0.3
 49
0.0
 49
-0.3
  0
LTYPE
  2
22
 70
     0
  3

 72
    65
 73
     2
 40
1.4
 49
1.2
 49
-0.2
  0
LTYPE
  2
STRICHLINIE
 70
     0
  3
Strichlinie __ __ __ __ __ __ __ __ __ __ __ __
 72
    65
 73
     2
 40
0.75
 49
0.5
 49
-0.25
  0
ENDTAB
  0
TABLE
  2
LAYER
 70
    13
  0
LAYER
  2
0
 70
     0
 62
     7
  6
CONTINUOUS
  0
LAYER
  2
DEFPOINTS
 70
     0
 62
     7
  6
CONTINUOUS
  0
LAYER
  2
TEAM-BODY
 70
     0
 62
     2
  6
CONTINUOUS
  0
LAYER
  2
TEAM-AXE
 70
     0
 62
    10
  6
31
  0
LAYER
  2
TEAM-MAS
 70
     0
 62
     9
  6
CONTINUOUS
  0
LAYER
  2
TEAM-TXT
 70
     0
 62
    11
  6
CONTINUOUS
  0
LAYER
  2
TEAM-DET1
 70
     0
 62
     4
  6
CONTINUOUS
  0
LAYER
  2
TEAM-COLD
 70
     0
 62
     3
  6
CONTINUOUS
  0
LAYER
  2
TEAM-HIDE
 70
     0
 62
     8
  6
22
  0
LAYER
  2
TEAM-KAN
 70
     0
 62
     6
  6
CONTINUOUS
  0
LAYER
  2
TEAM-WARM
 70
     0
 62
     1
  6
CONTINUOUS
  0
LAYER
  2
TEAM-INSP
 70
     0
 62
     5
  6
CONTINUOUS
  0
LAYER
  2
TEAM-HAUBE
 70
     0
 62
     4
  6
STRICHLINIE
  0
ENDTAB
  0
TABLE
  2
STYLE
 70
     2
  0
STYLE
  2
STANDARD
 70
     0
 40
0.0
 41
1.0
 50
0.0
 71
     0
 42
200.0
  3
txt
  4

  0
STYLE
  2
TEAM
 70
     0
 40
0.0
 41
0.8
 50
15.0
 71
     0
 42
7.0
  3
ROMANS.shx
  4

  0
ENDTAB
  0
TABLE
  2
VIEW
 70
     0
  0
ENDTAB
  0
TABLE
  2
UCS
 70
     0
  0
ENDTAB
  0
TABLE
  2
APPID
 70
     1
  0
APPID
  2
ACAD
 70
     0
  0
ENDTAB
  0
TABLE
  2
DIMSTYLE
 70
     1
  0
DIMSTYLE
  2
TEAM
 70
     0
  3

  4

  5

  6

  7

 40
0.0
 41
20.0
 42
10.0
 43
1.0
 44
1.0
 45
0.0
 46
0.0
 47
0.0
 48
0.0
140
35.0
141
1.0
142
0.0
143
25.4
144
1.0
145
0.0
146
1.0
147
7.0
 71
     0
 72
     0
 73
     0
 74
     0
 75
     0
 76
     0
 77
     0
 78
     0
170
     0
171
     2
172
     0
173
     0
174
     0
175
     0
176
     9
177
     9
178
    11
  0
ENDTAB
  0
ENDSEC
  0
SECTION
  2
BLOCKS
  0
BLOCK
  8
0
  2
$MODEL_SPACE
 70
     0
 10
0.0
 20
0.0
 30
0.0
  3
$MODEL_SPACE
  1

  0
ENDBLK
  5
113
  8
0
  0
BLOCK
 67
     1
  8
0
  2
$PAPER_SPACE
 70
     0
 10
0.0
 20
0.0
 30
0.0
  3
$PAPER_SPACE
  1

  0
ENDBLK
  5
111
 67
     1
  8
0
  0
BLOCK
  8
0
  2
*D0
 70
     1
 10
0.0
 20
0.0
 30
0.0
  3
*D0
  1

  0
LINE
  5
69
  8
0
  6
BYBLOCK
 62
     9
 10
12010.0
 20
850.000007
 30
0.0
 11
12538.502366
 21
850.000007
 31
0.0
  0
LINE
  5
6A
  8
0
  6
BYBLOCK
 62
     9
 10
12010.0
 20
0.0
 30
0.0
 11
12538.502366
 21
0.0
 31
0.0
  0
LINE
  5
6B
  8
0
  6
BYBLOCK
 62
     9
 10
12537.502366
 20
830.000007
 30
0.0
 11
12537.502366
 21
475.750004
 31
0.0
  0
LINE
  5
6C
  8
0
  6
BYBLOCK
 62
     9
 10
12537.502366
 20
20.0
 30
0.0
 11
12537.502366
 21
374.250004
 31
0.0
  0
SOLID
  5
6D
  8
0
  6
BYBLOCK
 62
     9
 10
12534.169033
 20
830.000007
 30
0.0
 11
12540.8357
 21
830.000007
 31
0.0
 12
12537.502366
 22
850.000007
 32
0.0
 13
12537.502366
 23
850.000007
 33
0.0
  0
SOLID
  5
6E
  8
0
  6
BYBLOCK
 62
     9
 10
12534.169033
 20
20.0
 30
0.0
 11
12540.8357
 21
20.0
 31
0.0
 12
12537.502366
 22
0.0
 32
0.0
 13
12537.502366
 23
0.0
 33
0.0
  0
TEXT
  5
6F
  8
0
  6
BYBLOCK
 62
    11
 10
12555.002366
 20
381.250004
 30
0.0
 40
35.0
  1
850
 50
90.0
  0
POINT
  5
70
  8
DEFPOINTS
  6
BYBLOCK
 62
     0
 10
12000.0
 20
850.000007
 30
0.0
  0
POINT
  5
71
  8
DEFPOINTS
  6
BYBLOCK
 62
     0
 10
12000.0
 20
0.0
 30
0.0
  0
POINT
  5
72
  8
DEFPOINTS
  6
BYBLOCK
 62
     0
 10
12537.502366
 20
0.0
 30
0.0
  0
ENDBLK
  5
74
  8
0
  0
BLOCK
  8
0
  2
*D1
 70
     1
 10
0.0
 20
0.0
 30
0.0
  3
*D1
  1

  0
LINE
  5
95
  8
0
  6
BYBLOCK
 62
     9
 10
12180.0
 20
800.0
 30
0.0
 11
12358.199063
 21
800.0
 31
0.0
  0
LINE
  5
96
  8
0
  6
BYBLOCK
 62
     9
 10
12010.0
 20
850.000007
 30
0.0
 11
12358.199063
 21
850.000007
 31
0.0
  0
LINE
  5
97
  8
0
  6
BYBLOCK
 62
     9
 10
12357.199063
 20
780.0
 30
0.0
 11
12357.199063
 21
760.0
 31
0.0
  0
LINE
  5
98
  8
0
  6
BYBLOCK
 62
     9
 10
12357.199063
 20
870.000007
 30
0.0
 11
12357.199063
 21
890.000007
 31
0.0
  0
TEXT
  5
99
  8
0
  6
BYBLOCK
 62
    11
 10
12374.935963
 20
706.276669
 30
0.0
 40
35.0
  1
50
 50
90.0
  0
LINE
  5
9A
  8
0
  6
BYBLOCK
 62
     9
 10
12357.199063
 20
800.0
 30
0.0
 11
12357.199063
 21
850.000007
 31
0.0
  0
SOLID
  5
9B
  8
0
  6
BYBLOCK
 62
     9
 10
12353.86573
 20
780.0
 30
0.0
 11
12360.532396
 21
780.0
 31
0.0
 12
12357.199063
 22
800.0
 32
0.0
 13
12357.199063
 23
800.0
 33
0.0
  0
SOLID
  5
9C
  8
0
  6
BYBLOCK
 62
     9
 10
12353.86573
 20
870.000007
 30
0.0
 11
12360.532396
 21
870.000007
 31
0.0
 12
12357.199063
 22
850.000007
 32
0.0
 13
12357.199063
 23
850.000007
 33
0.0
  0
POINT
  5
9D
  8
DEFPOINTS
  6
BYBLOCK
 62
     0
 10
12170.0
 20
800.0
 30
0.0
  0
POINT
  5
9E
  8
DEFPOINTS
  6
BYBLOCK
 62
     0
 10
12000.0
 20
850.000007
 30
0.0
  0
POINT
  5
9F
  8
DEFPOINTS
  6
BYBLOCK
 62
     0
 10
12357.199063
 20
850.000007
 30
0.0
  0
ENDBLK
  5
A1
  8
0
  0
BLOCK
  8
0
  2
*D2
 70
     1
 10
0.0
 20
0.0
 30
0.0
  3
*D2
  1

  0
LINE
  5
87
  8
0
  6
BYBLOCK
 62
     9
 10
11860.0
 20
829.0
 30
0.0
 11
11860.0
 21
882.679801
 31
0.0
  0
LINE
  5
88
  8
0
  6
BYBLOCK
 62
     9
 10
12140.0
 20
829.0
 30
0.0
 11
12140.0
 21
882.679801
 31
0.0
  0
LINE
  5
89
  8
0
  6
BYBLOCK
 62
     9
 10
11880.0
 20
881.679801
 30
0.0
 11
11949.25
 21
881.679801
 31
0.0
  0
LINE
  5
8A
  8
0
  6
BYBLOCK
 62
     9
 10
12120.0
 20
881.679801
 30
0.0
 11
12050.75
 21
881.679801
 31
0.0
  0
SOLID
  5
8B
  8
0
  6
BYBLOCK
 62
     9
 10
11880.0
 20
885.013135
 30
0.0
 11
11880.0
 21
878.346468
 31
0.0
 12
11860.0
 22
881.679801
 32
0.0
 13
11860.0
 23
881.679801
 33
0.0
  0
SOLID
  5
8C
  8
0
  6
BYBLOCK
 62
     9
 10
12120.0
 20
885.013135
 30
0.0
 11
12120.0
 21
878.346468
 31
0.0
 12
12140.0
 22
881.679801
 32
0.0
 13
12140.0
 23
881.679801
 33
0.0
  0
TEXT
  5
8D
  8
0
  6
BYBLOCK
 62
    11
 10
11956.25
 20
864.179801
 30
0.0
 40
35.0
  1
280
  0
POINT
  5
8E
  8
DEFPOINTS
  6
BYBLOCK
 62
     0
 10
11860.0
 20
819.0
 30
0.0
  0
POINT
  5
8F
  8
DEFPOINTS
  6
BYBLOCK
 62
     0
 10
12140.0
 20
819.0
 30
0.0
  0
POINT
  5
90
  8
DEFPOINTS
  6
BYBLOCK
 62
     0
 10
12140.0
 20
881.679801
 30
0.0
  0
ENDBLK
  5
92
  8
0
  0
BLOCK
  8
0
  2
*D3
 70
     1
 10
0.0
 20
0.0
 30
0.0
  3
*D3
  1

  0
LINE
  5
5B
  8
0
  6
BYBLOCK
 62
     9
 10
12070.0
 20
600.0
 30
0.0
 11
12445.638184
 21
600.0
 31
0.0
  0
LINE
  5
5C
  8
0
  6
BYBLOCK
 62
     9
 10
12010.0
 20
0.0
 30
0.0
 11
12445.638184
 21
0.0
 31
0.0
  0
LINE
  5
5D
  8
0
  6
BYBLOCK
 62
     9
 10
12444.638184
 20
580.0
 30
0.0
 11
12444.638184
 21
347.833333
 31
0.0
  0
LINE
  5
5E
  8
0
  6
BYBLOCK
 62
     9
 10
12444.638184
 20
20.0
 30
0.0
 11
12444.638184
 21
252.166667
 31
0.0
  0
SOLID
  5
5F
  8
0
  6
BYBLOCK
 62
     9
 10
12441.30485
 20
580.0
 30
0.0
 11
12447.971517
 21
580.0
 31
0.0
 12
12444.638184
 22
600.0
 32
0.0
 13
12444.638184
 23
600.0
 33
0.0
  0
SOLID
  5
60
  8
0
  6
BYBLOCK
 62
     9
 10
12441.30485
 20
20.0
 30
0.0
 11
12447.971517
 21
20.0
 31
0.0
 12
12444.638184
 22
0.0
 32
0.0
 13
12444.638184
 23
0.0
 33
0.0
  0
TEXT
  5
61
  8
0
  6
BYBLOCK
 62
    11
 10
12462.138184
 20
259.166667
 30
0.0
 40
35.0
  1
600
 50
90.0
  0
POINT
  5
62
  8
DEFPOINTS
  6
BYBLOCK
 62
     0
 10
12060.0
 20
600.0
 30
0.0
  0
POINT
  5
63
  8
DEFPOINTS
  6
BYBLOCK
 62
     0
 10
12000.0
 20
0.0
 30
0.0
  0
POINT
  5
64
  8
DEFPOINTS
  6
BYBLOCK
 62
     0
 10
12444.638184
 20
0.0
 30
0.0
  0
ENDBLK
  5
66
  8
0
  0
BLOCK
  8
0
  2
*D4
 70
     1
 10
0.0
 20
0.0
 30
0.0
  3
*D4
  1

  0
LINE
  5
4D
  8
0
  6
BYBLOCK
 62
     9
 10
12010.0
 20
850.000007
 30
0.0
 11
12401.694933
 21
850.000007
 31
0.0
  0
LINE
  5
4E
  8
0
  6
BYBLOCK
 62
     9
 10
12045.0
 20
660.0
 30
0.0
 11
12401.694933
 21
660.0
 31
0.0
  0
LINE
  5
4F
  8
0
  6
BYBLOCK
 62
     9
 10
12400.694933
 20
830.000007
 30
0.0
 11
12400.694933
 21
789.91667
 31
0.0
  0
LINE
  5
50
  8
0
  6
BYBLOCK
 62
     9
 10
12400.694933
 20
680.0
 30
0.0
 11
12400.694933
 21
700.083337
 31
0.0
  0
TEXT
  5
51
  8
0
  6
BYBLOCK
 62
    11
 10
12418.194933
 20
707.083337
 30
0.0
 40
35.0
  1
190
 50
90.0
  0
SOLID
  5
52
  8
0
  6
BYBLOCK
 62
     9
 10
12397.3616
 20
830.000007
 30
0.0
 11
12404.028266
 21
830.000007
 31
0.0
 12
12400.694933
 22
850.000007
 32
0.0
 13
12400.694933
 23
850.000007
 33
0.0
  0
SOLID
  5
53
  8
0
  6
BYBLOCK
 62
     9
 10
12397.3616
 20
680.0
 30
0.0
 11
12404.028266
 21
680.0
 31
0.0
 12
12400.694933
 22
660.0
 32
0.0
 13
12400.694933
 23
660.0
 33
0.0
  0
POINT
  5
54
  8
DEFPOINTS
  6
BYBLOCK
 62
     0
 10
12000.0
 20
850.000007
 30
0.0
  0
POINT
  5
55
  8
DEFPOINTS
  6
BYBLOCK
 62
     0
 10
12035.0
 20
660.0
 30
0.0
  0
POINT
  5
56
  8
DEFPOINTS
  6
BYBLOCK
 62
     0
 10
12400.694933
 20
660.0
 30
0.0
  0
ENDBLK
  5
58
  8
0
  0
BLOCK
  8
0
  2
*D5
 70
     1
 10
0.0
 20
0.0
 30
0.0
  3
*D5
  1

  0
LINE
  5
3F
  8
0
  6
BYBLOCK
 62
     9
 10
12040.0
 20
530.0
 30
0.0
 11
12488.72404
 21
530.0
 31
0.0
  0
LINE
  5
40
  8
0
  6
BYBLOCK
 62
     9
 10
12010.0
 20
0.0
 30
0.0
 11
12488.72404
 21
0.0
 31
0.0
  0
LINE
  5
41
  8
0
  6
BYBLOCK
 62
     9
 10
12487.72404
 20
510.0
 30
0.0
 11
12487.72404
 21
315.75
 31
0.0
  0
LINE
  5
42
  8
0
  6
BYBLOCK
 62
     9
 10
12487.72404
 20
20.0
 30
0.0
 11
12487.72404
 21
214.25
 31
0.0
  0
SOLID
  5
43
  8
0
  6
BYBLOCK
 62
     9
 10
12484.390707
 20
510.0
 30
0.0
 11
12491.057373
 21
510.0
 31
0.0
 12
12487.72404
 22
530.0
 32
0.0
 13
12487.72404
 23
530.0
 33
0.0
  0
SOLID
  5
44
  8
0
  6
BYBLOCK
 62
     9
 10
12484.390707
 20
20.0
 30
0.0
 11
12491.057373
 21
20.0
 31
0.0
 12
12487.72404
 22
0.0
 32
0.0
 13
12487.72404
 23
0.0
 33
0.0
  0
TEXT
  5
45
  8
0
  6
BYBLOCK
 62
    11
 10
12505.22404
 20
221.25
 30
0.0
 40
35.0
  1
530
 50
90.0
  0
POINT
  5
46
  8
DEFPOINTS
  6
BYBLOCK
 62
     0
 10
12030.0
 20
530.0
 30
0.0
  0
POINT
  5
47
  8
DEFPOINTS
  6
BYBLOCK
 62
     0
 10
12000.0
 20
0.0
 30
0.0
  0
POINT
  5
48
  8
DEFPOINTS
  6
BYBLOCK
 62
     0
 10
12487.72404
 20
0.0
 30
0.0
  0
ENDBLK
  5
4A
  8
0
  0
BLOCK
  8
0
  2
*D6
 70
     1
 10
0.0
 20
0.0
 30
0.0
  3
*D6
  1

  0
LINE
  5
31
  8
0
  6
BYBLOCK
 62
     9
 10
12010.0
 20
850.000007
 30
0.0
 11
12488.72404
 21
850.000007
 31
0.0
  0
LINE
  5
32
  8
0
  6
BYBLOCK
 62
     9
 10
12040.0
 20
530.0
 30
0.0
 11
12488.72404
 21
530.0
 31
0.0
  0
LINE
  5
33
  8
0
  6
BYBLOCK
 62
     9
 10
12487.72404
 20
830.000007
 30
0.0
 11
12487.72404
 21
745.750004
 31
0.0
  0
LINE
  5
34
  8
0
  6
BYBLOCK
 62
     9
 10
12487.72404
 20
550.0
 30
0.0
 11
12487.72404
 21
644.250004
 31
0.0
  0
TEXT
  5
35
  8
0
  6
BYBLOCK
 62
    11
 10
12505.22404
 20
651.250004
 30
0.0
 40
35.0
  1
320
 50
90.0
  0
SOLID
  5
36
  8
0
  6
BYBLOCK
 62
     9
 10
12484.390707
 20
830.000007
 30
0.0
 11
12491.057373
 21
830.000007
 31
0.0
 12
12487.72404
 22
850.000007
 32
0.0
 13
12487.72404
 23
850.000007
 33
0.0
  0
SOLID
  5
37
  8
0
  6
BYBLOCK
 62
     9
 10
12484.390707
 20
550.0
 30
0.0
 11
12491.057373
 21
550.0
 31
0.0
 12
12487.72404
 22
530.0
 32
0.0
 13
12487.72404
 23
530.0
 33
0.0
  0
POINT
  5
38
  8
DEFPOINTS
  6
BYBLOCK
 62
     0
 10
12000.0
 20
850.000007
 30
0.0
  0
POINT
  5
39
  8
DEFPOINTS
  6
BYBLOCK
 62
     0
 10
12030.0
 20
530.0
 30
0.0
  0
POINT
  5
3A
  8
DEFPOINTS
  6
BYBLOCK
 62
     0
 10
12487.72404
 20
530.0
 30
0.0
  0
ENDBLK
  5
3C
  8
0
  0
BLOCK
  8
0
  2
*D7
 70
     1
 10
0.0
 20
0.0
 30
0.0
  3
*D7
  1

  0
LINE
  5
79
  8
0
  6
BYBLOCK
 62
     9
 10
11960.0
 20
570.0
 30
0.0
 11
11960.0
 21
415.288366
 31
0.0
  0
LINE
  5
7A
  8
0
  6
BYBLOCK
 62
     9
 10
12040.0
 20
570.0
 30
0.0
 11
12040.0
 21
415.288366
 31
0.0
  0
LINE
  5
7B
  8
0
  6
BYBLOCK
 62
     9
 10
11980.0
 20
416.288366
 30
0.0
 11
11987.0
 21
416.288366
 31
0.0
  0
LINE
  5
7C
  8
0
  6
BYBLOCK
 62
     9
 10
12020.0
 20
416.288366
 30
0.0
 11
12013.0
 21
416.288366
 31
0.0
  0
TEXT
  5
7D
  8
0
  6
BYBLOCK
 62
    11
 10
11973.75
 20
398.788366
 30
0.0
 40
35.0
  1
80
  0
SOLID
  5
7E
  8
0
  6
BYBLOCK
 62
     9
 10
11980.0
 20
419.6217
 30
0.0
 11
11980.0
 21
412.955033
 31
0.0
 12
11960.0
 22
416.288366
 32
0.0
 13
11960.0
 23
416.288366
 33
0.0
  0
SOLID
  5
7F
  8
0
  6
BYBLOCK
 62
     9
 10
12020.0
 20
419.6217
 30
0.0
 11
12020.0
 21
412.955033
 31
0.0
 12
12040.0
 22
416.288366
 32
0.0
 13
12040.0
 23
416.288366
 33
0.0
  0
POINT
  5
80
  8
DEFPOINTS
  6
BYBLOCK
 62
     0
 10
11960.0
 20
580.0
 30
0.0
  0
POINT
  5
81
  8
DEFPOINTS
  6
BYBLOCK
 62
     0
 10
12040.0
 20
580.0
 30
0.0
  0
POINT
  5
82
  8
DEFPOINTS
  6
BYBLOCK
 62
     0
 10
12040.0
 20
416.288366
 30
0.0
  0
ENDBLK
  5
84
  8
0
  0
BLOCK
  8
0
  2
*D8
 70
     1
 10
0.0
 20
0.0
 30
0.0
  3
*D8
  1

  0
LINE
  5
22
  8
0
  6
BYBLOCK
 62
     9
 10
12080.0
 20
600.0
 30
0.0
 11
12445.638184
 21
600.0
 31
0.0
  0
LINE
  5
23
  8
0
  6
BYBLOCK
 62
     9
 10
12342.36329
 20
850.000007
 30
0.0
 11
12445.638184
 21
850.000007
 31
0.0
  0
LINE
  5
24
  8
0
  6
BYBLOCK
 62
     9
 10
12444.638184
 20
620.0
 30
0.0
 11
12444.638184
 21
684.250004
 31
0.0
  0
LINE
  5
25
  8
0
  6
BYBLOCK
 62
     9
 10
12444.638184
 20
830.000007
 30
0.0
 11
12444.638184
 21
785.750004
 31
0.0
  0
TEXT
  5
26
  8
0
  6
BYBLOCK
 62
    11
 10
12462.138184
 20
691.250004
 30
0.0
 40
35.0
  1
250
 50
90.0
  0
SOLID
  5
27
  8
0
  6
BYBLOCK
 62
     9
 10
12441.30485
 20
620.0
 30
0.0
 11
12447.971517
 21
620.0
 31
0.0
 12
12444.638184
 22
600.0
 32
0.0
 13
12444.638184
 23
600.0
 33
0.0
  0
SOLID
  5
28
  8
0
  6
BYBLOCK
 62
     9
 10
12441.30485
 20
830.000007
 30
0.0
 11
12447.971517
 21
830.000007
 31
0.0
 12
12444.638184
 22
850.000007
 32
0.0
 13
12444.638184
 23
850.000007
 33
0.0
  0
POINT
  5
29
  8
DEFPOINTS
  6
BYBLOCK
 62
     0
 10
12070.0
 20
600.0
 30
0.0
  0
POINT
  5
2B
  8
DEFPOINTS
  6
BYBLOCK
 62
     0
 10
12332.36329
 20
850.000007
 30
0.0
  0
POINT
  5
2C
  8
DEFPOINTS
  6
BYBLOCK
 62
     0
 10
12444.638184
 20
850.000007
 30
0.0
  0
ENDBLK
  5
2E
  8
0
  0
ENDSEC
  0
SECTION
  2
ENTITIES
  0
DIMENSION
  5
20
  8
TEAM-MAS
  2
*D8
 10
444.638184
 20
850.000007
 30
0.0
 11
444.638184
 21
735.000004
 31
0.0
 12
-12000.0
 22
0.0
 32
0.0
 70
   128
 13
70.0
 23
600.0
 33
0.0
 14
332.36329
 24
850.000007
 34
0.0
 50
90.0
1001
ACAD
1000
DSTYLE
1002
{
1070
    40
1040
1.0
1002
}
  0
DIMENSION
  5
2F
  8
TEAM-MAS
  2
*D6
 10
487.72404
 20
530.0
 30
0.0
 11
487.72404
 21
695.000004
 31
0.0
 12
-12000.0
 22
0.0
 32
0.0
 70
   128
 13
0.0
 23
850.000007
 33
0.0
 14
30.0
 24
530.0
 34
0.0
 50
90.0
  0
DIMENSION
  5
3D
  8
TEAM-MAS
  2
*D5
 10
487.72404
 20
0.0
 30
0.0
 11
487.72404
 21
265.0
 31
0.0
 12
-12000.0
 22
0.0
 32
0.0
 13
30.0
 23
530.0
 33
0.0
 14
0.0
 24
0.0
 34
0.0
 50
90.0
  0
DIMENSION
  5
4B
  8
TEAM-MAS
  2
*D4
 10
400.694933
 20
660.0
 30
0.0
 11
400.694933
 21
745.000004
 31
0.0
 12
-12000.0
 22
0.0
 32
0.0
 70
   128
 13
0.0
 23
850.000007
 33
0.0
 14
35.0
 24
660.0
 34
0.0
 50
90.0
  0
DIMENSION
  5
59
  8
TEAM-MAS
  2
*D3
 10
444.638184
 20
0.0
 30
0.0
 11
444.638184
 21
300.0
 31
0.0
 12
-12000.0
 22
0.0
 32
0.0
 13
60.0
 23
600.0
 33
0.0
 14
0.0
 24
0.0
 34
0.0
 50
90.0
  0
DIMENSION
  5
67
  8
TEAM-MAS
  2
*D0
 10
537.502366
 20
0.0
 30
0.0
 11
537.502366
 21
425.000004
 31
0.0
 12
-12000.0
 22
0.0
 32
0.0
 13
0.0
 23
850.000007
 33
0.0
 14
0.0
 24
0.0
 34
0.0
 50
90.0
  0
CIRCLE
  5
75
  8
TEAM-INSP
 10
0.0
 20
0.0
 30
0.0
 40
10.0
  0
DIMENSION
  5
77
  8
TEAM-MAS
  2
*D7
 10
40.0
 20
416.288366
 30
0.0
 11
0.0
 21
416.288366
 31
0.0
 12
-12000.0
 22
0.0
 32
0.0
 70
   128
 13
-40.0
 23
580.0
 33
0.0
 14
40.0
 24
580.0
 34
0.0
  0
DIMENSION
  5
85
  8
TEAM-MAS
  2
*D2
 10
140.0
 20
881.679801
 30
0.0
 11
0.0
 21
881.679801
 31
0.0
 12
-12000.0
 22
0.0
 32
0.0
 13
-140.0
 23
819.0
 33
0.0
 14
140.0
 24
819.0
 34
0.0
  0
DIMENSION
  5
93
  8
TEAM-MAS
  2
*D1
 10
357.199063
 20
850.000007
 30
0.0
 11
357.435963
 21
732.526669
 31
0.0
 12
-12000.0
 22
0.0
 32
0.0
 70
   128
 13
170.0
 23
800.0
 33
0.0
 14
0.0
 24
850.000007
 34
0.0
 50
90.0
  0
ARC
  5
A2
  8
TEAM-HAUBE
 10
802.710376
 20
677.686477
 30
0.0
 40
884.243968
 50
179.894269
 51
198.316891
  0
ARC
  5
A5
  8
TEAM-HAUBE
 10
-802.710376
 20
677.686477
 30
0.0
 40
884.243968
 50
341.683109
 51
0.105731
  0
ARC
  5
A6
  8
TEAM-HAUBE
 10
0.0
 20
415.629653
 30
0.0
 40
40.0
 50
270.0
 51
336.676947
  0
ARC
  5
A7
  8
TEAM-HAUBE
 10
0.0
 20
415.629653
 30
0.0
 40
40.0
 50
203.323053
 51
270.0
  0
ARC
  5
A8
  8
TEAM-BODY
 10
295.553817
 20
823.845091
 30
0.0
 40
14.52362
 50
329.971644
 51
68.580214
  0
LINE
  5
AA
  8
TEAM-AXE
 10
170.0
 20
800.0
 30
0.0
 11
110.0
 21
800.0
 31
0.0
  0
ARC
  5
AD
  8
TEAM-HIDE
 10
151.0
 20
800.0
 30
0.0
 40
9.0
 50
270.0
 51
90.0
  0
ARC
  5
B0
  8
TEAM-HIDE
 10
129.0
 20
800.0
 30
0.0
 40
9.0
 50
90.0
 51
270.0
  0
LINE
  5
B1
  8
TEAM-HIDE
 10
129.0
 20
809.0
 30
0.0
 11
151.0
 21
809.0
 31
0.0
  0
LINE
  5
B2
  8
TEAM-HIDE
 10
151.0
 20
791.0
 30
0.0
 11
129.0
 21
791.0
 31
0.0
  0
LINE
  5
B3
  8
TEAM-AXE
 10
140.0
 20
819.0
 30
0.0
 11
140.0
 21
781.0
 31
0.0
  0
CIRCLE
  5
B4
  8
TEAM-KAN
 10
0.0
 20
530.0
 30
0.0
 40
20.0
  0
LINE
  5
B6
  8
TEAM-AXE
 10
-30.0
 20
530.0
 30
0.0
 11
30.0
 21
530.0
 31
0.0
  0
LINE
  5
B7
  8
TEAM-AXE
 10
0.0
 20
859.9999
 30
0.0
 11
0.0
 21
449.218706
 31
0.0
210
0.0
220
-0.0
230
-1.0
  0
LINE
  5
B8
  8
TEAM-HIDE
 10
-35.0
 20
670.857172
 30
0.0
 11
35.0
 21
670.857172
 31
0.0
  0
LINE
  5
B9
  8
TEAM-HIDE
 10
35.0
 20
660.0
 30
0.0
 11
-35.0
 21
660.0
 31
0.0
  0
LINE
  5
BA
  8
TEAM-HIDE
 10
-35.0
 20
660.0
 30
0.0
 11
-35.0
 21
670.857172
 31
0.0
  0
LINE
  5
BB
  8
TEAM-HIDE
 10
35.0
 20
670.857172
 30
0.0
 11
35.0
 21
660.0
 31
0.0
  0
ARC
  5
BC
  8
TEAM-BODY
 10
-10.118496
 20
1048.093239
 30
0.0
 40
377.371745
 50
217.842742
 51
271.53646
  0
LINE
  5
BD
  8
TEAM-AXE
 10
17.5
 20
600.0
 30
0.0
 11
60.0
 21
600.0
 31
0.0
  0
CIRCLE
  5
BE
  8
TEAM-COLD
 10
40.0
 20
600.0
 30
0.0
 40
10.0
  0
LINE
  5
C0
  8
TEAM-AXE
 10
-40.0
 20
620.0
 30
0.0
 11
-40.0
 21
580.0
 31
0.0
210
0.0
220
-0.0
230
-1.0
  0
CIRCLE
  5
C1
  8
TEAM-WARM
 10
-40.0
 20
600.0
 30
0.0
 40
10.0
  0
LINE
  5
C3
  8
TEAM-AXE
 10
-60.0
 20
600.0
 30
0.0
 11
-20.0
 21
600.0
 31
0.0
  0
LINE
  5
C4
  8
TEAM-AXE
 10
40.0
 20
620.0
 30
0.0
 11
40.0
 21
580.0
 31
0.0
210
0.0
220
-0.0
230
-1.0
  0
ARC
  5
C5
  8
TEAM-BODY
 10
4.618313
 20
-2848.37995
 30
0.0
 40
3698.38284
 50
90.071547
 51
94.73787
  0
ARC
  5
C6
  8
TEAM-BODY
 10
-295.553817
 20
823.845091
 30
0.0
 40
14.52362
 50
111.419786
 51
210.028356
  0
LINE
  5
C7
  8
TEAM-DET1
 10
-304.409465
 20
836.377755
 30
0.0
 11
0.0
 21
841.377755
 31
0.0
  0
LINE
  5
C9
  8
TEAM-AXE
 10
-170.0
 20
800.0
 30
0.0
 11
-110.0
 21
800.0
 31
0.0
  0
LINE
  5
CA
  8
TEAM-HIDE
 10
-129.0
 20
809.0
 30
0.0
 11
-151.0
 21
809.0
 31
0.0
  0
LINE
  5
CB
  8
TEAM-HIDE
 10
-151.0
 20
791.0
 30
0.0
 11
-129.0
 21
791.0
 31
0.0
  0
ARC
  5
CC
  8
TEAM-HIDE
 10
-151.0
 20
800.0
 30
0.0
 40
9.0
 50
90.0
 51
270.0
  0
LINE
  5
CD
  8
TEAM-AXE
 10
-140.0
 20
819.0
 30
0.0
 11
-140.0
 21
781.0
 31
0.0
  0
ARC
  5
CE
  8
TEAM-HIDE
 10
-129.0
 20
800.0
 30
0.0
 40
9.0
 50
270.0
 51
90.0
  0
TEXT
  5
CF
  8
TEAM-TXT
 10
-212.095366
 20
739.168055
 30
0.0
 40
30.0
  1
team 211023
 41
0.8
 51
15.0
  7
TEAM
  0
ARC
  5
D2
  8
TEAM-BODY
 10
10.118496
 20
1048.093239
 30
0.0
 40
377.371745
 50
268.46354
 51
322.157258
  0
ARC
  5
D3
  8
TEAM-BODY
 10
-4.618313
 20
-2848.37995
 30
0.0
 40
3698.38284
 50
85.26213
 51
89.928453
  0
LINE
  5
D4
  8
TEAM-DET1
 10
304.409465
 20
836.377755
 30
0.0
 11
0.0
 21
841.377755
 31
0.0
  0
ENDSEC
  0
EOF
