  0
SECTION
  2
HEADER
  9
$ACADVER
  1
AC1009
  9
$INSBASE
 10
0.0
 20
0.0
 30
0.0
  9
$EXTMIN
 10
-316.043064
 20
-10.047073
 30
0.0
  9
$EXTMAX
 10
518.866119
 20
892.230486
 30
0.000005
  9
$LIMMIN
 10
-316.043064
 20
-10.047073
  9
$LIMMAX
 10
518.866119
 20
892.230486
  9
$ORTHOMODE
 70
     1
  9
$REGENMODE
 70
     1
  9
$FILLMODE
 70
     1
  9
$QTEXTMODE
 70
     0
  9
$MIRRTEXT
 70
     0
  9
$DRAGMODE
 70
     2
  9
$LTSCALE
 40
50.0
  9
$OSMODE
 70
     0
  9
$ATTMODE
 70
     1
  9
$TEXTSIZE
 40
200.0
  9
$TRACEWID
 40
1.0
  9
$TEXTSTYLE
  7
STANDARD
  9
$CLAYER
  8
TEAM-MAS
  9
$CELTYPE
  6
BYLAYER
  9
$CECOLOR
 62
   256
  9
$DIMSCALE
 40
0.0
  9
$DIMASZ
 40
20.0
  9
$DIMEXO
 40
10.0
  9
$DIMDLI
 40
1.0
  9
$DIMRND
 40
0.0
  9
$DIMDLE
 40
0.0
  9
$DIMEXE
 40
1.0
  9
$DIMTP
 40
0.0
  9
$DIMTM
 40
0.0
  9
$DIMTXT
 40
35.0
  9
$DIMCEN
 40
1.0
  9
$DIMTSZ
 40
0.0
  9
$DIMTOL
 70
     0
  9
$DIMLIM
 70
     0
  9
$DIMTIH
 70
     0
  9
$DIMTOH
 70
     0
  9
$DIMSE1
 70
     0
  9
$DIMSE2
 70
     0
  9
$DIMTAD
 70
     0
  9
$DIMZIN
 70
     0
  9
$DIMBLK
  1

  9
$DIMASO
 70
     1
  9
$DIMSHO
 70
     0
  9
$DIMPOST
  1

  9
$DIMAPOST
  1

  9
$DIMALT
 70
     0
  9
$DIMALTD
 70
     2
  9
$DIMALTF
 40
25.4
  9
$DIMLFAC
 40
1.0
  9
$DIMTOFL
 70
     0
  9
$DIMTVP
 40
0.0
  9
$DIMTIX
 70
     0
  9
$DIMSOXD
 70
     0
  9
$DIMSAH
 70
     0
  9
$DIMBLK1
  1

  9
$DIMBLK2
  1

  9
$DIMSTYLE
  2
TEAM
  9
$DIMCLRD
 70
     9
  9
$DIMCLRE
 70
     9
  9
$DIMCLRT
 70
    11
  9
$DIMTFAC
 40
1.0
  9
$DIMGAP
 40
7.0
  9
$LUNITS
 70
     2
  9
$LUPREC
 70
     1
  9
$SKETCHINC
 40
1.0
  9
$FILLETRAD
 40
50.0
  9
$AUNITS
 70
     0
  9
$AUPREC
 70
     0
  9
$MENU
  1
ROPLANS
  9
$ELEVATION
 40
0.0
  9
$PELEVATION
 40
0.0
  9
$THICKNESS
 40
0.0
  9
$LIMCHECK
 70
     0
  9
$BLIPMODE
 70
     1
  9
$CHAMFERA
 40
0.0
  9
$CHAMFERB
 40
0.0
  9
$SKPOLY
 70
     0
  9
$TDCREATE
 40
2450392.957851
  9
$TDUPDATE
 40
2456280.422984
  9
$TDINDWG
 40
2.166821
  9
$TDUSRTIMER
 40
2.166821
  9
$USRTIMER
 70
     1
  9
$ANGBASE
 50
0.0
  9
$ANGDIR
 70
     0
  9
$PDMODE
 70
     0
  9
$PDSIZE
 40
0.0
  9
$PLINEWID
 40
0.0
  9
$COORDS
 70
     2
  9
$SPLFRAME
 70
     0
  9
$SPLINETYPE
 70
     6
  9
$SPLINESEGS
 70
     8
  9
$ATTDIA
 70
     0
  9
$ATTREQ
 70
     0
  9
$HANDLING
 70
     1
  9
$HANDSEED
  5
147
  9
$SURFTAB1
 70
    24
  9
$SURFTAB2
 70
    24
  9
$SURFTYPE
 70
     6
  9
$SURFU
 70
     6
  9
$SURFV
 70
     6
  9
$UCSNAME
  2

  9
$UCSORG
 10
0.0
 20
0.0
 30
0.0
  9
$UCSXDIR
 10
1.0
 20
0.0
 30
0.0
  9
$UCSYDIR
 10
0.0
 20
1.0
 30
0.0
  9
$PUCSNAME
  2

  9
$PUCSORG
 10
0.0
 20
0.0
 30
0.0
  9
$PUCSXDIR
 10
1.0
 20
0.0
 30
0.0
  9
$PUCSYDIR
 10
0.0
 20
1.0
 30
0.0
  9
$USERI1
 70
     0
  9
$USERI2
 70
     0
  9
$USERI3
 70
     0
  9
$USERI4
 70
     0
  9
$USERI5
 70
     0
  9
$USERR1
 40
0.0
  9
$USERR2
 40
0.0
  9
$USERR3
 40
0.0
  9
$USERR4
 40
0.0
  9
$USERR5
 40
0.0
  9
$WORLDVIEW
 70
     1
  9
$SHADEDGE
 70
     0
  9
$SHADEDIF
 70
    70
  9
$TILEMODE
 70
     1
  9
$MAXACTVP
 70
    16
  9
$PLIMCHECK
 70
     0
  9
$PEXTMIN
 10
-0.805942
 20
0.005011
 30
0.0
  9
$PEXTMAX
 10
20.250094
 20
11.356329
 30
0.0
  9
$PLIMMIN
 10
0.0
 20
0.0
  9
$PLIMMAX
 10
12.0
 20
9.0
  9
$UNITMODE
 70
     0
  9
$VISRETAIN
 70
     0
  9
$PLINEGEN
 70
     0
  9
$PSLTSCALE
 70
     0
  0
ENDSEC
  0
SECTION
  2
TABLES
  0
TABLE
  2
VPORT
 70
     2
  0
VPORT
  2
*ACTIVE
 70
     0
 10
0.0
 20
0.0
 11
1.0
 21
1.0
 12
101.411527
 22
441.091707
 13
0.0
 23
0.0
 14
1.0
 24
1.0
 15
50.0
 25
50.0
 16
0.0
 26
0.0
 36
1.0
 17
0.0
 27
0.0
 37
0.0
 40
907.958215
 41
1.911765
 42
50.0
 43
0.0
 44
0.0
 50
0.0
 51
0.0
 71
     0
 72
   100
 73
     1
 74
     1
 75
     0
 76
     0
 77
     0
 78
     0
  0
ENDTAB
  0
TABLE
  2
LTYPE
 70
     4
  0
LTYPE
  2
CONTINUOUS
 70
     0
  3
Solid Line
 72
    65
 73
     0
 40
0.0
  0
LTYPE
  2
31
 70
     0
  3

 72
    65
 73
     4
 40
2.1
 49
1.5
 49
-0.3
 49
0.0
 49
-0.3
  0
LTYPE
  2
22
 70
     0
  3

 72
    65
 73
     2
 40
1.4
 49
1.2
 49
-0.2
  0
LTYPE
  2
STRICHLINIE
 70
     0
  3
Strichlinie __ __ __ __ __ __ __ __ __ __ __ __
 72
    65
 73
     2
 40
0.75
 49
0.5
 49
-0.25
  0
ENDTAB
  0
TABLE
  2
LAYER
 70
    13
  0
LAYER
  2
0
 70
     0
 62
     7
  6
CONTINUOUS
  0
LAYER
  2
DEFPOINTS
 70
     0
 62
     7
  6
CONTINUOUS
  0
LAYER
  2
TEAM-BODY
 70
     0
 62
     2
  6
CONTINUOUS
  0
LAYER
  2
TEAM-AXE
 70
     0
 62
    10
  6
31
  0
LAYER
  2
TEAM-MAS
 70
     0
 62
     9
  6
CONTINUOUS
  0
LAYER
  2
TEAM-TXT
 70
     0
 62
    11
  6
CONTINUOUS
  0
LAYER
  2
TEAM-DET1
 70
     0
 62
     4
  6
CONTINUOUS
  0
LAYER
  2
TEAM-COLD
 70
     0
 62
     3
  6
CONTINUOUS
  0
LAYER
  2
TEAM-HIDE
 70
     0
 62
     8
  6
22
  0
LAYER
  2
TEAM-KAN
 70
     0
 62
     6
  6
CONTINUOUS
  0
LAYER
  2
TEAM-WARM
 70
     0
 62
     1
  6
CONTINUOUS
  0
LAYER
  2
TEAM-INSP
 70
     0
 62
     5
  6
CONTINUOUS
  0
LAYER
  2
TEAM-HAUBE
 70
     0
 62
     4
  6
STRICHLINIE
  0
ENDTAB
  0
TABLE
  2
STYLE
 70
     2
  0
STYLE
  2
STANDARD
 70
     0
 40
0.0
 41
1.0
 50
0.0
 71
     0
 42
200.0
  3
txt
  4

  0
STYLE
  2
TEAM
 70
     0
 40
0.0
 41
0.8
 50
15.0
 71
     0
 42
7.0
  3
ROMANS.shx
  4

  0
ENDTAB
  0
TABLE
  2
VIEW
 70
     0
  0
ENDTAB
  0
TABLE
  2
UCS
 70
     0
  0
ENDTAB
  0
TABLE
  2
APPID
 70
     1
  0
APPID
  2
ACAD
 70
     0
  0
ENDTAB
  0
TABLE
  2
DIMSTYLE
 70
     1
  0
DIMSTYLE
  2
TEAM
 70
     0
  3

  4

  5

  6

  7

 40
0.0
 41
20.0
 42
10.0
 43
1.0
 44
1.0
 45
0.0
 46
0.0
 47
0.0
 48
0.0
140
35.0
141
1.0
142
0.0
143
25.4
144
1.0
145
0.0
146
1.0
147
7.0
 71
     0
 72
     0
 73
     0
 74
     0
 75
     0
 76
     0
 77
     0
 78
     0
170
     0
171
     2
172
     0
173
     0
174
     0
175
     0
176
     9
177
     9
178
    11
  0
ENDTAB
  0
ENDSEC
  0
SECTION
  2
BLOCKS
  0
BLOCK
  8
0
  2
$MODEL_SPACE
 70
     0
 10
0.0
 20
0.0
 30
0.0
  3
$MODEL_SPACE
  1

  0
ENDBLK
  5
140
  8
0
  0
BLOCK
 67
     1
  8
0
  2
$PAPER_SPACE
 70
     0
 10
0.0
 20
0.0
 30
0.0
  3
$PAPER_SPACE
  1

  0
ENDBLK
  5
13E
 67
     1
  8
0
  0
BLOCK
  8
0
  2
*D0
 70
     1
 10
0.0
 20
0.0
 30
0.0
  3
*D0
  1

  0
LINE
  5
3F
  8
0
  6
BYBLOCK
 62
     9
 10
4010.0
 20
4850.000007
 30
0.0
 11
4502.349831
 21
4850.000007
 31
0.0
  0
LINE
  5
40
  8
0
  6
BYBLOCK
 62
     9
 10
4010.0
 20
4000.0
 30
0.0
 11
4502.349831
 21
4000.0
 31
0.0
  0
LINE
  5
41
  8
0
  6
BYBLOCK
 62
     9
 10
4501.349831
 20
4830.000007
 30
0.0
 11
4501.349831
 21
4475.750004
 31
0.0
  0
LINE
  5
42
  8
0
  6
BYBLOCK
 62
     9
 10
4501.349831
 20
4020.0
 30
0.0
 11
4501.349831
 21
4374.250004
 31
0.0
  0
SOLID
  5
43
  8
0
  6
BYBLOCK
 62
     9
 10
4498.016498
 20
4830.000007
 30
0.0
 11
4504.683164
 21
4830.000007
 31
0.0
 12
4501.349831
 22
4850.000007
 32
0.0
 13
4501.349831
 23
4850.000007
 33
0.0
  0
SOLID
  5
44
  8
0
  6
BYBLOCK
 62
     9
 10
4498.016498
 20
4020.0
 30
0.0
 11
4504.683164
 21
4020.0
 31
0.0
 12
4501.349831
 22
4000.0
 32
0.0
 13
4501.349831
 23
4000.0
 33
0.0
  0
TEXT
  5
45
  8
0
  6
BYBLOCK
 62
    11
 10
4518.849831
 20
4381.250004
 30
0.0
 40
35.0
  1
850
 50
90.0
  0
POINT
  5
46
  8
DEFPOINTS
  6
BYBLOCK
 62
     0
 10
4000.0
 20
4850.000007
 30
0.0
  0
POINT
  5
47
  8
DEFPOINTS
  6
BYBLOCK
 62
     0
 10
4000.0
 20
4000.0
 30
0.0
  0
POINT
  5
48
  8
DEFPOINTS
  6
BYBLOCK
 62
     0
 10
4501.349831
 20
4000.0
 30
0.0
  0
ENDBLK
  5
4A
  8
0
  0
BLOCK
  8
0
  2
*D1
 70
     1
 10
0.0
 20
0.0
 30
0.0
  3
*D1
  1

  0
LINE
  5
A1
  8
0
  6
BYBLOCK
 62
     9
 10
4080.0
 20
4600.0
 30
0.0
 11
4414.833404
 21
4600.0
 31
0.0
  0
LINE
  5
A2
  8
0
  6
BYBLOCK
 62
     9
 10
4332.244115
 20
4850.000007
 30
0.0
 11
4414.833404
 21
4850.000007
 31
0.0
  0
LINE
  5
A3
  8
0
  6
BYBLOCK
 62
     9
 10
4413.833404
 20
4620.0
 30
0.0
 11
4413.833404
 21
4674.250004
 31
0.0
  0
LINE
  5
A4
  8
0
  6
BYBLOCK
 62
     9
 10
4413.833404
 20
4830.000007
 30
0.0
 11
4413.833404
 21
4775.750004
 31
0.0
  0
SOLID
  5
A5
  8
0
  6
BYBLOCK
 62
     9
 10
4410.500071
 20
4620.0
 30
0.0
 11
4417.166737
 21
4620.0
 31
0.0
 12
4413.833404
 22
4600.0
 32
0.0
 13
4413.833404
 23
4600.0
 33
0.0
  0
SOLID
  5
A6
  8
0
  6
BYBLOCK
 62
     9
 10
4410.500071
 20
4830.000007
 30
0.0
 11
4417.166737
 21
4830.000007
 31
0.0
 12
4413.833404
 22
4850.000007
 32
0.0
 13
4413.833404
 23
4850.000007
 33
0.0
  0
TEXT
  5
A7
  8
0
  6
BYBLOCK
 62
    11
 10
4431.333404
 20
4681.250004
 30
0.0
 40
35.0
  1
250
 50
90.0
  0
POINT
  5
A8
  8
DEFPOINTS
  6
BYBLOCK
 62
     0
 10
4070.0
 20
4600.0
 30
0.0
  0
POINT
  5
A9
  8
DEFPOINTS
  6
BYBLOCK
 62
     0
 10
4322.244115
 20
4850.000007
 30
0.0
  0
POINT
  5
AA
  8
DEFPOINTS
  6
BYBLOCK
 62
     0
 10
4413.833404
 20
4850.000007
 30
0.0
  0
ENDBLK
  5
AC
  8
0
  0
BLOCK
  8
0
  2
*D2
 70
     1
 10
0.0
 20
0.0
 30
0.0
  3
*D2
  1

  0
LINE
  5
31
  8
0
  6
BYBLOCK
 62
     9
 10
4070.0
 20
4600.0
 30
0.0
 11
4414.833404
 21
4600.0
 31
0.0
  0
LINE
  5
32
  8
0
  6
BYBLOCK
 62
     9
 10
4010.0
 20
4000.0
 30
0.0
 11
4414.833404
 21
4000.0
 31
0.0
  0
LINE
  5
33
  8
0
  6
BYBLOCK
 62
     9
 10
4413.833404
 20
4580.0
 30
0.0
 11
4413.833404
 21
4352.833333
 31
0.0
  0
LINE
  5
34
  8
0
  6
BYBLOCK
 62
     9
 10
4413.833404
 20
4020.0
 30
0.0
 11
4413.833404
 21
4257.166667
 31
0.0
  0
TEXT
  5
35
  8
0
  6
BYBLOCK
 62
    11
 10
4431.333404
 20
4264.166667
 30
0.0
 40
35.0
  1
600
 50
90.0
  0
SOLID
  5
36
  8
0
  6
BYBLOCK
 62
     9
 10
4410.500071
 20
4580.0
 30
0.0
 11
4417.166737
 21
4580.0
 31
0.0
 12
4413.833404
 22
4600.0
 32
0.0
 13
4413.833404
 23
4600.0
 33
0.0
  0
SOLID
  5
37
  8
0
  6
BYBLOCK
 62
     9
 10
4410.500071
 20
4020.0
 30
0.0
 11
4417.166737
 21
4020.0
 31
0.0
 12
4413.833404
 22
4000.0
 32
0.0
 13
4413.833404
 23
4000.0
 33
0.0
  0
POINT
  5
38
  8
DEFPOINTS
  6
BYBLOCK
 62
     0
 10
4060.0
 20
4600.0
 30
0.0
  0
POINT
  5
39
  8
DEFPOINTS
  6
BYBLOCK
 62
     0
 10
4000.0
 20
4000.0
 30
0.0
  0
POINT
  5
3A
  8
DEFPOINTS
  6
BYBLOCK
 62
     0
 10
4413.833404
 20
4000.0
 30
0.0
  0
ENDBLK
  5
3C
  8
0
  0
BLOCK
  8
0
  2
*D3
 70
     1
 10
0.0
 20
0.0
 30
0.0
  3
*D3
  1

  0
LINE
  5
22
  8
0
  6
BYBLOCK
 62
     9
 10
4040.0
 20
4530.0
 30
0.0
 11
4457.145542
 21
4530.0
 31
0.0
  0
LINE
  5
23
  8
0
  6
BYBLOCK
 62
     9
 10
4010.0
 20
4000.0
 30
0.0
 11
4457.145542
 21
4000.0
 31
0.0
  0
LINE
  5
24
  8
0
  6
BYBLOCK
 62
     9
 10
4456.145542
 20
4510.0
 30
0.0
 11
4456.145542
 21
4315.75
 31
0.0
  0
LINE
  5
25
  8
0
  6
BYBLOCK
 62
     9
 10
4456.145542
 20
4020.0
 30
0.0
 11
4456.145542
 21
4214.25
 31
0.0
  0
SOLID
  5
26
  8
0
  6
BYBLOCK
 62
     9
 10
4452.812209
 20
4510.0
 30
0.0
 11
4459.478876
 21
4510.0
 31
0.0
 12
4456.145542
 22
4530.0
 32
0.0
 13
4456.145542
 23
4530.0
 33
0.0
  0
SOLID
  5
27
  8
0
  6
BYBLOCK
 62
     9
 10
4452.812209
 20
4020.0
 30
0.0
 11
4459.478876
 21
4020.0
 31
0.0
 12
4456.145542
 22
4000.0
 32
0.0
 13
4456.145542
 23
4000.0
 33
0.0
  0
TEXT
  5
28
  8
0
  6
BYBLOCK
 62
    11
 10
4473.645542
 20
4221.25
 30
0.0
 40
35.0
  1
530
 50
90.0
  0
POINT
  5
29
  8
DEFPOINTS
  6
BYBLOCK
 62
     0
 10
4030.0
 20
4530.0
 30
0.0
  0
POINT
  5
2B
  8
DEFPOINTS
  6
BYBLOCK
 62
     0
 10
4000.0
 20
4000.0
 30
0.0
  0
POINT
  5
2C
  8
DEFPOINTS
  6
BYBLOCK
 62
     0
 10
4456.145542
 20
4000.0
 30
0.0
  0
ENDBLK
  5
2E
  8
0
  0
BLOCK
  8
0
  2
*D4
 70
     1
 10
0.0
 20
0.0
 30
0.0
  3
*D4
  1

  0
LINE
  5
93
  8
0
  6
BYBLOCK
 62
     9
 10
4010.0
 20
4850.000007
 30
0.0
 11
4457.145542
 21
4850.000007
 31
0.0
  0
LINE
  5
94
  8
0
  6
BYBLOCK
 62
     9
 10
4040.0
 20
4530.0
 30
0.0
 11
4457.145542
 21
4530.0
 31
0.0
  0
LINE
  5
95
  8
0
  6
BYBLOCK
 62
     9
 10
4456.145542
 20
4830.000007
 30
0.0
 11
4456.145542
 21
4740.750004
 31
0.0
  0
LINE
  5
96
  8
0
  6
BYBLOCK
 62
     9
 10
4456.145542
 20
4550.0
 30
0.0
 11
4456.145542
 21
4639.250004
 31
0.0
  0
SOLID
  5
97
  8
0
  6
BYBLOCK
 62
     9
 10
4452.812209
 20
4830.000007
 30
0.0
 11
4459.478876
 21
4830.000007
 31
0.0
 12
4456.145542
 22
4850.000007
 32
0.0
 13
4456.145542
 23
4850.000007
 33
0.0
  0
SOLID
  5
98
  8
0
  6
BYBLOCK
 62
     9
 10
4452.812209
 20
4550.0
 30
0.0
 11
4459.478876
 21
4550.0
 31
0.0
 12
4456.145542
 22
4530.0
 32
0.0
 13
4456.145542
 23
4530.0
 33
0.0
  0
TEXT
  5
99
  8
0
  6
BYBLOCK
 62
    11
 10
4473.645542
 20
4646.250004
 30
0.0
 40
35.0
  1
320
 50
90.0
  0
POINT
  5
9A
  8
DEFPOINTS
  6
BYBLOCK
 62
     0
 10
4000.0
 20
4850.000007
 30
0.0
  0
POINT
  5
9B
  8
DEFPOINTS
  6
BYBLOCK
 62
     0
 10
4030.0
 20
4530.0
 30
0.0
  0
POINT
  5
9C
  8
DEFPOINTS
  6
BYBLOCK
 62
     0
 10
4456.145542
 20
4530.0
 30
0.0
  0
ENDBLK
  5
9E
  8
0
  0
BLOCK
  8
0
  2
*D5
 70
     1
 10
0.0
 20
0.0
 30
0.0
  3
*D5
  1

  0
LINE
  5
84
  8
0
  6
BYBLOCK
 62
     9
 10
4180.0
 20
4800.0
 30
0.0
 11
4329.697657
 21
4800.0
 31
0.0
  0
LINE
  5
85
  8
0
  6
BYBLOCK
 62
     9
 10
4010.0
 20
4850.000007
 30
0.0
 11
4329.697657
 21
4850.000007
 31
0.0
  0
LINE
  5
86
  8
0
  6
BYBLOCK
 62
     9
 10
4328.697657
 20
4780.0
 30
0.0
 11
4328.697657
 21
4760.0
 31
0.0
  0
LINE
  5
87
  8
0
  6
BYBLOCK
 62
     9
 10
4328.697657
 20
4870.000007
 30
0.0
 11
4328.697657
 21
4890.000007
 31
0.0
  0
TEXT
  5
88
  8
0
  6
BYBLOCK
 62
    11
 10
4346.979163
 20
4738.875125
 30
0.0
 40
35.0
  1
50
 50
90.0
  0
LINE
  5
89
  8
0
  6
BYBLOCK
 62
     9
 10
4328.697657
 20
4800.0
 30
0.0
 11
4328.697657
 21
4850.000007
 31
0.0
  0
SOLID
  5
8A
  8
0
  6
BYBLOCK
 62
     9
 10
4325.364324
 20
4780.0
 30
0.0
 11
4332.030991
 21
4780.0
 31
0.0
 12
4328.697657
 22
4800.0
 32
0.0
 13
4328.697657
 23
4800.0
 33
0.0
  0
SOLID
  5
8B
  8
0
  6
BYBLOCK
 62
     9
 10
4325.364324
 20
4870.000007
 30
0.0
 11
4332.030991
 21
4870.000007
 31
0.0
 12
4328.697657
 22
4850.000007
 32
0.0
 13
4328.697657
 23
4850.000007
 33
0.0
  0
POINT
  5
8C
  8
DEFPOINTS
  6
BYBLOCK
 62
     0
 10
4170.0
 20
4800.0
 30
0.0
  0
POINT
  5
8D
  8
DEFPOINTS
  6
BYBLOCK
 62
     0
 10
4000.0
 20
4850.000007
 30
0.0
  0
POINT
  5
8E
  8
DEFPOINTS
  6
BYBLOCK
 62
     0
 10
4328.697657
 20
4850.000007
 30
0.0
  0
ENDBLK
  5
90
  8
0
  0
BLOCK
  8
0
  2
*D6
 70
     1
 10
0.0
 20
0.0
 30
0.0
  3
*D6
  1

  0
LINE
  5
76
  8
0
  6
BYBLOCK
 62
     9
 10
4010.0
 20
4850.000007
 30
0.0
 11
4372.00137
 21
4850.000007
 31
0.0
  0
LINE
  5
77
  8
0
  6
BYBLOCK
 62
     9
 10
4045.0
 20
4660.0
 30
0.0
 11
4372.00137
 21
4660.0
 31
0.0
  0
LINE
  5
78
  8
0
  6
BYBLOCK
 62
     9
 10
4371.00137
 20
4830.000007
 30
0.0
 11
4371.00137
 21
4799.91667
 31
0.0
  0
LINE
  5
79
  8
0
  6
BYBLOCK
 62
     9
 10
4371.00137
 20
4680.0
 30
0.0
 11
4371.00137
 21
4710.083337
 31
0.0
  0
SOLID
  5
7A
  8
0
  6
BYBLOCK
 62
     9
 10
4367.668037
 20
4830.000007
 30
0.0
 11
4374.334704
 21
4830.000007
 31
0.0
 12
4371.00137
 22
4850.000007
 32
0.0
 13
4371.00137
 23
4850.000007
 33
0.0
  0
SOLID
  5
7B
  8
0
  6
BYBLOCK
 62
     9
 10
4367.668037
 20
4680.0
 30
0.0
 11
4374.334704
 21
4680.0
 31
0.0
 12
4371.00137
 22
4660.0
 32
0.0
 13
4371.00137
 23
4660.0
 33
0.0
  0
TEXT
  5
7C
  8
0
  6
BYBLOCK
 62
    11
 10
4388.50137
 20
4717.083337
 30
0.0
 40
35.0
  1
190
 50
90.0
  0
POINT
  5
7D
  8
DEFPOINTS
  6
BYBLOCK
 62
     0
 10
4000.0
 20
4850.000007
 30
0.0
  0
POINT
  5
7E
  8
DEFPOINTS
  6
BYBLOCK
 62
     0
 10
4035.0
 20
4660.0
 30
0.0
  0
POINT
  5
7F
  8
DEFPOINTS
  6
BYBLOCK
 62
     0
 10
4371.00137
 20
4660.0
 30
0.0
  0
ENDBLK
  5
81
  8
0
  0
BLOCK
  8
0
  2
*D7
 70
     1
 10
0.0
 20
0.0
 30
0.0
  3
*D7
  1

  0
LINE
  5
68
  8
0
  6
BYBLOCK
 62
     9
 10
3960.0
 20
4570.0
 30
0.0
 11
3960.0
 21
4405.288366
 31
0.0
  0
LINE
  5
69
  8
0
  6
BYBLOCK
 62
     9
 10
4040.0
 20
4570.0
 30
0.0
 11
4040.0
 21
4405.288366
 31
0.0
  0
LINE
  5
6A
  8
0
  6
BYBLOCK
 62
     9
 10
3980.0
 20
4406.288366
 30
0.0
 11
3987.0
 21
4406.288366
 31
0.0
  0
LINE
  5
6B
  8
0
  6
BYBLOCK
 62
     9
 10
4020.0
 20
4406.288366
 30
0.0
 11
4013.0
 21
4406.288366
 31
0.0
  0
TEXT
  5
6C
  8
0
  6
BYBLOCK
 62
    11
 10
3973.75
 20
4388.788366
 30
0.0
 40
35.0
  1
80
  0
SOLID
  5
6D
  8
0
  6
BYBLOCK
 62
     9
 10
3980.0
 20
4409.6217
 30
0.0
 11
3980.0
 21
4402.955033
 31
0.0
 12
3960.0
 22
4406.288366
 32
0.0
 13
3960.0
 23
4406.288366
 33
0.0
  0
SOLID
  5
6E
  8
0
  6
BYBLOCK
 62
     9
 10
4020.0
 20
4409.6217
 30
0.0
 11
4020.0
 21
4402.955033
 31
0.0
 12
4040.0
 22
4406.288366
 32
0.0
 13
4040.0
 23
4406.288366
 33
0.0
  0
POINT
  5
6F
  8
DEFPOINTS
  6
BYBLOCK
 62
     0
 10
3960.0
 20
4580.0
 30
0.0
  0
POINT
  5
70
  8
DEFPOINTS
  6
BYBLOCK
 62
     0
 10
4040.0
 20
4580.0
 30
0.0
  0
POINT
  5
71
  8
DEFPOINTS
  6
BYBLOCK
 62
     0
 10
4040.0
 20
4406.288366
 30
0.0
  0
ENDBLK
  5
73
  8
0
  0
BLOCK
  8
0
  2
*D8
 70
     1
 10
0.0
 20
0.0
 30
0.0
  3
*D8
  1

  0
LINE
  5
5A
  8
0
  6
BYBLOCK
 62
     9
 10
3860.0
 20
4829.0
 30
0.0
 11
3860.0
 21
4875.715614
 31
0.0
  0
LINE
  5
5B
  8
0
  6
BYBLOCK
 62
     9
 10
4140.0
 20
4829.0
 30
0.0
 11
4140.0
 21
4875.715614
 31
0.0
  0
LINE
  5
5C
  8
0
  6
BYBLOCK
 62
     9
 10
3880.0
 20
4874.715614
 30
0.0
 11
3949.25
 21
4874.715614
 31
0.0
  0
LINE
  5
5D
  8
0
  6
BYBLOCK
 62
     9
 10
4120.0
 20
4874.715614
 30
0.0
 11
4050.75
 21
4874.715614
 31
0.0
  0
SOLID
  5
5E
  8
0
  6
BYBLOCK
 62
     9
 10
3880.0
 20
4878.048948
 30
0.0
 11
3880.0
 21
4871.382281
 31
0.0
 12
3860.0
 22
4874.715614
 32
0.0
 13
3860.0
 23
4874.715614
 33
0.0
  0
SOLID
  5
5F
  8
0
  6
BYBLOCK
 62
     9
 10
4120.0
 20
4878.048948
 30
0.0
 11
4120.0
 21
4871.382281
 31
0.0
 12
4140.0
 22
4874.715614
 32
0.0
 13
4140.0
 23
4874.715614
 33
0.0
  0
TEXT
  5
60
  8
0
  6
BYBLOCK
 62
    11
 10
3956.25
 20
4857.215614
 30
0.0
 40
35.0
  1
280
  0
POINT
  5
61
  8
DEFPOINTS
  6
BYBLOCK
 62
     0
 10
3860.0
 20
4819.0
 30
0.0
  0
POINT
  5
62
  8
DEFPOINTS
  6
BYBLOCK
 62
     0
 10
4140.0
 20
4819.0
 30
0.0
  0
POINT
  5
63
  8
DEFPOINTS
  6
BYBLOCK
 62
     0
 10
4140.0
 20
4874.715614
 30
0.0
  0
ENDBLK
  5
65
  8
0
  0
ENDSEC
  0
SECTION
  2
ENTITIES
  0
DIMENSION
  5
20
  8
TEAM-MAS
  2
*D3
 10
456.145542
 20
0.0
 30
0.0
 11
456.145542
 21
265.0
 31
0.0
 12
-4000.0
 22
-4000.0
 32
0.0
 13
30.0
 23
530.0
 33
0.0
 14
0.0
 24
0.0
 34
0.0
 50
90.0
  0
DIMENSION
  5
2F
  8
TEAM-MAS
  2
*D2
 10
413.833404
 20
0.0
 30
0.0
 11
413.833404
 21
305.0
 31
0.0
 12
-4000.0
 22
-4000.0
 32
0.0
 70
   128
 13
60.0
 23
600.0
 33
0.0
 14
0.0
 24
0.0
 34
0.0
 50
90.0
  0
DIMENSION
  5
3D
  8
TEAM-MAS
  2
*D0
 10
501.349831
 20
0.0
 30
0.0
 11
501.349831
 21
425.000004
 31
0.0
 12
-4000.0
 22
-4000.0
 32
0.0
 13
0.0
 23
850.000007
 33
0.0
 14
0.0
 24
0.0
 34
0.0
 50
90.0
  0
ARC
  5
4B
  8
TEAM-HAUBE
 10
4391.675313
 20
143.054754
 30
0.0
 40
4464.200273
 50
174.718029
 51
181.836351
  0
ARC
  5
4E
  8
TEAM-HAUBE
 10
4391.675313
 20
143.054754
 30
0.0
 40
4464.200273
 50
174.718029
 51
181.836351
  0
ARC
  5
4F
  8
TEAM-HAUBE
 10
-4391.675313
 20
143.054754
 30
0.0
 40
4464.200273
 50
358.163649
 51
5.281971
  0
ARC
  5
50
  8
TEAM-HAUBE
 10
-4391.675313
 20
143.054754
 30
0.0
 40
4464.200273
 50
358.163649
 51
5.281971
  0
CIRCLE
  5
51
  8
TEAM-INSP
 10
0.0
 20
0.0
 30
0.0
 40
10.0
  0
LINE
  5
53
  8
TEAM-HAUBE
 10
0.0
 20
0.0
 30
0.0
 11
70.232286
 21
0.0
 31
0.0
  0
LINE
  5
54
  8
TEAM-BODY
 10
0.0
 20
0.0
 30
0.0
 11
70.232286
 21
0.0
 31
0.0
  0
LINE
  5
56
  8
TEAM-HAUBE
 10
0.0
 20
0.0
 30
0.0
 11
-70.232286
 21
0.0
 31
0.0
  0
LINE
  5
57
  8
TEAM-HAUBE
 10
0.0
 20
0.0
 30
0.0
 11
-70.232286
 21
0.0
 31
0.0
  0
DIMENSION
  5
58
  8
TEAM-MAS
  2
*D8
 10
140.0
 20
874.715614
 30
0.0
 11
0.0
 21
874.715614
 31
0.0
 12
-4000.0
 22
-4000.0
 32
0.0
 13
-140.0
 23
819.0
 33
0.0
 14
140.0
 24
819.0
 34
0.0
  0
DIMENSION
  5
66
  8
TEAM-MAS
  2
*D7
 10
40.0
 20
406.288366
 30
0.0
 11
0.0
 21
406.288366
 31
0.0
 12
-4000.0
 22
-4000.0
 32
0.0
 70
   128
 13
-40.0
 23
580.0
 33
0.0
 14
40.0
 24
580.0
 34
0.0
  0
DIMENSION
  5
74
  8
TEAM-MAS
  2
*D6
 10
371.00137
 20
660.0
 30
0.0
 11
371.00137
 21
755.000004
 31
0.0
 12
-4000.0
 22
-4000.0
 32
0.0
 13
0.0
 23
850.000007
 33
0.0
 14
35.0
 24
660.0
 34
0.0
 50
90.0
  0
DIMENSION
  5
82
  8
TEAM-MAS
  2
*D5
 10
328.697657
 20
850.000007
 30
0.0
 11
329.479163
 21
765.125125
 31
0.0
 12
-4000.0
 22
-4000.0
 32
0.0
 70
   128
 13
170.0
 23
800.0
 33
0.0
 14
0.0
 24
850.000007
 34
0.0
 50
90.0
  0
DIMENSION
  5
91
  8
TEAM-MAS
  2
*D4
 10
456.145542
 20
530.0
 30
0.0
 11
456.145542
 21
690.000004
 31
0.0
 12
-4000.0
 22
-4000.0
 32
0.0
 13
0.0
 23
850.000007
 33
0.0
 14
30.0
 24
530.0
 34
0.0
 50
90.0
  0
DIMENSION
  5
9F
  8
TEAM-MAS
  2
*D1
 10
413.833404
 20
850.000007
 30
0.0
 11
413.833404
 21
725.000004
 31
0.0
 12
-4000.0
 22
-4000.0
 32
0.0
 13
70.0
 23
600.0
 33
0.0
 14
322.244115
 24
850.000007
 34
0.0
 50
90.0
1001
ACAD
1000
DSTYLE
1002
{
1070
    40
1040
1.0
1002
}
  0
ARC
  5
AD
  8
TEAM-BODY
 10
285.553817
 20
823.845091
 30
0.0
 40
14.52362
 50
329.971644
 51
68.580214
  0
ARC
  5
AE
  8
TEAM-BODY
 10
285.553817
 20
823.845091
 30
0.0
 40
14.52362
 50
329.971644
 51
68.580214
  0
ARC
  5
AF
  8
TEAM-HAUBE
 10
-275.084774
 20
691.492203
 30
0.0
 40
356.824594
 50
339.597389
 51
358.044829
  0
ARC
  5
B0
  8
TEAM-HAUBE
 10
-275.084774
 20
691.492203
 30
0.0
 40
356.824594
 50
339.597389
 51
358.044829
  0
LINE
  5
B1
  8
TEAM-HIDE
 10
-35.0
 20
670.857172
 30
0.0
 11
35.0
 21
670.857172
 31
0.0
  0
LINE
  5
B4
  8
TEAM-HIDE
 10
-35.0
 20
670.857172
 30
0.0
 11
35.0
 21
670.857172
 31
0.0
  0
LINE
  5
B5
  8
TEAM-HIDE
 10
35.0
 20
660.0
 30
0.0
 11
-35.0
 21
660.0
 31
0.0
  0
LINE
  5
B6
  8
TEAM-HIDE
 10
35.0
 20
660.0
 30
0.0
 11
-35.0
 21
660.0
 31
0.0
  0
ARC
  5
B7
  8
TEAM-BODY
 10
-9.390664
 20
1029.474584
 30
0.0
 40
358.740342
 50
216.402824
 51
271.49999
  0
ARC
  5
B8
  8
TEAM-BODY
 10
-9.390664
 20
1029.474584
 30
0.0
 40
358.740342
 50
216.402824
 51
271.49999
  0
ARC
  5
B9
  8
TEAM-HIDE
 10
-129.0
 20
800.0
 30
0.0
 40
9.0
 50
270.0
 51
90.0
  0
LINE
  5
BA
  8
TEAM-AXE
 10
-140.0
 20
819.0
 30
0.0
 11
-140.0
 21
781.0
 31
0.0
  0
ARC
  5
BD
  8
TEAM-HIDE
 10
-151.0
 20
800.0
 30
0.0
 40
9.0
 50
90.0
 51
270.0
  0
LINE
  5
BE
  8
TEAM-HIDE
 10
-151.0
 20
791.0
 30
0.0
 11
-129.0
 21
791.0
 31
0.0
  0
LINE
  5
BF
  8
TEAM-HIDE
 10
-129.0
 20
809.0
 30
0.0
 11
-151.0
 21
809.0
 31
0.0
  0
LINE
  5
C0
  8
TEAM-AXE
 10
-170.0
 20
800.0
 30
0.0
 11
-110.0
 21
800.0
 31
0.0
  0
ARC
  5
C1
  8
TEAM-HIDE
 10
-129.0
 20
800.0
 30
0.0
 40
9.0
 50
270.0
 51
90.0
  0
LINE
  5
C2
  8
TEAM-AXE
 10
-140.0
 20
819.0
 30
0.0
 11
-140.0
 21
781.0
 31
0.0
  0
ARC
  5
C3
  8
TEAM-HIDE
 10
-151.0
 20
800.0
 30
0.0
 40
9.0
 50
90.0
 51
270.0
  0
LINE
  5
C4
  8
TEAM-HIDE
 10
-151.0
 20
791.0
 30
0.0
 11
-129.0
 21
791.0
 31
0.0
  0
LINE
  5
C5
  8
TEAM-HIDE
 10
-129.0
 20
809.0
 30
0.0
 11
-151.0
 21
809.0
 31
0.0
  0
LINE
  5
C6
  8
TEAM-AXE
 10
-170.0
 20
800.0
 30
0.0
 11
-110.0
 21
800.0
 31
0.0
  0
LINE
  5
C7
  8
TEAM-HIDE
 10
-35.0
 20
660.0
 30
0.0
 11
-35.0
 21
670.857172
 31
0.0
  0
LINE
  5
C8
  8
TEAM-HIDE
 10
-35.0
 20
660.0
 30
0.0
 11
-35.0
 21
670.857172
 31
0.0
  0
LINE
  5
C9
  8
TEAM-HIDE
 10
35.0
 20
670.857172
 30
0.0
 11
35.0
 21
660.0
 31
0.0
  0
LINE
  5
CA
  8
TEAM-HIDE
 10
35.0
 20
670.857172
 30
0.0
 11
35.0
 21
660.0
 31
0.0
  0
ARC
  5
CB
  8
TEAM-HAUBE
 10
275.084774
 20
691.492203
 30
0.0
 40
356.824594
 50
181.955171
 51
200.402611
  0
ARC
  5
CC
  8
TEAM-HAUBE
 10
275.084774
 20
691.492203
 30
0.0
 40
356.824594
 50
181.955171
 51
200.402611
  0
ARC
  5
CD
  8
TEAM-HAUBE
 10
72.8066
 20
553.327554
 30
0.0
 40
19.250254
 50
134.329555
 51
177.948009
  0
ARC
  5
CE
  8
TEAM-HAUBE
 10
72.8066
 20
553.327554
 30
0.0
 40
19.250254
 50
134.329555
 51
177.948009
  0
LINE
  5
CF
  8
TEAM-AXE
 10
0.0
 20
859.9999
 30
0.0
 11
0.0
 21
439.218706
 31
0.0
210
0.0
220
-0.0
230
-1.0
  0
LINE
  5
D0
  8
TEAM-AXE
 10
0.0
 20
859.9999
 30
0.0
 11
0.0
 21
439.218706
 31
0.0
210
0.0
220
-0.0
230
-1.0
  0
ARC
  5
D1
  8
TEAM-HAUBE
 10
-72.8066
 20
553.327554
 30
0.0
 40
19.250254
 50
2.051991
 51
45.670445
  0
ARC
  5
D2
  8
TEAM-HAUBE
 10
-72.8066
 20
553.327554
 30
0.0
 40
19.250254
 50
2.051991
 51
45.670445
  0
LINE
  5
D3
  8
TEAM-AXE
 10
-30.0
 20
530.0
 30
0.0
 11
30.0
 21
530.0
 31
0.0
  0
CIRCLE
  5
D4
  8
TEAM-KAN
 10
0.0
 20
530.0
 30
0.0
 40
20.0
  0
LINE
  5
D6
  8
TEAM-AXE
 10
-30.0
 20
530.0
 30
0.0
 11
30.0
 21
530.0
 31
0.0
  0
CIRCLE
  5
D7
  8
TEAM-KAN
 10
0.0
 20
530.0
 30
0.0
 40
20.0
  0
LINE
  5
D8
  8
TEAM-AXE
 10
-40.0
 20
620.0
 30
0.0
 11
-40.0
 21
580.0
 31
0.0
210
0.0
220
-0.0
230
-1.0
  0
CIRCLE
  5
D9
  8
TEAM-WARM
 10
-40.0
 20
600.0
 30
0.0
 40
10.0
  0
LINE
  5
DB
  8
TEAM-AXE
 10
-40.0
 20
620.0
 30
0.0
 11
-40.0
 21
580.0
 31
0.0
210
0.0
220
-0.0
230
-1.0
  0
CIRCLE
  5
DC
  8
TEAM-WARM
 10
-40.0
 20
600.0
 30
0.0
 40
10.0
  0
LINE
  5
DD
  8
TEAM-AXE
 10
-60.0
 20
600.0
 30
0.0
 11
-20.0
 21
600.0
 31
0.0
  0
LINE
  5
DE
  8
TEAM-AXE
 10
-60.0
 20
600.0
 30
0.0
 11
-20.0
 21
600.0
 31
0.0
  0
LINE
  5
DF
  8
TEAM-AXE
 10
40.0
 20
620.0
 30
0.0
 11
40.0
 21
580.0
 31
0.0
210
0.0
220
-0.0
230
-1.0
  0
LINE
  5
E0
  8
TEAM-AXE
 10
40.0
 20
620.0
 30
0.0
 11
40.0
 21
580.0
 31
0.0
210
0.0
220
-0.0
230
-1.0
  0
CIRCLE
  5
E1
  8
TEAM-COLD
 10
40.0
 20
600.0
 30
0.0
 40
10.0
  0
CIRCLE
  5
E3
  8
TEAM-COLD
 10
40.0
 20
600.0
 30
0.0
 40
10.0
  0
LINE
  5
E4
  8
TEAM-AXE
 10
20.0
 20
600.0
 30
0.0
 11
60.0
 21
600.0
 31
0.0
  0
LINE
  5
E5
  8
TEAM-AXE
 10
20.0
 20
600.0
 30
0.0
 11
60.0
 21
600.0
 31
0.0
  0
TEXT
  5
E6
  8
TEAM-TXT
 10
-212.095366
 20
739.168055
 30
0.0
 40
30.0
  1
team 211023
 41
0.8
 51
15.0
  7
TEAM
  0
ARC
  5
E9
  8
TEAM-BODY
 10
-285.553817
 20
823.845091
 30
0.0
 40
14.52362
 50
111.419786
 51
210.028356
  0
ARC
  5
EA
  8
TEAM-BODY
 10
-285.553817
 20
823.845091
 30
0.0
 40
14.52362
 50
111.419786
 51
210.028356
  0
LINE
  5
EB
  8
TEAM-DET1
 10
-294.409465
 20
836.377755
 30
0.0
 11
0.0
 21
836.377755
 31
0.0
  0
ARC
  5
ED
  8
TEAM-BODY
 10
4.469695
 20
-2607.135663
 30
0.0
 40
3457.138559
 50
90.074077
 51
94.900489
  0
LINE
  5
EE
  8
TEAM-DET1
 10
-294.409465
 20
836.377755
 30
0.0
 11
0.0
 21
836.377755
 31
0.0
  0
ARC
  5
EF
  8
TEAM-BODY
 10
4.469695
 20
-2607.135663
 30
0.0
 40
3457.138559
 50
90.074077
 51
94.900489
  0
LINE
  5
F0
  8
TEAM-AXE
 10
140.0
 20
819.0
 30
0.0
 11
140.0
 21
781.0
 31
0.0
  0
LINE
  5
F1
  8
TEAM-HIDE
 10
151.0
 20
791.0
 30
0.0
 11
129.0
 21
791.0
 31
0.0
  0
LINE
  5
F2
  8
TEAM-HIDE
 10
129.0
 20
809.0
 30
0.0
 11
151.0
 21
809.0
 31
0.0
  0
ARC
  5
F3
  8
TEAM-HIDE
 10
129.0
 20
800.0
 30
0.0
 40
9.0
 50
90.0
 51
270.0
  0
ARC
  5
F4
  8
TEAM-HIDE
 10
151.0
 20
800.0
 30
0.0
 40
9.0
 50
270.0
 51
90.0
  0
LINE
  5
F5
  8
TEAM-AXE
 10
170.0
 20
800.0
 30
0.0
 11
110.0
 21
800.0
 31
0.0
  0
LINE
  5
F6
  8
TEAM-AXE
 10
140.0
 20
819.0
 30
0.0
 11
140.0
 21
781.0
 31
0.0
  0
LINE
  5
F7
  8
TEAM-HIDE
 10
151.0
 20
791.0
 30
0.0
 11
129.0
 21
791.0
 31
0.0
  0
LINE
  5
F8
  8
TEAM-HIDE
 10
129.0
 20
809.0
 30
0.0
 11
151.0
 21
809.0
 31
0.0
  0
ARC
  5
F9
  8
TEAM-HIDE
 10
129.0
 20
800.0
 30
0.0
 40
9.0
 50
90.0
 51
270.0
  0
ARC
  5
FA
  8
TEAM-HIDE
 10
151.0
 20
800.0
 30
0.0
 40
9.0
 50
270.0
 51
90.0
  0
LINE
  5
FB
  8
TEAM-AXE
 10
170.0
 20
800.0
 30
0.0
 11
110.0
 21
800.0
 31
0.0
  0
ARC
  5
FC
  8
TEAM-BODY
 10
9.390664
 20
1029.474584
 30
0.0
 40
358.740342
 50
268.50001
 51
323.597176
  0
ARC
  5
FD
  8
TEAM-BODY
 10
9.390664
 20
1029.474584
 30
0.0
 40
358.740342
 50
268.50001
 51
323.597176
  0
ARC
  5
FE
  8
TEAM-BODY
 10
-4.469695
 20
-2607.135663
 30
0.0
 40
3457.138559
 50
85.099511
 51
89.925923
  0
LINE
  5
FF
  8
TEAM-DET1
 10
294.409465
 20
836.377755
 30
0.0
 11
0.0
 21
836.377755
 31
0.0
  0
ARC
  5
100
  8
TEAM-BODY
 10
-4.469695
 20
-2607.135663
 30
0.0
 40
3457.138559
 50
85.099511
 51
89.925923
  0
LINE
  5
101
  8
TEAM-DET1
 10
294.409465
 20
836.377755
 30
0.0
 11
0.0
 21
836.377755
 31
0.0
  0
ENDSEC
  0
EOF
