  0
SECTION
  2
HEADER
  9
$ACADVER
  1
AC1009
  9
$INSBASE
 10
0.0
 20
0.0
 30
0.0
  9
$EXTMIN
 10
-210.058727
 20
-505.558479
 30
0.0
  9
$EXTMAX
 10
396.20516
 20
10.031575
 30
0.0
  9
$LIMMIN
 10
-210.058727
 20
-505.558479
  9
$LIMMAX
 10
396.20516
 20
10.031575
  9
$ORTHOMODE
 70
     1
  9
$REGENMODE
 70
     1
  9
$FILLMODE
 70
     1
  9
$QTEXTMODE
 70
     0
  9
$MIRRTEXT
 70
     0
  9
$DRAGMODE
 70
     2
  9
$LTSCALE
 40
25.0
  9
$OSMODE
 70
     0
  9
$ATTMODE
 70
     1
  9
$TEXTSIZE
 40
200.0
  9
$TRACEWID
 40
1.0
  9
$TEXTSTYLE
  7
STANDARD
  9
$CLAYER
  8
TEAM-MAS
  9
$CELTYPE
  6
BYLAYER
  9
$CECOLOR
 62
   256
  9
$DIMSCALE
 40
0.0
  9
$DIMASZ
 40
20.0
  9
$DIMEXO
 40
10.0
  9
$DIMDLI
 40
1.0
  9
$DIMRND
 40
0.0
  9
$DIMDLE
 40
0.0
  9
$DIMEXE
 40
1.0
  9
$DIMTP
 40
0.0
  9
$DIMTM
 40
0.0
  9
$DIMTXT
 40
35.0
  9
$DIMCEN
 40
1.0
  9
$DIMTSZ
 40
0.0
  9
$DIMTOL
 70
     0
  9
$DIMLIM
 70
     0
  9
$DIMTIH
 70
     0
  9
$DIMTOH
 70
     0
  9
$DIMSE1
 70
     0
  9
$DIMSE2
 70
     0
  9
$DIMTAD
 70
     0
  9
$DIMZIN
 70
     0
  9
$DIMBLK
  1

  9
$DIMASO
 70
     1
  9
$DIMSHO
 70
     0
  9
$DIMPOST
  1

  9
$DIMAPOST
  1

  9
$DIMALT
 70
     0
  9
$DIMALTD
 70
     2
  9
$DIMALTF
 40
25.4
  9
$DIMLFAC
 40
1.0
  9
$DIMTOFL
 70
     0
  9
$DIMTVP
 40
0.0
  9
$DIMTIX
 70
     0
  9
$DIMSOXD
 70
     0
  9
$DIMSAH
 70
     0
  9
$DIMBLK1
  1

  9
$DIMBLK2
  1

  9
$DIMSTYLE
  2
TEAM
  9
$DIMCLRD
 70
     9
  9
$DIMCLRE
 70
     9
  9
$DIMCLRT
 70
    11
  9
$DIMTFAC
 40
1.0
  9
$DIMGAP
 40
15.0
  9
$LUNITS
 70
     2
  9
$LUPREC
 70
     1
  9
$SKETCHINC
 40
1.0
  9
$FILLETRAD
 40
50.0
  9
$AUNITS
 70
     0
  9
$AUPREC
 70
     0
  9
$MENU
  1
ROPLANS
  9
$ELEVATION
 40
0.0
  9
$PELEVATION
 40
0.0
  9
$THICKNESS
 40
0.0
  9
$LIMCHECK
 70
     0
  9
$BLIPMODE
 70
     1
  9
$CHAMFERA
 40
0.0
  9
$CHAMFERB
 40
0.0
  9
$SKPOLY
 70
     0
  9
$TDCREATE
 40
2450392.957851
  9
$TDUPDATE
 40
2455523.639254
  9
$TDINDWG
 40
2.095041
  9
$TDUSRTIMER
 40
2.095041
  9
$USRTIMER
 70
     1
  9
$ANGBASE
 50
0.0
  9
$ANGDIR
 70
     0
  9
$PDMODE
 70
     0
  9
$PDSIZE
 40
0.0
  9
$PLINEWID
 40
0.0
  9
$COORDS
 70
     2
  9
$SPLFRAME
 70
     0
  9
$SPLINETYPE
 70
     6
  9
$SPLINESEGS
 70
     8
  9
$ATTDIA
 70
     0
  9
$ATTREQ
 70
     0
  9
$HANDLING
 70
     1
  9
$HANDSEED
  5
768
  9
$SURFTAB1
 70
    24
  9
$SURFTAB2
 70
    24
  9
$SURFTYPE
 70
     6
  9
$SURFU
 70
     6
  9
$SURFV
 70
     6
  9
$UCSNAME
  2

  9
$UCSORG
 10
0.0
 20
0.0
 30
0.0
  9
$UCSXDIR
 10
1.0
 20
0.0
 30
0.0
  9
$UCSYDIR
 10
0.0
 20
1.0
 30
0.0
  9
$PUCSNAME
  2

  9
$PUCSORG
 10
0.0
 20
0.0
 30
0.0
  9
$PUCSXDIR
 10
1.0
 20
0.0
 30
0.0
  9
$PUCSYDIR
 10
0.0
 20
1.0
 30
0.0
  9
$USERI1
 70
     0
  9
$USERI2
 70
     0
  9
$USERI3
 70
     0
  9
$USERI4
 70
     0
  9
$USERI5
 70
     0
  9
$USERR1
 40
0.0
  9
$USERR2
 40
0.0
  9
$USERR3
 40
0.0
  9
$USERR4
 40
0.0
  9
$USERR5
 40
0.0
  9
$WORLDVIEW
 70
     1
  9
$SHADEDGE
 70
     0
  9
$SHADEDIF
 70
    70
  9
$TILEMODE
 70
     1
  9
$MAXACTVP
 70
    16
  9
$PLIMCHECK
 70
     0
  9
$PEXTMIN
 10
-0.805942
 20
0.005011
 30
0.0
  9
$PEXTMAX
 10
20.392854
 20
13.725274
 30
0.0
  9
$PLIMMIN
 10
0.0
 20
0.0
  9
$PLIMMAX
 10
12.0
 20
9.0
  9
$UNITMODE
 70
     0
  9
$VISRETAIN
 70
     0
  9
$PLINEGEN
 70
     0
  9
$PSLTSCALE
 70
     0
  0
ENDSEC
  0
SECTION
  2
TABLES
  0
TABLE
  2
VPORT
 70
     2
  0
VPORT
  2
*ACTIVE
 70
     0
 10
0.0
 20
0.0
 11
1.0
 21
1.0
 12
93.073217
 22
-247.763452
 13
0.0
 23
0.0
 14
1.0
 24
1.0
 15
50.0
 25
50.0
 16
0.0
 26
0.0
 36
1.0
 17
0.0
 27
0.0
 37
0.0
 40
518.756421
 41
1.865779
 42
50.0
 43
0.0
 44
0.0
 50
0.0
 51
0.0
 71
     0
 72
   100
 73
     1
 74
     1
 75
     0
 76
     0
 77
     0
 78
     0
  0
ENDTAB
  0
TABLE
  2
LTYPE
 70
     3
  0
LTYPE
  2
CONTINUOUS
 70
     0
  3
Solid Line
 72
    65
 73
     0
 40
0.0
  0
LTYPE
  2
31
 70
     0
  3

 72
    65
 73
     4
 40
2.1
 49
1.5
 49
-0.3
 49
0.0
 49
-0.3
  0
LTYPE
  2
DURCHGEHEND
 70
     0
  3

 72
    65
 73
     0
 40
0.0
  0
ENDTAB
  0
TABLE
  2
LAYER
 70
     8
  0
LAYER
  2
0
 70
     0
 62
     7
  6
CONTINUOUS
  0
LAYER
  2
DEFPOINTS
 70
     0
 62
     7
  6
CONTINUOUS
  0
LAYER
  2
TEAM-AXE
 70
     0
 62
    10
  6
31
  0
LAYER
  2
TEAM-MAS
 70
     0
 62
     9
  6
CONTINUOUS
  0
LAYER
  2
TEAM-TXT
 70
     0
 62
    11
  6
CONTINUOUS
  0
LAYER
  2
TEAM-DET1
 70
     0
 62
     4
  6
CONTINUOUS
  0
LAYER
  2
TEAM-INSP
 70
     0
 62
     5
  6
CONTINUOUS
  0
LAYER
  2
STANDARDEBENE
 70
     0
 62
     7
  6
DURCHGEHEND
  0
ENDTAB
  0
TABLE
  2
STYLE
 70
     2
  0
STYLE
  2
STANDARD
 70
     0
 40
0.0
 41
1.0
 50
0.0
 71
     0
 42
200.0
  3
txt
  4

  0
STYLE
  2
TEAM
 70
     0
 40
0.0
 41
0.8
 50
15.0
 71
     0
 42
7.0
  3
ROMANS.shx
  4

  0
ENDTAB
  0
TABLE
  2
VIEW
 70
     0
  0
ENDTAB
  0
TABLE
  2
UCS
 70
     0
  0
ENDTAB
  0
TABLE
  2
APPID
 70
     1
  0
APPID
  2
ACAD
 70
     0
  0
ENDTAB
  0
TABLE
  2
DIMSTYLE
 70
     1
  0
DIMSTYLE
  2
TEAM
 70
     0
  3

  4

  5

  6

  7

 40
0.0
 41
20.0
 42
10.0
 43
1.0
 44
1.0
 45
0.0
 46
0.0
 47
0.0
 48
0.0
140
35.0
141
1.0
142
0.0
143
25.4
144
1.0
145
0.0
146
1.0
147
15.0
 71
     0
 72
     0
 73
     0
 74
     0
 75
     0
 76
     0
 77
     0
 78
     0
170
     0
171
     2
172
     0
173
     0
174
     0
175
     0
176
     9
177
     9
178
    11
  0
ENDTAB
  0
ENDSEC
  0
SECTION
  2
BLOCKS
  0
BLOCK
  8
0
  2
$MODEL_SPACE
 70
     0
 10
0.0
 20
0.0
 30
0.0
  3
$MODEL_SPACE
  1

  0
ENDBLK
  5
60E
  8
0
  0
BLOCK
 67
     1
  8
0
  2
$PAPER_SPACE
 70
     0
 10
0.0
 20
0.0
 30
0.0
  3
$PAPER_SPACE
  1

  0
ENDBLK
  5
60C
 67
     1
  8
0
  0
BLOCK
  8
0
  2
*D0
 70
     1
 10
0.0
 20
0.0
 30
0.0
  3
*D0
  1

  0
LINE
  5
4B
  8
0
  6
BYBLOCK
 62
     9
 10
60.216995
 20
27789.99761
 30
0.0
 11
303.588633
 21
27789.99761
 31
0.0
  0
LINE
  5
4C
  8
0
  6
BYBLOCK
 62
     9
 10
10.0
 20
28000.0
 30
0.0
 11
303.588633
 21
28000.0
 31
0.0
  0
LINE
  5
4D
  8
0
  6
BYBLOCK
 62
     9
 10
302.588633
 20
27809.99761
 30
0.0
 11
302.588633
 21
27842.082138
 31
0.0
  0
LINE
  5
4E
  8
0
  6
BYBLOCK
 62
     9
 10
302.588633
 20
27980.0
 30
0.0
 11
302.588633
 21
27947.915472
 31
0.0
  0
SOLID
  5
4F
  8
0
  6
BYBLOCK
 62
     9
 10
299.2553
 20
27809.99761
 30
0.0
 11
305.921966
 21
27809.99761
 31
0.0
 12
302.588633
 22
27789.99761
 32
0.0
 13
302.588633
 23
27789.99761
 33
0.0
  0
SOLID
  5
50
  8
0
  6
BYBLOCK
 62
     9
 10
299.2553
 20
27980.0
 30
0.0
 11
305.921966
 21
27980.0
 31
0.0
 12
302.588633
 22
28000.0
 32
0.0
 13
302.588633
 23
28000.0
 33
0.0
  0
TEXT
  5
51
  8
0
  6
BYBLOCK
 62
    11
 10
320.088633
 20
27857.082138
 30
0.0
 40
35.0
  1
210
 50
90.0
  0
POINT
  5
52
  8
DEFPOINTS
  6
BYBLOCK
 62
     0
 10
50.216995
 20
27789.99761
 30
0.0
  0
POINT
  5
53
  8
DEFPOINTS
  6
BYBLOCK
 62
     0
 10
0.0
 20
28000.0
 30
0.0
  0
POINT
  5
54
  8
DEFPOINTS
  6
BYBLOCK
 62
     0
 10
302.588633
 20
28000.0
 30
0.0
  0
ENDBLK
  5
56
  8
0
  0
BLOCK
  8
0
  2
*D1
 70
     1
 10
0.0
 20
0.0
 30
0.0
  3
*D1
  1

  0
LINE
  5
3D
  8
0
  6
BYBLOCK
 62
     9
 10
-210.001622
 20
27779.978394
 30
0.0
 11
-210.001622
 21
27509.236566
 31
0.0
  0
LINE
  5
3E
  8
0
  6
BYBLOCK
 62
     9
 10
210.001621
 20
27779.978394
 30
0.0
 11
210.001621
 21
27509.236566
 31
0.0
  0
LINE
  5
3F
  8
0
  6
BYBLOCK
 62
     9
 10
-190.001622
 20
27510.236566
 30
0.0
 11
-58.750001
 21
27510.236566
 31
0.0
  0
LINE
  5
40
  8
0
  6
BYBLOCK
 62
     9
 10
190.001621
 20
27510.236566
 30
0.0
 11
58.749999
 21
27510.236566
 31
0.0
  0
SOLID
  5
41
  8
0
  6
BYBLOCK
 62
     9
 10
-190.001622
 20
27513.569899
 30
0.0
 11
-190.001622
 21
27506.903232
 31
0.0
 12
-210.001622
 22
27510.236566
 32
0.0
 13
-210.001622
 23
27510.236566
 33
0.0
  0
SOLID
  5
42
  8
0
  6
BYBLOCK
 62
     9
 10
190.001621
 20
27513.569899
 30
0.0
 11
190.001621
 21
27506.903232
 31
0.0
 12
210.001621
 22
27510.236566
 32
0.0
 13
210.001621
 23
27510.236566
 33
0.0
  0
TEXT
  5
43
  8
0
  6
BYBLOCK
 62
    11
 10
-43.750001
 20
27492.736566
 30
0.0
 40
35.0
  1
420
  0
POINT
  5
44
  8
DEFPOINTS
  6
BYBLOCK
 62
     0
 10
-210.001622
 20
27789.978394
 30
0.0
  0
POINT
  5
45
  8
DEFPOINTS
  6
BYBLOCK
 62
     0
 10
210.001621
 20
27789.978394
 30
0.0
  0
POINT
  5
46
  8
DEFPOINTS
  6
BYBLOCK
 62
     0
 10
210.001621
 20
27510.236566
 30
0.0
  0
ENDBLK
  5
48
  8
0
  0
BLOCK
  8
0
  2
*D2
 70
     1
 10
0.0
 20
0.0
 30
0.0
  3
*D2
  1

  0
LINE
  5
2E
  8
0
  6
BYBLOCK
 62
     9
 10
10.0
 20
28000.0
 30
0.0
 11
381.430714
 21
28000.0
 31
0.0
  0
LINE
  5
2F
  8
0
  6
BYBLOCK
 62
     9
 10
10.0
 20
27579.996787
 30
0.0
 11
381.430714
 21
27579.996787
 31
0.0
  0
LINE
  5
30
  8
0
  6
BYBLOCK
 62
     9
 10
380.430714
 20
27980.0
 30
0.0
 11
380.430714
 21
27848.748394
 31
0.0
  0
LINE
  5
31
  8
0
  6
BYBLOCK
 62
     9
 10
380.430714
 20
27599.996787
 30
0.0
 11
380.430714
 21
27731.248394
 31
0.0
  0
SOLID
  5
32
  8
0
  6
BYBLOCK
 62
     9
 10
377.097381
 20
27980.0
 30
0.0
 11
383.764048
 21
27980.0
 31
0.0
 12
380.430714
 22
28000.0
 32
0.0
 13
380.430714
 23
28000.0
 33
0.0
  0
SOLID
  5
33
  8
0
  6
BYBLOCK
 62
     9
 10
377.097381
 20
27599.996787
 30
0.0
 11
383.764048
 21
27599.996787
 31
0.0
 12
380.430714
 22
27579.996787
 32
0.0
 13
380.430714
 23
27579.996787
 33
0.0
  0
TEXT
  5
34
  8
0
  6
BYBLOCK
 62
    11
 10
397.930714
 20
27746.248394
 30
0.0
 40
35.0
  1
420
 50
90.0
  0
POINT
  5
35
  8
DEFPOINTS
  6
BYBLOCK
 62
     0
 10
0.0
 20
28000.0
 30
0.0
  0
POINT
  5
37
  8
DEFPOINTS
  6
BYBLOCK
 62
     0
 10
0.0
 20
27579.996787
 30
0.0
  0
POINT
  5
38
  8
DEFPOINTS
  6
BYBLOCK
 62
     0
 10
380.430714
 20
27579.996787
 30
0.0
  0
ENDBLK
  5
3A
  8
0
  0
ENDSEC
  0
SECTION
  2
ENTITIES
  0
CIRCLE
  5
20
  8
TEAM-INSP
 10
0.0
 20
0.0
 30
0.0
 40
10.0
  0
POLYLINE
  5
22
  8
TEAM-DET1
 66
     1
 10
0.0
 20
0.0
 30
0.0
 70
     1
  0
VERTEX
  5
614
  8
TEAM-DET1
 10
38.819381
 20
-210.997019
 30
0.0
  0
VERTEX
  5
615
  8
TEAM-DET1
 10
38.679428
 20
-207.785532
 30
0.0
  0
VERTEX
  5
616
  8
TEAM-DET1
 10
38.259598
 20
-204.603586
 30
0.0
  0
VERTEX
  5
617
  8
TEAM-DET1
 10
37.563522
 20
-201.465769
 30
0.0
  0
VERTEX
  5
618
  8
TEAM-DET1
 10
36.598617
 20
-198.401621
 30
0.0
  0
VERTEX
  5
619
  8
TEAM-DET1
 10
35.368545
 20
-195.433237
 30
0.0
  0
VERTEX
  5
61A
  8
TEAM-DET1
 10
33.884353
 20
-192.582712
 30
0.0
  0
VERTEX
  5
61B
  8
TEAM-DET1
 10
32.160751
 20
-189.872141
 30
0.0
  0
VERTEX
  5
61C
  8
TEAM-DET1
 10
30.201492
 20
-187.323557
 30
0.0
  0
VERTEX
  5
61D
  8
TEAM-DET1
 10
28.032272
 20
-184.955515
 30
0.0
  0
VERTEX
  5
61E
  8
TEAM-DET1
 10
25.6642
 20
-182.786264
 30
0.0
  0
VERTEX
  5
61F
  8
TEAM-DET1
 10
23.115646
 20
-180.827036
 30
0.0
  0
VERTEX
  5
620
  8
TEAM-DET1
 10
20.405075
 20
-179.103403
 30
0.0
  0
VERTEX
  5
621
  8
TEAM-DET1
 10
17.554519
 20
-177.619211
 30
0.0
  0
VERTEX
  5
622
  8
TEAM-DET1
 10
14.586151
 20
-176.38917
 30
0.0
  0
VERTEX
  5
623
  8
TEAM-DET1
 10
11.522003
 20
-175.424265
 30
0.0
  0
VERTEX
  5
624
  8
TEAM-DET1
 10
8.384201
 20
-174.728159
 30
0.0
  0
VERTEX
  5
625
  8
TEAM-DET1
 10
5.202209
 20
-174.308359
 30
0.0
  0
VERTEX
  5
626
  8
TEAM-DET1
 10
1.990753
 20
-174.168406
 30
0.0
  0
VERTEX
  5
627
  8
TEAM-DET1
 10
-1.220703
 20
-174.308359
 30
0.0
  0
VERTEX
  5
628
  8
TEAM-DET1
 10
-4.402695
 20
-174.728159
 30
0.0
  0
VERTEX
  5
629
  8
TEAM-DET1
 10
-7.540497
 20
-175.424265
 30
0.0
  0
VERTEX
  5
62A
  8
TEAM-DET1
 10
-10.604645
 20
-176.38917
 30
0.0
  0
VERTEX
  5
62B
  8
TEAM-DET1
 10
-13.573029
 20
-177.619211
 30
0.0
  0
VERTEX
  5
62C
  8
TEAM-DET1
 10
-16.423569
 20
-179.103403
 30
0.0
  0
VERTEX
  5
62D
  8
TEAM-DET1
 10
-19.134155
 20
-180.827036
 30
0.0
  0
VERTEX
  5
62E
  8
TEAM-DET1
 10
-21.682694
 20
-182.786264
 30
0.0
  0
VERTEX
  5
62F
  8
TEAM-DET1
 10
-24.050766
 20
-184.955515
 30
0.0
  0
VERTEX
  5
630
  8
TEAM-DET1
 10
-26.219971
 20
-187.323557
 30
0.0
  0
VERTEX
  5
631
  8
TEAM-DET1
 10
-28.17926
 20
-189.872141
 30
0.0
  0
VERTEX
  5
632
  8
TEAM-DET1
 10
-29.902832
 20
-192.582712
 30
0.0
  0
VERTEX
  5
633
  8
TEAM-DET1
 10
-31.387039
 20
-195.433237
 30
0.0
  0
VERTEX
  5
634
  8
TEAM-DET1
 10
-32.617111
 20
-198.401621
 30
0.0
  0
VERTEX
  5
635
  8
TEAM-DET1
 10
-33.582016
 20
-201.465769
 30
0.0
  0
VERTEX
  5
636
  8
TEAM-DET1
 10
-34.278076
 20
-204.603586
 30
0.0
  0
VERTEX
  5
637
  8
TEAM-DET1
 10
-34.697922
 20
-207.785532
 30
0.0
  0
VERTEX
  5
638
  8
TEAM-DET1
 10
-34.837876
 20
-210.997019
 30
0.0
  0
VERTEX
  5
639
  8
TEAM-DET1
 10
-34.697922
 20
-214.208506
 30
0.0
  0
VERTEX
  5
63A
  8
TEAM-DET1
 10
-34.278076
 20
-217.390451
 30
0.0
  0
VERTEX
  5
63B
  8
TEAM-DET1
 10
-33.582016
 20
-220.528269
 30
0.0
  0
VERTEX
  5
63C
  8
TEAM-DET1
 10
-32.617111
 20
-223.592417
 30
0.0
  0
VERTEX
  5
63D
  8
TEAM-DET1
 10
-31.387039
 20
-226.560801
 30
0.0
  0
VERTEX
  5
63E
  8
TEAM-DET1
 10
-29.902832
 20
-229.411325
 30
0.0
  0
VERTEX
  5
63F
  8
TEAM-DET1
 10
-28.17926
 20
-232.121897
 30
0.0
  0
VERTEX
  5
640
  8
TEAM-DET1
 10
-26.219971
 20
-234.670481
 30
0.0
  0
VERTEX
  5
641
  8
TEAM-DET1
 10
-24.050766
 20
-237.038523
 30
0.0
  0
VERTEX
  5
642
  8
TEAM-DET1
 10
-21.682694
 20
-239.207773
 30
0.0
  0
VERTEX
  5
643
  8
TEAM-DET1
 10
-19.134155
 20
-241.167002
 30
0.0
  0
VERTEX
  5
644
  8
TEAM-DET1
 10
-16.423569
 20
-242.890635
 30
0.0
  0
VERTEX
  5
645
  8
TEAM-DET1
 10
-13.573029
 20
-244.374826
 30
0.0
  0
VERTEX
  5
646
  8
TEAM-DET1
 10
-10.604645
 20
-245.604868
 30
0.0
  0
VERTEX
  5
647
  8
TEAM-DET1
 10
-7.540497
 20
-246.569773
 30
0.0
  0
VERTEX
  5
648
  8
TEAM-DET1
 10
-4.402695
 20
-247.265879
 30
0.0
  0
VERTEX
  5
649
  8
TEAM-DET1
 10
-1.220703
 20
-247.685679
 30
0.0
  0
VERTEX
  5
64A
  8
TEAM-DET1
 10
1.990753
 20
-247.825632
 30
0.0
  0
VERTEX
  5
64B
  8
TEAM-DET1
 10
5.202209
 20
-247.685679
 30
0.0
  0
VERTEX
  5
64C
  8
TEAM-DET1
 10
8.384201
 20
-247.265879
 30
0.0
  0
VERTEX
  5
64D
  8
TEAM-DET1
 10
11.522003
 20
-246.569773
 30
0.0
  0
VERTEX
  5
64E
  8
TEAM-DET1
 10
14.586151
 20
-245.604868
 30
0.0
  0
VERTEX
  5
64F
  8
TEAM-DET1
 10
17.554519
 20
-244.374826
 30
0.0
  0
VERTEX
  5
650
  8
TEAM-DET1
 10
20.405075
 20
-242.890635
 30
0.0
  0
VERTEX
  5
651
  8
TEAM-DET1
 10
23.115646
 20
-241.167002
 30
0.0
  0
VERTEX
  5
652
  8
TEAM-DET1
 10
25.6642
 20
-239.207773
 30
0.0
  0
VERTEX
  5
653
  8
TEAM-DET1
 10
28.032272
 20
-237.038523
 30
0.0
  0
VERTEX
  5
654
  8
TEAM-DET1
 10
30.201492
 20
-234.670481
 30
0.0
  0
VERTEX
  5
655
  8
TEAM-DET1
 10
32.160751
 20
-232.121897
 30
0.0
  0
VERTEX
  5
656
  8
TEAM-DET1
 10
33.884353
 20
-229.411325
 30
0.0
  0
VERTEX
  5
657
  8
TEAM-DET1
 10
35.368545
 20
-226.560801
 30
0.0
  0
VERTEX
  5
658
  8
TEAM-DET1
 10
36.598617
 20
-223.592417
 30
0.0
  0
VERTEX
  5
659
  8
TEAM-DET1
 10
37.563522
 20
-220.528269
 30
0.0
  0
VERTEX
  5
65A
  8
TEAM-DET1
 10
38.259598
 20
-217.390451
 30
0.0
  0
VERTEX
  5
65B
  8
TEAM-DET1
 10
38.679428
 20
-214.208506
 30
0.0
  0
VERTEX
  5
65C
  8
TEAM-DET1
 10
38.819381
 20
-210.997019
 30
0.0
  0
VERTEX
  5
65D
  8
TEAM-DET1
 10
38.819381
 20
-210.997019
 30
0.0
  0
SEQEND
  5
65E
  8
TEAM-DET1
  0
LINE
  5
24
  8
TEAM-AXE
 10
0.995376
 20
-159.200144
 30
0.0
 11
0.995376
 21
-259.388987
 31
0.0
  0
POLYLINE
  5
27
  8
TEAM-DET1
 66
     1
 10
0.0
 20
0.0
 30
0.0
 70
     1
  0
VERTEX
  5
65F
  8
TEAM-DET1
 10
15.091156
 20
-48.733154
 30
0.0
  0
VERTEX
  5
660
  8
TEAM-DET1
 10
14.900818
 20
-47.64624
 30
0.0
  0
VERTEX
  5
661
  8
TEAM-DET1
 10
14.336075
 20
-46.591858
 30
0.0
  0
VERTEX
  5
662
  8
TEAM-DET1
 10
13.413193
 20
-45.6026
 30
0.0
  0
VERTEX
  5
663
  8
TEAM-DET1
 10
12.16098
 20
-44.708557
 30
0.0
  0
VERTEX
  5
664
  8
TEAM-DET1
 10
10.618255
 20
-43.937195
 30
0.0
  0
VERTEX
  5
665
  8
TEAM-DET1
 10
8.830093
 20
-43.311096
 30
0.0
  0
VERTEX
  5
666
  8
TEAM-DET1
 10
6.851608
 20
-42.84967
 30
0.0
  0
VERTEX
  5
667
  8
TEAM-DET1
 10
4.742889
 20
-42.567261
 30
0.0
  0
VERTEX
  5
668
  8
TEAM-DET1
 10
2.569046
 20
-42.472107
 30
0.0
  0
VERTEX
  5
669
  8
TEAM-DET1
 10
0.395202
 20
-42.567261
 30
0.0
  0
VERTEX
  5
66A
  8
TEAM-DET1
 10
-1.713516
 20
-42.84967
 30
0.0
  0
VERTEX
  5
66B
  8
TEAM-DET1
 10
-3.692002
 20
-43.311096
 30
0.0
  0
VERTEX
  5
66C
  8
TEAM-DET1
 10
-5.480164
 20
-43.937195
 30
0.0
  0
VERTEX
  5
66D
  8
TEAM-DET1
 10
-7.022888
 20
-44.708557
 30
0.0
  0
VERTEX
  5
66E
  8
TEAM-DET1
 10
-8.275101
 20
-45.6026
 30
0.0
  0
VERTEX
  5
66F
  8
TEAM-DET1
 10
-9.197983
 20
-46.591858
 30
0.0
  0
VERTEX
  5
670
  8
TEAM-DET1
 10
-9.762726
 20
-47.64624
 30
0.0
  0
VERTEX
  5
671
  8
TEAM-DET1
 10
-9.953064
 20
-48.733154
 30
0.0
  0
VERTEX
  5
672
  8
TEAM-DET1
 10
-9.762726
 20
-49.820068
 30
0.0
  0
VERTEX
  5
673
  8
TEAM-DET1
 10
-9.197983
 20
-50.87445
 30
0.0
  0
VERTEX
  5
674
  8
TEAM-DET1
 10
-8.275101
 20
-51.863708
 30
0.0
  0
VERTEX
  5
675
  8
TEAM-DET1
 10
-7.022888
 20
-52.757751
 30
0.0
  0
VERTEX
  5
676
  8
TEAM-DET1
 10
-5.480164
 20
-53.529114
 30
0.0
  0
VERTEX
  5
677
  8
TEAM-DET1
 10
-3.692002
 20
-54.155212
 30
0.0
  0
VERTEX
  5
678
  8
TEAM-DET1
 10
-1.713516
 20
-54.616638
 30
0.0
  0
VERTEX
  5
679
  8
TEAM-DET1
 10
0.395202
 20
-54.899048
 30
0.0
  0
VERTEX
  5
67A
  8
TEAM-DET1
 10
2.569046
 20
-54.994201
 30
0.0
  0
VERTEX
  5
67B
  8
TEAM-DET1
 10
4.742889
 20
-54.899048
 30
0.0
  0
VERTEX
  5
67C
  8
TEAM-DET1
 10
6.851608
 20
-54.616638
 30
0.0
  0
VERTEX
  5
67D
  8
TEAM-DET1
 10
8.830093
 20
-54.155212
 30
0.0
  0
VERTEX
  5
67E
  8
TEAM-DET1
 10
10.618255
 20
-53.529114
 30
0.0
  0
VERTEX
  5
67F
  8
TEAM-DET1
 10
12.16098
 20
-52.757751
 30
0.0
  0
VERTEX
  5
680
  8
TEAM-DET1
 10
13.413193
 20
-51.863708
 30
0.0
  0
VERTEX
  5
681
  8
TEAM-DET1
 10
14.336075
 20
-50.87445
 30
0.0
  0
VERTEX
  5
682
  8
TEAM-DET1
 10
14.900818
 20
-49.820068
 30
0.0
  0
VERTEX
  5
683
  8
TEAM-DET1
 10
15.091156
 20
-48.733154
 30
0.0
  0
VERTEX
  5
684
  8
TEAM-DET1
 10
15.091156
 20
-48.733154
 30
0.0
  0
SEQEND
  5
685
  8
TEAM-DET1
  0
LINE
  5
28
  8
TEAM-AXE
 10
-49.971894
 20
-210.00239
 30
0.0
 11
50.216995
 21
-210.00239
 31
0.0
  0
POLYLINE
  5
29
  8
STANDARDEBENE
 62
     2
 66
     1
 10
0.0
 20
0.0
 30
0.0
 70
     1
  0
VERTEX
  5
686
  8
STANDARDEBENE
 62
     2
 10
25.869461
 20
-210.997019
 30
0.0
  0
VERTEX
  5
687
  8
STANDARDEBENE
 62
     2
 10
25.778732
 20
-208.914804
 30
0.0
  0
VERTEX
  5
688
  8
STANDARDEBENE
 62
     2
 10
25.506515
 20
-206.851694
 30
0.0
  0
VERTEX
  5
689
  8
STANDARDEBENE
 62
     2
 10
25.055191
 20
-204.817209
 30
0.0
  0
VERTEX
  5
68A
  8
STANDARDEBENE
 62
     2
 10
24.42958
 20
-202.830515
 30
0.0
  0
VERTEX
  5
68B
  8
STANDARDEBENE
 62
     2
 10
23.632034
 20
-200.905893
 30
0.0
  0
VERTEX
  5
68C
  8
STANDARDEBENE
 62
     2
 10
22.669723
 20
-199.057688
 30
0.0
  0
VERTEX
  5
68D
  8
STANDARDEBENE
 62
     2
 10
21.5522
 20
-197.30018
 30
0.0
  0
VERTEX
  5
68E
  8
STANDARDEBENE
 62
     2
 10
20.281845
 20
-195.647776
 30
0.0
  0
VERTEX
  5
68F
  8
STANDARDEBENE
 62
     2
 10
18.875381
 20
-194.112375
 30
0.0
  0
VERTEX
  5
690
  8
STANDARDEBENE
 62
     2
 10
17.339981
 20
-192.705942
 30
0.0
  0
VERTEX
  5
691
  8
STANDARDEBENE
 62
     2
 10
15.687576
 20
-191.435556
 30
0.0
  0
VERTEX
  5
692
  8
STANDARDEBENE
 62
     2
 10
13.930099
 20
-190.318064
 30
0.0
  0
VERTEX
  5
693
  8
STANDARDEBENE
 62
     2
 10
12.081894
 20
-189.355722
 30
0.0
  0
VERTEX
  5
694
  8
STANDARDEBENE
 62
     2
 10
10.157272
 20
-188.558176
 30
0.0
  0
VERTEX
  5
695
  8
STANDARDEBENE
 62
     2
 10
8.170563
 20
-187.932566
 30
0.0
  0
VERTEX
  5
696
  8
STANDARDEBENE
 62
     2
 10
6.136093
 20
-187.481272
 30
0.0
  0
VERTEX
  5
697
  8
STANDARDEBENE
 62
     2
 10
4.072983
 20
-187.209055
 30
0.0
  0
VERTEX
  5
698
  8
STANDARDEBENE
 62
     2
 10
1.990753
 20
-187.118296
 30
0.0
  0
VERTEX
  5
699
  8
STANDARDEBENE
 62
     2
 10
-0.091477
 20
-187.209055
 30
0.0
  0
VERTEX
  5
69A
  8
STANDARDEBENE
 62
     2
 10
-2.154587
 20
-187.481272
 30
0.0
  0
VERTEX
  5
69B
  8
STANDARDEBENE
 62
     2
 10
-4.189057
 20
-187.932566
 30
0.0
  0
VERTEX
  5
69C
  8
STANDARDEBENE
 62
     2
 10
-6.175766
 20
-188.558176
 30
0.0
  0
VERTEX
  5
69D
  8
STANDARDEBENE
 62
     2
 10
-8.100388
 20
-189.355722
 30
0.0
  0
VERTEX
  5
69E
  8
STANDARDEBENE
 62
     2
 10
-9.948593
 20
-190.318064
 30
0.0
  0
VERTEX
  5
69F
  8
STANDARDEBENE
 62
     2
 10
-11.70607
 20
-191.435556
 30
0.0
  0
VERTEX
  5
6A0
  8
STANDARDEBENE
 62
     2
 10
-13.358475
 20
-192.705942
 30
0.0
  0
VERTEX
  5
6A1
  8
STANDARDEBENE
 62
     2
 10
-14.893875
 20
-194.112375
 30
0.0
  0
VERTEX
  5
6A2
  8
STANDARDEBENE
 62
     2
 10
-16.300339
 20
-195.647776
 30
0.0
  0
VERTEX
  5
6A3
  8
STANDARDEBENE
 62
     2
 10
-17.570679
 20
-197.30018
 30
0.0
  0
VERTEX
  5
6A4
  8
STANDARDEBENE
 62
     2
 10
-18.688202
 20
-199.057688
 30
0.0
  0
VERTEX
  5
6A5
  8
STANDARDEBENE
 62
     2
 10
-19.650513
 20
-200.905893
 30
0.0
  0
VERTEX
  5
6A6
  8
STANDARDEBENE
 62
     2
 10
-20.448075
 20
-202.830515
 30
0.0
  0
VERTEX
  5
6A7
  8
STANDARDEBENE
 62
     2
 10
-21.073685
 20
-204.817209
 30
0.0
  0
VERTEX
  5
6A8
  8
STANDARDEBENE
 62
     2
 10
-21.524994
 20
-206.851694
 30
0.0
  0
VERTEX
  5
6A9
  8
STANDARDEBENE
 62
     2
 10
-21.797211
 20
-208.914804
 30
0.0
  0
VERTEX
  5
6AA
  8
STANDARDEBENE
 62
     2
 10
-21.887955
 20
-210.997019
 30
0.0
  0
VERTEX
  5
6AB
  8
STANDARDEBENE
 62
     2
 10
-21.797211
 20
-213.079233
 30
0.0
  0
VERTEX
  5
6AC
  8
STANDARDEBENE
 62
     2
 10
-21.524994
 20
-215.142344
 30
0.0
  0
VERTEX
  5
6AD
  8
STANDARDEBENE
 62
     2
 10
-21.073685
 20
-217.176828
 30
0.0
  0
VERTEX
  5
6AE
  8
STANDARDEBENE
 62
     2
 10
-20.448075
 20
-219.163523
 30
0.0
  0
VERTEX
  5
6AF
  8
STANDARDEBENE
 62
     2
 10
-19.650513
 20
-221.088144
 30
0.0
  0
VERTEX
  5
6B0
  8
STANDARDEBENE
 62
     2
 10
-18.688202
 20
-222.93635
 30
0.0
  0
VERTEX
  5
6B1
  8
STANDARDEBENE
 62
     2
 10
-17.570679
 20
-224.693857
 30
0.0
  0
VERTEX
  5
6B2
  8
STANDARDEBENE
 62
     2
 10
-16.300339
 20
-226.346262
 30
0.0
  0
VERTEX
  5
6B3
  8
STANDARDEBENE
 62
     2
 10
-14.893875
 20
-227.881662
 30
0.0
  0
VERTEX
  5
6B4
  8
STANDARDEBENE
 62
     2
 10
-13.358475
 20
-229.288096
 30
0.0
  0
VERTEX
  5
6B5
  8
STANDARDEBENE
 62
     2
 10
-11.70607
 20
-230.558481
 30
0.0
  0
VERTEX
  5
6B6
  8
STANDARDEBENE
 62
     2
 10
-9.948593
 20
-231.675974
 30
0.0
  0
VERTEX
  5
6B7
  8
STANDARDEBENE
 62
     2
 10
-8.100388
 20
-232.638315
 30
0.0
  0
VERTEX
  5
6B8
  8
STANDARDEBENE
 62
     2
 10
-6.175766
 20
-233.435862
 30
0.0
  0
VERTEX
  5
6B9
  8
STANDARDEBENE
 62
     2
 10
-4.189057
 20
-234.061472
 30
0.0
  0
VERTEX
  5
6BA
  8
STANDARDEBENE
 62
     2
 10
-2.154587
 20
-234.512766
 30
0.0
  0
VERTEX
  5
6BB
  8
STANDARDEBENE
 62
     2
 10
-0.091477
 20
-234.784983
 30
0.0
  0
VERTEX
  5
6BC
  8
STANDARDEBENE
 62
     2
 10
1.990753
 20
-234.875742
 30
0.0
  0
VERTEX
  5
6BD
  8
STANDARDEBENE
 62
     2
 10
4.072983
 20
-234.784983
 30
0.0
  0
VERTEX
  5
6BE
  8
STANDARDEBENE
 62
     2
 10
6.136093
 20
-234.512766
 30
0.0
  0
VERTEX
  5
6BF
  8
STANDARDEBENE
 62
     2
 10
8.170563
 20
-234.061472
 30
0.0
  0
VERTEX
  5
6C0
  8
STANDARDEBENE
 62
     2
 10
10.157272
 20
-233.435862
 30
0.0
  0
VERTEX
  5
6C1
  8
STANDARDEBENE
 62
     2
 10
12.081894
 20
-232.638315
 30
0.0
  0
VERTEX
  5
6C2
  8
STANDARDEBENE
 62
     2
 10
13.930099
 20
-231.675974
 30
0.0
  0
VERTEX
  5
6C3
  8
STANDARDEBENE
 62
     2
 10
15.687576
 20
-230.558481
 30
0.0
  0
VERTEX
  5
6C4
  8
STANDARDEBENE
 62
     2
 10
17.339981
 20
-229.288096
 30
0.0
  0
VERTEX
  5
6C5
  8
STANDARDEBENE
 62
     2
 10
18.875381
 20
-227.881662
 30
0.0
  0
VERTEX
  5
6C6
  8
STANDARDEBENE
 62
     2
 10
20.281845
 20
-226.346262
 30
0.0
  0
VERTEX
  5
6C7
  8
STANDARDEBENE
 62
     2
 10
21.5522
 20
-224.693857
 30
0.0
  0
VERTEX
  5
6C8
  8
STANDARDEBENE
 62
     2
 10
22.669723
 20
-222.93635
 30
0.0
  0
VERTEX
  5
6C9
  8
STANDARDEBENE
 62
     2
 10
23.632034
 20
-221.088144
 30
0.0
  0
VERTEX
  5
6CA
  8
STANDARDEBENE
 62
     2
 10
24.42958
 20
-219.163523
 30
0.0
  0
VERTEX
  5
6CB
  8
STANDARDEBENE
 62
     2
 10
25.055191
 20
-217.176828
 30
0.0
  0
VERTEX
  5
6CC
  8
STANDARDEBENE
 62
     2
 10
25.506515
 20
-215.142344
 30
0.0
  0
VERTEX
  5
6CD
  8
STANDARDEBENE
 62
     2
 10
25.778732
 20
-213.079233
 30
0.0
  0
VERTEX
  5
6CE
  8
STANDARDEBENE
 62
     2
 10
25.869461
 20
-210.997019
 30
0.0
  0
VERTEX
  5
6CF
  8
STANDARDEBENE
 62
     2
 10
25.869461
 20
-210.997019
 30
0.0
  0
SEQEND
  5
6D0
  8
STANDARDEBENE
 62
     2
  0
DIMENSION
  5
2C
  8
TEAM-MAS
  2
*D2
 10
380.430714
 20
-420.003213
 30
0.0
 11
380.430714
 21
-210.001606
 31
0.0
 12
0.0
 22
-28000.0
 32
0.0
 13
0.0
 23
0.0
 33
0.0
 14
0.0
 24
-420.003213
 34
0.0
 50
90.0
  0
DIMENSION
  5
3B
  8
TEAM-MAS
  2
*D1
 10
210.001621
 20
-489.763434
 30
0.0
 11
-0.000001
 21
-489.763434
 31
0.0
 12
0.0
 22
-28000.0
 32
0.0
 13
-210.001622
 23
-210.021606
 33
0.0
 14
210.001621
 24
-210.021606
 34
0.0
  0
DIMENSION
  5
49
  8
TEAM-MAS
  2
*D0
 10
302.588633
 20
0.0
 30
0.0
 11
302.588633
 21
-105.001195
 31
0.0
 12
0.0
 22
-28000.0
 32
0.0
 13
50.216995
 23
-210.00239
 33
0.0
 14
0.0
 24
0.0
 34
0.0
 50
90.0
1001
ACAD
1000
DSTYLE
1002
{
1070
    40
1040
1.0
1002
}
  0
POLYLINE
  5
57
  8
STANDARDEBENE
 62
     2
 66
     1
 10
0.0
 20
0.0
 30
0.0
 70
     1
  0
VERTEX
  5
6D1
  8
STANDARDEBENE
 62
     2
 10
197.082016
 20
-210.021606
 30
0.0
  0
VERTEX
  5
6D2
  8
STANDARDEBENE
 62
     2
 10
196.333114
 20
-192.836059
 30
0.0
  0
VERTEX
  5
6D3
  8
STANDARDEBENE
 62
     2
 10
194.08638
 20
-175.808166
 30
0.0
  0
VERTEX
  5
6D4
  8
STANDARDEBENE
 62
     2
 10
190.361526
 20
-159.016784
 30
0.0
  0
VERTEX
  5
6D5
  8
STANDARDEBENE
 62
     2
 10
185.197983
 20
-142.619568
 30
0.0
  0
VERTEX
  5
6D6
  8
STANDARDEBENE
 62
     2
 10
178.615433
 20
-126.734741
 30
0.0
  0
VERTEX
  5
6D7
  8
STANDARDEBENE
 62
     2
 10
170.673019
 20
-111.480591
 30
0.0
  0
VERTEX
  5
6D8
  8
STANDARDEBENE
 62
     2
 10
161.449569
 20
-96.975342
 30
0.0
  0
VERTEX
  5
6D9
  8
STANDARDEBENE
 62
     2
 10
150.964828
 20
-83.33728
 30
0.0
  0
VERTEX
  5
6DA
  8
STANDARDEBENE
 62
     2
 10
139.356674
 20
-70.664917
 30
0.0
  0
VERTEX
  5
6DB
  8
STANDARDEBENE
 62
     2
 10
126.684311
 20
-59.056762
 30
0.0
  0
VERTEX
  5
6DC
  8
STANDARDEBENE
 62
     2
 10
113.046249
 20
-48.572021
 30
0.0
  0
VERTEX
  5
6DD
  8
STANDARDEBENE
 62
     2
 10
98.541
 20
-39.348572
 30
0.0
  0
VERTEX
  5
6DE
  8
STANDARDEBENE
 62
     2
 10
83.28685
 20
-31.406189
 30
0.0
  0
VERTEX
  5
6DF
  8
STANDARDEBENE
 62
     2
 10
67.402054
 20
-24.823608
 30
0.0
  0
VERTEX
  5
6E0
  8
STANDARDEBENE
 62
     2
 10
51.004837
 20
-19.660095
 30
0.0
  0
VERTEX
  5
6E1
  8
STANDARDEBENE
 62
     2
 10
34.213424
 20
-15.935241
 30
0.0
  0
VERTEX
  5
6E2
  8
STANDARDEBENE
 62
     2
 10
17.185562
 20
-13.688476
 30
0.0
  0
VERTEX
  5
6E3
  8
STANDARDEBENE
 62
     2
 10
0.0
 20
-12.939575
 30
0.0
  0
VERTEX
  5
6E4
  8
STANDARDEBENE
 62
     2
 10
-17.185547
 20
-13.688476
 30
0.0
  0
VERTEX
  5
6E5
  8
STANDARDEBENE
 62
     2
 10
-34.21344
 20
-15.935241
 30
0.0
  0
VERTEX
  5
6E6
  8
STANDARDEBENE
 62
     2
 10
-51.004822
 20
-19.660095
 30
0.0
  0
VERTEX
  5
6E7
  8
STANDARDEBENE
 62
     2
 10
-67.402054
 20
-24.823608
 30
0.0
  0
VERTEX
  5
6E8
  8
STANDARDEBENE
 62
     2
 10
-83.286865
 20
-31.406189
 30
0.0
  0
VERTEX
  5
6E9
  8
STANDARDEBENE
 62
     2
 10
-98.541001
 20
-39.348572
 30
0.0
  0
VERTEX
  5
6EA
  8
STANDARDEBENE
 62
     2
 10
-113.046242
 20
-48.572021
 30
0.0
  0
VERTEX
  5
6EB
  8
STANDARDEBENE
 62
     2
 10
-126.684311
 20
-59.056762
 30
0.0
  0
VERTEX
  5
6EC
  8
STANDARDEBENE
 62
     2
 10
-139.35669
 20
-70.664917
 30
0.0
  0
VERTEX
  5
6ED
  8
STANDARDEBENE
 62
     2
 10
-150.964821
 20
-83.33728
 30
0.0
  0
VERTEX
  5
6EE
  8
STANDARDEBENE
 62
     2
 10
-161.449585
 20
-96.975342
 30
0.0
  0
VERTEX
  5
6EF
  8
STANDARDEBENE
 62
     2
 10
-170.673027
 20
-111.480591
 30
0.0
  0
VERTEX
  5
6F0
  8
STANDARDEBENE
 62
     2
 10
-178.615433
 20
-126.734741
 30
0.0
  0
VERTEX
  5
6F1
  8
STANDARDEBENE
 62
     2
 10
-185.197972
 20
-142.619568
 30
0.0
  0
VERTEX
  5
6F2
  8
STANDARDEBENE
 62
     2
 10
-190.361519
 20
-159.016784
 30
0.0
  0
VERTEX
  5
6F3
  8
STANDARDEBENE
 62
     2
 10
-194.086365
 20
-175.808166
 30
0.0
  0
VERTEX
  5
6F4
  8
STANDARDEBENE
 62
     2
 10
-196.333111
 20
-192.836059
 30
0.0
  0
VERTEX
  5
6F5
  8
STANDARDEBENE
 62
     2
 10
-197.082016
 20
-210.021606
 30
0.0
  0
VERTEX
  5
6F6
  8
STANDARDEBENE
 62
     2
 10
-196.333111
 20
-227.207153
 30
0.0
  0
VERTEX
  5
6F7
  8
STANDARDEBENE
 62
     2
 10
-194.086365
 20
-244.235046
 30
0.0
  0
VERTEX
  5
6F8
  8
STANDARDEBENE
 62
     2
 10
-190.361519
 20
-261.026428
 30
0.0
  0
VERTEX
  5
6F9
  8
STANDARDEBENE
 62
     2
 10
-185.197972
 20
-277.423645
 30
0.0
  0
VERTEX
  5
6FA
  8
STANDARDEBENE
 62
     2
 10
-178.615433
 20
-293.308471
 30
0.0
  0
VERTEX
  5
6FB
  8
STANDARDEBENE
 62
     2
 10
-170.673027
 20
-308.562622
 30
0.0
  0
VERTEX
  5
6FC
  8
STANDARDEBENE
 62
     2
 10
-161.449585
 20
-323.067871
 30
0.0
  0
VERTEX
  5
6FD
  8
STANDARDEBENE
 62
     2
 10
-150.964821
 20
-336.705932
 30
0.0
  0
VERTEX
  5
6FE
  8
STANDARDEBENE
 62
     2
 10
-139.35669
 20
-349.378296
 30
0.0
  0
VERTEX
  5
6FF
  8
STANDARDEBENE
 62
     2
 10
-126.684311
 20
-360.986419
 30
0.0
  0
VERTEX
  5
700
  8
STANDARDEBENE
 62
     2
 10
-113.046242
 20
-371.471191
 30
0.0
  0
VERTEX
  5
701
  8
STANDARDEBENE
 62
     2
 10
-98.541001
 20
-380.694641
 30
0.0
  0
VERTEX
  5
702
  8
STANDARDEBENE
 62
     2
 10
-83.286865
 20
-388.637024
 30
0.0
  0
VERTEX
  5
703
  8
STANDARDEBENE
 62
     2
 10
-67.402054
 20
-395.219574
 30
0.0
  0
VERTEX
  5
704
  8
STANDARDEBENE
 62
     2
 10
-51.004822
 20
-400.383117
 30
0.0
  0
VERTEX
  5
705
  8
STANDARDEBENE
 62
     2
 10
-34.21344
 20
-404.107971
 30
0.0
  0
VERTEX
  5
706
  8
STANDARDEBENE
 62
     2
 10
-17.185547
 20
-406.354706
 30
0.0
  0
VERTEX
  5
707
  8
STANDARDEBENE
 62
     2
 10
0.0
 20
-407.103637
 30
0.0
  0
VERTEX
  5
708
  8
STANDARDEBENE
 62
     2
 10
17.185562
 20
-406.354706
 30
0.0
  0
VERTEX
  5
709
  8
STANDARDEBENE
 62
     2
 10
34.213424
 20
-404.107971
 30
0.0
  0
VERTEX
  5
70A
  8
STANDARDEBENE
 62
     2
 10
51.004837
 20
-400.383117
 30
0.0
  0
VERTEX
  5
70B
  8
STANDARDEBENE
 62
     2
 10
67.402054
 20
-395.219574
 30
0.0
  0
VERTEX
  5
70C
  8
STANDARDEBENE
 62
     2
 10
83.28685
 20
-388.637024
 30
0.0
  0
VERTEX
  5
70D
  8
STANDARDEBENE
 62
     2
 10
98.541
 20
-380.694641
 30
0.0
  0
VERTEX
  5
70E
  8
STANDARDEBENE
 62
     2
 10
113.046249
 20
-371.471191
 30
0.0
  0
VERTEX
  5
70F
  8
STANDARDEBENE
 62
     2
 10
126.684311
 20
-360.986419
 30
0.0
  0
VERTEX
  5
710
  8
STANDARDEBENE
 62
     2
 10
139.356674
 20
-349.378296
 30
0.0
  0
VERTEX
  5
711
  8
STANDARDEBENE
 62
     2
 10
150.964828
 20
-336.705932
 30
0.0
  0
VERTEX
  5
712
  8
STANDARDEBENE
 62
     2
 10
161.449569
 20
-323.067871
 30
0.0
  0
VERTEX
  5
713
  8
STANDARDEBENE
 62
     2
 10
170.673019
 20
-308.562622
 30
0.0
  0
VERTEX
  5
714
  8
STANDARDEBENE
 62
     2
 10
178.615433
 20
-293.308471
 30
0.0
  0
VERTEX
  5
715
  8
STANDARDEBENE
 62
     2
 10
185.197983
 20
-277.423645
 30
0.0
  0
VERTEX
  5
716
  8
STANDARDEBENE
 62
     2
 10
190.361526
 20
-261.026428
 30
0.0
  0
VERTEX
  5
717
  8
STANDARDEBENE
 62
     2
 10
194.08638
 20
-244.235046
 30
0.0
  0
VERTEX
  5
718
  8
STANDARDEBENE
 62
     2
 10
196.333114
 20
-227.207153
 30
0.0
  0
VERTEX
  5
719
  8
STANDARDEBENE
 62
     2
 10
197.082016
 20
-210.021606
 30
0.0
  0
VERTEX
  5
71A
  8
STANDARDEBENE
 62
     2
 10
197.082016
 20
-210.021606
 30
0.0
  0
SEQEND
  5
71B
  8
STANDARDEBENE
 62
     2
  0
POLYLINE
  5
58
  8
STANDARDEBENE
 62
     2
 66
     1
 10
0.0
 20
0.0
 30
0.0
 70
     1
  0
VERTEX
  5
71C
  8
STANDARDEBENE
 62
     2
 10
210.021621
 20
-210.021606
 30
0.0
  0
VERTEX
  5
71D
  8
STANDARDEBENE
 62
     2
 10
209.223556
 20
-191.707702
 30
0.0
  0
VERTEX
  5
71E
  8
STANDARDEBENE
 62
     2
 10
206.8293
 20
-173.561828
 30
0.0
  0
VERTEX
  5
71F
  8
STANDARDEBENE
 62
     2
 10
202.859878
 20
-155.66803
 30
0.0
  0
VERTEX
  5
720
  8
STANDARDEBENE
 62
     2
 10
197.357315
 20
-138.194214
 30
0.0
  0
VERTEX
  5
721
  8
STANDARDEBENE
 62
     2
 10
190.342605
 20
-121.266479
 30
0.0
  0
VERTEX
  5
722
  8
STANDARDEBENE
 62
     2
 10
181.878738
 20
-105.010803
 30
0.0
  0
VERTEX
  5
723
  8
STANDARDEBENE
 62
     2
 10
172.049698
 20
-89.553222
 30
0.0
  0
VERTEX
  5
724
  8
STANDARDEBENE
 62
     2
 10
160.876571
 20
-75.019714
 30
0.0
  0
VERTEX
  5
725
  8
STANDARDEBENE
 62
     2
 10
148.506271
 20
-61.51532
 30
0.0
  0
VERTEX
  5
726
  8
STANDARDEBENE
 62
     2
 10
135.001907
 20
-49.145019
 30
0.0
  0
VERTEX
  5
727
  8
STANDARDEBENE
 62
     2
 10
120.468399
 20
-37.971924
 30
0.0
  0
VERTEX
  5
728
  8
STANDARDEBENE
 62
     2
 10
105.010818
 20
-28.142883
 30
0.0
  0
VERTEX
  5
729
  8
STANDARDEBENE
 62
     2
 10
88.755142
 20
-19.679016
 30
0.0
  0
VERTEX
  5
72A
  8
STANDARDEBENE
 62
     2
 10
71.827408
 20
-12.664306
 30
0.0
  0
VERTEX
  5
72B
  8
STANDARDEBENE
 62
     2
 10
54.353592
 20
-7.161743
 30
0.0
  0
VERTEX
  5
72C
  8
STANDARDEBENE
 62
     2
 10
36.459762
 20
-3.192322
 30
0.0
  0
VERTEX
  5
72D
  8
STANDARDEBENE
 62
     2
 10
18.313888
 20
-0.798034
 30
0.0
  0
VERTEX
  5
72E
  8
STANDARDEBENE
 62
     2
 10
0.0
 20
0.0
 30
0.0
  0
VERTEX
  5
72F
  8
STANDARDEBENE
 62
     2
 10
-18.313889
 20
-0.798034
 30
0.0
  0
VERTEX
  5
730
  8
STANDARDEBENE
 62
     2
 10
-36.459748
 20
-3.192322
 30
0.0
  0
VERTEX
  5
731
  8
STANDARDEBENE
 62
     2
 10
-54.353592
 20
-7.161743
 30
0.0
  0
VERTEX
  5
732
  8
STANDARDEBENE
 62
     2
 10
-71.827393
 20
-12.664306
 30
0.0
  0
VERTEX
  5
733
  8
STANDARDEBENE
 62
     2
 10
-88.755142
 20
-19.679016
 30
0.0
  0
VERTEX
  5
734
  8
STANDARDEBENE
 62
     2
 10
-105.010819
 20
-28.142883
 30
0.0
  0
VERTEX
  5
735
  8
STANDARDEBENE
 62
     2
 10
-120.468399
 20
-37.971924
 30
0.0
  0
VERTEX
  5
736
  8
STANDARDEBENE
 62
     2
 10
-135.001892
 20
-49.145019
 30
0.0
  0
VERTEX
  5
737
  8
STANDARDEBENE
 62
     2
 10
-148.506287
 20
-61.51532
 30
0.0
  0
VERTEX
  5
738
  8
STANDARDEBENE
 62
     2
 10
-160.876557
 20
-75.019714
 30
0.0
  0
VERTEX
  5
739
  8
STANDARDEBENE
 62
     2
 10
-172.049706
 20
-89.553222
 30
0.0
  0
VERTEX
  5
73A
  8
STANDARDEBENE
 62
     2
 10
-181.878723
 20
-105.010803
 30
0.0
  0
VERTEX
  5
73B
  8
STANDARDEBENE
 62
     2
 10
-190.342598
 20
-121.266479
 30
0.0
  0
VERTEX
  5
73C
  8
STANDARDEBENE
 62
     2
 10
-197.357319
 20
-138.194214
 30
0.0
  0
VERTEX
  5
73D
  8
STANDARDEBENE
 62
     2
 10
-202.859886
 20
-155.66803
 30
0.0
  0
VERTEX
  5
73E
  8
STANDARDEBENE
 62
     2
 10
-206.829289
 20
-173.561828
 30
0.0
  0
VERTEX
  5
73F
  8
STANDARDEBENE
 62
     2
 10
-209.223545
 20
-191.707702
 30
0.0
  0
VERTEX
  5
740
  8
STANDARDEBENE
 62
     2
 10
-210.021622
 20
-210.021606
 30
0.0
  0
VERTEX
  5
741
  8
STANDARDEBENE
 62
     2
 10
-209.223545
 20
-228.33551
 30
0.0
  0
VERTEX
  5
742
  8
STANDARDEBENE
 62
     2
 10
-206.829289
 20
-246.481384
 30
0.0
  0
VERTEX
  5
743
  8
STANDARDEBENE
 62
     2
 10
-202.859886
 20
-264.375183
 30
0.0
  0
VERTEX
  5
744
  8
STANDARDEBENE
 62
     2
 10
-197.357319
 20
-281.848999
 30
0.0
  0
VERTEX
  5
745
  8
STANDARDEBENE
 62
     2
 10
-190.342598
 20
-298.776733
 30
0.0
  0
VERTEX
  5
746
  8
STANDARDEBENE
 62
     2
 10
-181.878723
 20
-315.032409
 30
0.0
  0
VERTEX
  5
747
  8
STANDARDEBENE
 62
     2
 10
-172.049706
 20
-330.490021
 30
0.0
  0
VERTEX
  5
748
  8
STANDARDEBENE
 62
     2
 10
-160.876557
 20
-345.023498
 30
0.0
  0
VERTEX
  5
749
  8
STANDARDEBENE
 62
     2
 10
-148.506287
 20
-358.527893
 30
0.0
  0
VERTEX
  5
74A
  8
STANDARDEBENE
 62
     2
 10
-135.001892
 20
-370.898163
 30
0.0
  0
VERTEX
  5
74B
  8
STANDARDEBENE
 62
     2
 10
-120.468399
 20
-382.071319
 30
0.0
  0
VERTEX
  5
74C
  8
STANDARDEBENE
 62
     2
 10
-105.010819
 20
-391.900329
 30
0.0
  0
VERTEX
  5
74D
  8
STANDARDEBENE
 62
     2
 10
-88.755142
 20
-400.364197
 30
0.0
  0
VERTEX
  5
74E
  8
STANDARDEBENE
 62
     2
 10
-71.827393
 20
-407.378937
 30
0.0
  0
VERTEX
  5
74F
  8
STANDARDEBENE
 62
     2
 10
-54.353592
 20
-412.8815
 30
0.0
  0
VERTEX
  5
750
  8
STANDARDEBENE
 62
     2
 10
-36.459748
 20
-416.850891
 30
0.0
  0
VERTEX
  5
751
  8
STANDARDEBENE
 62
     2
 10
-18.313889
 20
-419.245148
 30
0.0
  0
VERTEX
  5
752
  8
STANDARDEBENE
 62
     2
 10
0.0
 20
-420.043213
 30
0.0
  0
VERTEX
  5
753
  8
STANDARDEBENE
 62
     2
 10
18.313888
 20
-419.245148
 30
0.0
  0
VERTEX
  5
754
  8
STANDARDEBENE
 62
     2
 10
36.459762
 20
-416.850891
 30
0.0
  0
VERTEX
  5
755
  8
STANDARDEBENE
 62
     2
 10
54.353592
 20
-412.8815
 30
0.0
  0
VERTEX
  5
756
  8
STANDARDEBENE
 62
     2
 10
71.827408
 20
-407.378937
 30
0.0
  0
VERTEX
  5
757
  8
STANDARDEBENE
 62
     2
 10
88.755142
 20
-400.364197
 30
0.0
  0
VERTEX
  5
758
  8
STANDARDEBENE
 62
     2
 10
105.010818
 20
-391.900329
 30
0.0
  0
VERTEX
  5
759
  8
STANDARDEBENE
 62
     2
 10
120.468399
 20
-382.071319
 30
0.0
  0
VERTEX
  5
75A
  8
STANDARDEBENE
 62
     2
 10
135.001907
 20
-370.898163
 30
0.0
  0
VERTEX
  5
75B
  8
STANDARDEBENE
 62
     2
 10
148.506271
 20
-358.527893
 30
0.0
  0
VERTEX
  5
75C
  8
STANDARDEBENE
 62
     2
 10
160.876571
 20
-345.023498
 30
0.0
  0
VERTEX
  5
75D
  8
STANDARDEBENE
 62
     2
 10
172.049698
 20
-330.490021
 30
0.0
  0
VERTEX
  5
75E
  8
STANDARDEBENE
 62
     2
 10
181.878738
 20
-315.032409
 30
0.0
  0
VERTEX
  5
75F
  8
STANDARDEBENE
 62
     2
 10
190.342605
 20
-298.776733
 30
0.0
  0
VERTEX
  5
760
  8
STANDARDEBENE
 62
     2
 10
197.357315
 20
-281.848999
 30
0.0
  0
VERTEX
  5
761
  8
STANDARDEBENE
 62
     2
 10
202.859878
 20
-264.375183
 30
0.0
  0
VERTEX
  5
762
  8
STANDARDEBENE
 62
     2
 10
206.8293
 20
-246.481384
 30
0.0
  0
VERTEX
  5
763
  8
STANDARDEBENE
 62
     2
 10
209.223556
 20
-228.33551
 30
0.0
  0
VERTEX
  5
764
  8
STANDARDEBENE
 62
     2
 10
210.021621
 20
-210.021606
 30
0.0
  0
VERTEX
  5
765
  8
STANDARDEBENE
 62
     2
 10
210.021621
 20
-210.021606
 30
0.0
  0
SEQEND
  5
766
  8
STANDARDEBENE
 62
     2
  0
TEXT
  5
59
  8
TEAM-TXT
 10
-85.19933
 20
-121.729814
 30
0.0
 40
24.999999
  1
team 211120
 41
0.8
 51
15.0
  7
TEAM
  0
ENDSEC
  0
EOF
