  0
SECTION
  2
HEADER
  9
$ACADVER
  1
AC1009
  9
$INSBASE
 10
0.0
 20
0.0
 30
0.0
  9
$EXTMIN
 10
-209.585062
 20
-10.028521
 30
0.0
  9
$EXTMAX
 10
585.070097
 20
900.095538
 30
0.0
  9
$LIMMIN
 10
-209.585062
 20
-10.028521
  9
$LIMMAX
 10
585.070097
 20
900.095538
  9
$ORTHOMODE
 70
     1
  9
$REGENMODE
 70
     1
  9
$FILLMODE
 70
     1
  9
$QTEXTMODE
 70
     0
  9
$MIRRTEXT
 70
     0
  9
$DRAGMODE
 70
     2
  9
$LTSCALE
 40
25.0
  9
$OSMODE
 70
     0
  9
$ATTMODE
 70
     1
  9
$TEXTSIZE
 40
200.0
  9
$TRACEWID
 40
1.0
  9
$TEXTSTYLE
  7
STANDARD
  9
$CLAYER
  8
TEAM-MAS
  9
$CELTYPE
  6
BYLAYER
  9
$CECOLOR
 62
   256
  9
$DIMSCALE
 40
0.0
  9
$DIMASZ
 40
20.0
  9
$DIMEXO
 40
10.0
  9
$DIMDLI
 40
1.0
  9
$DIMRND
 40
0.0
  9
$DIMDLE
 40
0.0
  9
$DIMEXE
 40
1.0
  9
$DIMTP
 40
0.0
  9
$DIMTM
 40
0.0
  9
$DIMTXT
 40
35.0
  9
$DIMCEN
 40
1.0
  9
$DIMTSZ
 40
0.0
  9
$DIMTOL
 70
     0
  9
$DIMLIM
 70
     0
  9
$DIMTIH
 70
     0
  9
$DIMTOH
 70
     0
  9
$DIMSE1
 70
     0
  9
$DIMSE2
 70
     0
  9
$DIMTAD
 70
     0
  9
$DIMZIN
 70
     0
  9
$DIMBLK
  1

  9
$DIMASO
 70
     1
  9
$DIMSHO
 70
     0
  9
$DIMPOST
  1

  9
$DIMAPOST
  1

  9
$DIMALT
 70
     0
  9
$DIMALTD
 70
     2
  9
$DIMALTF
 40
25.4
  9
$DIMLFAC
 40
1.0
  9
$DIMTOFL
 70
     0
  9
$DIMTVP
 40
0.0
  9
$DIMTIX
 70
     0
  9
$DIMSOXD
 70
     0
  9
$DIMSAH
 70
     0
  9
$DIMBLK1
  1

  9
$DIMBLK2
  1

  9
$DIMSTYLE
  2
TEAM
  9
$DIMCLRD
 70
     9
  9
$DIMCLRE
 70
     9
  9
$DIMCLRT
 70
    11
  9
$DIMTFAC
 40
1.0
  9
$DIMGAP
 40
15.0
  9
$LUNITS
 70
     2
  9
$LUPREC
 70
     1
  9
$SKETCHINC
 40
1.0
  9
$FILLETRAD
 40
50.0
  9
$AUNITS
 70
     0
  9
$AUPREC
 70
     0
  9
$MENU
  1
ROPLANS
  9
$ELEVATION
 40
0.0
  9
$PELEVATION
 40
0.0
  9
$THICKNESS
 40
0.0
  9
$LIMCHECK
 70
     0
  9
$BLIPMODE
 70
     1
  9
$CHAMFERA
 40
0.0
  9
$CHAMFERB
 40
0.0
  9
$SKPOLY
 70
     0
  9
$TDCREATE
 40
2450392.957851
  9
$TDUPDATE
 40
2455523.639254
  9
$TDINDWG
 40
2.095041
  9
$TDUSRTIMER
 40
2.095041
  9
$USRTIMER
 70
     1
  9
$ANGBASE
 50
0.0
  9
$ANGDIR
 70
     0
  9
$PDMODE
 70
     0
  9
$PDSIZE
 40
0.0
  9
$PLINEWID
 40
0.0
  9
$COORDS
 70
     2
  9
$SPLFRAME
 70
     0
  9
$SPLINETYPE
 70
     6
  9
$SPLINESEGS
 70
     8
  9
$ATTDIA
 70
     0
  9
$ATTREQ
 70
     0
  9
$HANDLING
 70
     1
  9
$HANDSEED
  5
3C4
  9
$SURFTAB1
 70
    24
  9
$SURFTAB2
 70
    24
  9
$SURFTYPE
 70
     6
  9
$SURFU
 70
     6
  9
$SURFV
 70
     6
  9
$UCSNAME
  2

  9
$UCSORG
 10
0.0
 20
0.0
 30
0.0
  9
$UCSXDIR
 10
1.0
 20
0.0
 30
0.0
  9
$UCSYDIR
 10
0.0
 20
1.0
 30
0.0
  9
$PUCSNAME
  2

  9
$PUCSORG
 10
0.0
 20
0.0
 30
0.0
  9
$PUCSXDIR
 10
1.0
 20
0.0
 30
0.0
  9
$PUCSYDIR
 10
0.0
 20
1.0
 30
0.0
  9
$USERI1
 70
     0
  9
$USERI2
 70
     0
  9
$USERI3
 70
     0
  9
$USERI4
 70
     0
  9
$USERI5
 70
     0
  9
$USERR1
 40
0.0
  9
$USERR2
 40
0.0
  9
$USERR3
 40
0.0
  9
$USERR4
 40
0.0
  9
$USERR5
 40
0.0
  9
$WORLDVIEW
 70
     1
  9
$SHADEDGE
 70
     0
  9
$SHADEDIF
 70
    70
  9
$TILEMODE
 70
     1
  9
$MAXACTVP
 70
    16
  9
$PLIMCHECK
 70
     0
  9
$PEXTMIN
 10
-0.805942
 20
0.005011
 30
0.0
  9
$PEXTMAX
 10
20.392854
 20
13.725274
 30
0.0
  9
$PLIMMIN
 10
0.0
 20
0.0
  9
$PLIMMAX
 10
12.0
 20
9.0
  9
$UNITMODE
 70
     0
  9
$VISRETAIN
 70
     0
  9
$PLINEGEN
 70
     0
  9
$PSLTSCALE
 70
     0
  0
ENDSEC
  0
SECTION
  2
TABLES
  0
TABLE
  2
VPORT
 70
     2
  0
VPORT
  2
*ACTIVE
 70
     0
 10
0.0
 20
0.0
 11
1.0
 21
1.0
 12
187.742517
 22
445.033509
 13
0.0
 23
0.0
 14
1.0
 24
1.0
 15
50.0
 25
50.0
 16
0.0
 26
0.0
 36
1.0
 17
0.0
 27
0.0
 37
0.0
 40
915.713357
 41
1.865779
 42
50.0
 43
0.0
 44
0.0
 50
0.0
 51
0.0
 71
     0
 72
   100
 73
     1
 74
     1
 75
     0
 76
     0
 77
     0
 78
     0
  0
ENDTAB
  0
TABLE
  2
LTYPE
 70
     3
  0
LTYPE
  2
CONTINUOUS
 70
     0
  3
Solid Line
 72
    65
 73
     0
 40
0.0
  0
LTYPE
  2
31
 70
     0
  3

 72
    65
 73
     4
 40
2.1
 49
1.5
 49
-0.3
 49
0.0
 49
-0.3
  0
LTYPE
  2
DURCHGEHEND
 70
     0
  3

 72
    65
 73
     0
 40
0.0
  0
ENDTAB
  0
TABLE
  2
LAYER
 70
    10
  0
LAYER
  2
0
 70
     0
 62
     7
  6
CONTINUOUS
  0
LAYER
  2
DEFPOINTS
 70
     0
 62
     7
  6
CONTINUOUS
  0
LAYER
  2
TEAM-AXE
 70
     0
 62
    10
  6
31
  0
LAYER
  2
TEAM-MAS
 70
     0
 62
     9
  6
CONTINUOUS
  0
LAYER
  2
TEAM-TXT
 70
     0
 62
    11
  6
CONTINUOUS
  0
LAYER
  2
TEAM-COLD
 70
     0
 62
     3
  6
CONTINUOUS
  0
LAYER
  2
TEAM-KAN
 70
     0
 62
     6
  6
CONTINUOUS
  0
LAYER
  2
TEAM-WARM
 70
     0
 62
     1
  6
CONTINUOUS
  0
LAYER
  2
TEAM-INSP
 70
     0
 62
     5
  6
CONTINUOUS
  0
LAYER
  2
STANDARDEBENE
 70
     0
 62
     7
  6
DURCHGEHEND
  0
ENDTAB
  0
TABLE
  2
STYLE
 70
     2
  0
STYLE
  2
STANDARD
 70
     0
 40
0.0
 41
1.0
 50
0.0
 71
     0
 42
200.0
  3
txt
  4

  0
STYLE
  2
TEAM
 70
     0
 40
0.0
 41
0.8
 50
15.0
 71
     0
 42
7.0
  3
ROMANS.shx
  4

  0
ENDTAB
  0
TABLE
  2
VIEW
 70
     0
  0
ENDTAB
  0
TABLE
  2
UCS
 70
     0
  0
ENDTAB
  0
TABLE
  2
APPID
 70
     1
  0
APPID
  2
ACAD
 70
     0
  0
ENDTAB
  0
TABLE
  2
DIMSTYLE
 70
     1
  0
DIMSTYLE
  2
TEAM
 70
     0
  3

  4

  5

  6

  7

 40
0.0
 41
20.0
 42
10.0
 43
1.0
 44
1.0
 45
0.0
 46
0.0
 47
0.0
 48
0.0
140
35.0
141
1.0
142
0.0
143
25.4
144
1.0
145
0.0
146
1.0
147
15.0
 71
     0
 72
     0
 73
     0
 74
     0
 75
     0
 76
     0
 77
     0
 78
     0
170
     0
171
     2
172
     0
173
     0
174
     0
175
     0
176
     9
177
     9
178
    11
  0
ENDTAB
  0
ENDSEC
  0
SECTION
  2
BLOCKS
  0
BLOCK
  8
0
  2
$MODEL_SPACE
 70
     0
 10
0.0
 20
0.0
 30
0.0
  3
$MODEL_SPACE
  1

  0
ENDBLK
  5
339
  8
0
  0
BLOCK
 67
     1
  8
0
  2
$PAPER_SPACE
 70
     0
 10
0.0
 20
0.0
 30
0.0
  3
$PAPER_SPACE
  1

  0
ENDBLK
  5
337
 67
     1
  8
0
  0
BLOCK
  8
0
  2
*D0
 70
     1
 10
0.0
 20
0.0
 30
0.0
  3
*D0
  1

  0
LINE
  5
A8
  8
0
  6
BYBLOCK
 62
     9
 10
4010.0
 20
28900.000007
 30
0.0
 11
4500.075777
 21
28900.000007
 31
0.0
  0
LINE
  5
A9
  8
0
  6
BYBLOCK
 62
     9
 10
4040.0
 20
28560.0
 30
0.0
 11
4500.075777
 21
28560.0
 31
0.0
  0
LINE
  5
AA
  8
0
  6
BYBLOCK
 62
     9
 10
4499.075777
 20
28880.000007
 30
0.0
 11
4499.075777
 21
28788.750004
 31
0.0
  0
LINE
  5
AB
  8
0
  6
BYBLOCK
 62
     9
 10
4499.075777
 20
28580.0
 30
0.0
 11
4499.075777
 21
28671.250004
 31
0.0
  0
SOLID
  5
AC
  8
0
  6
BYBLOCK
 62
     9
 10
4495.742444
 20
28880.000007
 30
0.0
 11
4502.40911
 21
28880.000007
 31
0.0
 12
4499.075777
 22
28900.000007
 32
0.0
 13
4499.075777
 23
28900.000007
 33
0.0
  0
SOLID
  5
AD
  8
0
  6
BYBLOCK
 62
     9
 10
4495.742444
 20
28580.0
 30
0.0
 11
4502.40911
 21
28580.0
 31
0.0
 12
4499.075777
 22
28560.0
 32
0.0
 13
4499.075777
 23
28560.0
 33
0.0
  0
TEXT
  5
AE
  8
0
  6
BYBLOCK
 62
    11
 10
4516.575777
 20
28686.250004
 30
0.0
 40
35.0
  1
340
 50
90.0
  0
POINT
  5
AF
  8
DEFPOINTS
  6
BYBLOCK
 62
     0
 10
4000.0
 20
28900.000007
 30
0.0
  0
POINT
  5
B0
  8
DEFPOINTS
  6
BYBLOCK
 62
     0
 10
4030.0
 20
28560.0
 30
0.0
  0
POINT
  5
B1
  8
DEFPOINTS
  6
BYBLOCK
 62
     0
 10
4499.075777
 20
28560.0
 30
0.0
  0
ENDBLK
  5
B3
  8
0
  0
BLOCK
  8
0
  2
*D1
 70
     1
 10
0.0
 20
0.0
 30
0.0
  3
*D1
  1

  0
LINE
  5
9A
  8
0
  6
BYBLOCK
 62
     9
 10
4201.393669
 20
28900.000007
 30
0.0
 11
4298.274855
 21
28900.000007
 31
0.0
  0
LINE
  5
9B
  8
0
  6
BYBLOCK
 62
     9
 10
4121.17968
 20
28745.001604
 30
0.0
 11
4298.274855
 21
28745.001604
 31
0.0
  0
LINE
  5
9C
  8
0
  6
BYBLOCK
 62
     9
 10
4297.274855
 20
28880.000007
 30
0.0
 11
4297.274855
 21
28865.000007
 31
0.0
  0
LINE
  5
9D
  8
0
  6
BYBLOCK
 62
     9
 10
4297.274855
 20
28765.001604
 30
0.0
 11
4297.274855
 21
28780.001604
 31
0.0
  0
TEXT
  5
9E
  8
0
  6
BYBLOCK
 62
    11
 10
4314.774855
 20
28781.797472
 30
0.0
 40
35.0
  1
155
 50
90.0
  0
SOLID
  5
9F
  8
0
  6
BYBLOCK
 62
     9
 10
4293.941521
 20
28880.000007
 30
0.0
 11
4300.608188
 21
28880.000007
 31
0.0
 12
4297.274855
 22
28900.000007
 32
0.0
 13
4297.274855
 23
28900.000007
 33
0.0
  0
SOLID
  5
A0
  8
0
  6
BYBLOCK
 62
     9
 10
4293.941521
 20
28765.001604
 30
0.0
 11
4300.608188
 21
28765.001604
 31
0.0
 12
4297.274855
 22
28745.001604
 32
0.0
 13
4297.274855
 23
28745.001604
 33
0.0
  0
POINT
  5
A1
  8
DEFPOINTS
  6
BYBLOCK
 62
     0
 10
4191.393669
 20
28900.000007
 30
0.0
  0
POINT
  5
A2
  8
DEFPOINTS
  6
BYBLOCK
 62
     0
 10
4111.17968
 20
28745.001604
 30
0.0
  0
POINT
  5
A3
  8
DEFPOINTS
  6
BYBLOCK
 62
     0
 10
4297.274855
 20
28745.001604
 30
0.0
  0
ENDBLK
  5
A5
  8
0
  0
BLOCK
  8
0
  2
*D2
 70
     1
 10
0.0
 20
0.0
 30
0.0
  3
*D2
  1

  0
LINE
  5
8C
  8
0
  6
BYBLOCK
 62
     9
 10
4010.0
 20
28900.000007
 30
0.0
 11
4366.895193
 21
28900.000007
 31
0.0
  0
LINE
  5
8D
  8
0
  6
BYBLOCK
 62
     9
 10
4045.0
 20
28730.005283
 30
0.0
 11
4366.895193
 21
28730.005283
 31
0.0
  0
LINE
  5
8E
  8
0
  6
BYBLOCK
 62
     9
 10
4365.895193
 20
28880.000007
 30
0.0
 11
4365.895193
 21
28865.000007
 31
0.0
  0
LINE
  5
8F
  8
0
  6
BYBLOCK
 62
     9
 10
4365.895193
 20
28750.005283
 30
0.0
 11
4365.895193
 21
28765.005283
 31
0.0
  0
TEXT
  5
90
  8
0
  6
BYBLOCK
 62
    11
 10
4383.395193
 20
28777.105978
 30
0.0
 40
35.0
  1
170
 50
90.0
  0
SOLID
  5
91
  8
0
  6
BYBLOCK
 62
     9
 10
4362.56186
 20
28880.000007
 30
0.0
 11
4369.228527
 21
28880.000007
 31
0.0
 12
4365.895193
 22
28900.000007
 32
0.0
 13
4365.895193
 23
28900.000007
 33
0.0
  0
SOLID
  5
92
  8
0
  6
BYBLOCK
 62
     9
 10
4362.56186
 20
28750.005283
 30
0.0
 11
4369.228527
 21
28750.005283
 31
0.0
 12
4365.895193
 22
28730.005283
 32
0.0
 13
4365.895193
 23
28730.005283
 33
0.0
  0
POINT
  5
93
  8
DEFPOINTS
  6
BYBLOCK
 62
     0
 10
4000.0
 20
28900.000007
 30
0.0
  0
POINT
  5
94
  8
DEFPOINTS
  6
BYBLOCK
 62
     0
 10
4035.0
 20
28730.005283
 30
0.0
  0
POINT
  5
95
  8
DEFPOINTS
  6
BYBLOCK
 62
     0
 10
4365.895193
 20
28730.005283
 30
0.0
  0
ENDBLK
  5
97
  8
0
  0
BLOCK
  8
0
  2
*D3
 70
     1
 10
0.0
 20
0.0
 30
0.0
  3
*D3
  1

  0
LINE
  5
7E
  8
0
  6
BYBLOCK
 62
     9
 10
4105.0
 20
28610.0
 30
0.0
 11
4431.849985
 21
28610.0
 31
0.0
  0
LINE
  5
7F
  8
0
  6
BYBLOCK
 62
     9
 10
4198.447597
 20
28900.000007
 30
0.0
 11
4431.849985
 21
28900.000007
 31
0.0
  0
LINE
  5
80
  8
0
  6
BYBLOCK
 62
     9
 10
4430.849985
 20
28630.0
 30
0.0
 11
4430.849985
 21
28696.250004
 31
0.0
  0
LINE
  5
81
  8
0
  6
BYBLOCK
 62
     9
 10
4430.849985
 20
28880.000007
 30
0.0
 11
4430.849985
 21
28813.750004
 31
0.0
  0
SOLID
  5
82
  8
0
  6
BYBLOCK
 62
     9
 10
4427.516652
 20
28630.0
 30
0.0
 11
4434.183318
 21
28630.0
 31
0.0
 12
4430.849985
 22
28610.0
 32
0.0
 13
4430.849985
 23
28610.0
 33
0.0
  0
SOLID
  5
83
  8
0
  6
BYBLOCK
 62
     9
 10
4427.516652
 20
28880.000007
 30
0.0
 11
4434.183318
 21
28880.000007
 31
0.0
 12
4430.849985
 22
28900.000007
 32
0.0
 13
4430.849985
 23
28900.000007
 33
0.0
  0
TEXT
  5
84
  8
0
  6
BYBLOCK
 62
    11
 10
4448.349985
 20
28711.250004
 30
0.0
 40
35.0
  1
290
 50
90.0
  0
POINT
  5
85
  8
DEFPOINTS
  6
BYBLOCK
 62
     0
 10
4095.0
 20
28610.0
 30
0.0
  0
POINT
  5
86
  8
DEFPOINTS
  6
BYBLOCK
 62
     0
 10
4188.447597
 20
28900.000007
 30
0.0
  0
POINT
  5
87
  8
DEFPOINTS
  6
BYBLOCK
 62
     0
 10
4430.849985
 20
28900.000007
 30
0.0
  0
ENDBLK
  5
89
  8
0
  0
BLOCK
  8
0
  2
*D4
 70
     1
 10
0.0
 20
0.0
 30
0.0
  3
*D4
  1

  0
LINE
  5
70
  8
0
  6
BYBLOCK
 62
     9
 10
4010.0
 20
28900.000007
 30
0.0
 11
4568.599053
 21
28900.000007
 31
0.0
  0
LINE
  5
71
  8
0
  6
BYBLOCK
 62
     9
 10
4010.0
 20
28000.0
 30
0.0
 11
4568.599053
 21
28000.0
 31
0.0
  0
LINE
  5
72
  8
0
  6
BYBLOCK
 62
     9
 10
4567.599053
 20
28880.000007
 30
0.0
 11
4567.599053
 21
28505.833337
 31
0.0
  0
LINE
  5
73
  8
0
  6
BYBLOCK
 62
     9
 10
4567.599053
 20
28020.0
 30
0.0
 11
4567.599053
 21
28394.16667
 31
0.0
  0
SOLID
  5
74
  8
0
  6
BYBLOCK
 62
     9
 10
4564.26572
 20
28880.000007
 30
0.0
 11
4570.932386
 21
28880.000007
 31
0.0
 12
4567.599053
 22
28900.000007
 32
0.0
 13
4567.599053
 23
28900.000007
 33
0.0
  0
SOLID
  5
75
  8
0
  6
BYBLOCK
 62
     9
 10
4564.26572
 20
28020.0
 30
0.0
 11
4570.932386
 21
28020.0
 31
0.0
 12
4567.599053
 22
28000.0
 32
0.0
 13
4567.599053
 23
28000.0
 33
0.0
  0
TEXT
  5
76
  8
0
  6
BYBLOCK
 62
    11
 10
4585.099053
 20
28409.16667
 30
0.0
 40
35.0
  1
900
 50
90.0
  0
POINT
  5
77
  8
DEFPOINTS
  6
BYBLOCK
 62
     0
 10
4000.0
 20
28900.000007
 30
0.0
  0
POINT
  5
78
  8
DEFPOINTS
  6
BYBLOCK
 62
     0
 10
4000.0
 20
28000.0
 30
0.0
  0
POINT
  5
79
  8
DEFPOINTS
  6
BYBLOCK
 62
     0
 10
4567.599053
 20
28000.0
 30
0.0
  0
ENDBLK
  5
7B
  8
0
  0
BLOCK
  8
0
  2
*D5
 70
     1
 10
0.0
 20
0.0
 30
0.0
  3
*D5
  1

  0
LINE
  5
62
  8
0
  6
BYBLOCK
 62
     9
 10
4040.0
 20
28560.0
 30
0.0
 11
4501.075777
 21
28560.0
 31
0.0
  0
LINE
  5
63
  8
0
  6
BYBLOCK
 62
     9
 10
4010.0
 20
28000.0
 30
0.0
 11
4501.075777
 21
28000.0
 31
0.0
  0
LINE
  5
64
  8
0
  6
BYBLOCK
 62
     9
 10
4500.075777
 20
28540.0
 30
0.0
 11
4500.075777
 21
28338.75
 31
0.0
  0
LINE
  5
65
  8
0
  6
BYBLOCK
 62
     9
 10
4500.075777
 20
28020.0
 30
0.0
 11
4500.075777
 21
28221.25
 31
0.0
  0
SOLID
  5
66
  8
0
  6
BYBLOCK
 62
     9
 10
4496.742444
 20
28540.0
 30
0.0
 11
4503.40911
 21
28540.0
 31
0.0
 12
4500.075777
 22
28560.0
 32
0.0
 13
4500.075777
 23
28560.0
 33
0.0
  0
SOLID
  5
67
  8
0
  6
BYBLOCK
 62
     9
 10
4496.742444
 20
28020.0
 30
0.0
 11
4503.40911
 21
28020.0
 31
0.0
 12
4500.075777
 22
28000.0
 32
0.0
 13
4500.075777
 23
28000.0
 33
0.0
  0
TEXT
  5
68
  8
0
  6
BYBLOCK
 62
    11
 10
4517.575777
 20
28236.25
 30
0.0
 40
35.0
  1
560
 50
90.0
  0
POINT
  5
69
  8
DEFPOINTS
  6
BYBLOCK
 62
     0
 10
4030.0
 20
28560.0
 30
0.0
  0
POINT
  5
6A
  8
DEFPOINTS
  6
BYBLOCK
 62
     0
 10
4000.0
 20
28000.0
 30
0.0
  0
POINT
  5
6B
  8
DEFPOINTS
  6
BYBLOCK
 62
     0
 10
4500.075777
 20
28000.0
 30
0.0
  0
ENDBLK
  5
6D
  8
0
  0
BLOCK
  8
0
  2
*D6
 70
     1
 10
0.0
 20
0.0
 30
0.0
  3
*D6
  1

  0
LINE
  5
54
  8
0
  6
BYBLOCK
 62
     9
 10
4105.0
 20
28610.0
 30
0.0
 11
4431.849985
 21
28610.0
 31
0.0
  0
LINE
  5
55
  8
0
  6
BYBLOCK
 62
     9
 10
4010.0
 20
28000.0
 30
0.0
 11
4431.849985
 21
28000.0
 31
0.0
  0
LINE
  5
56
  8
0
  6
BYBLOCK
 62
     9
 10
4430.849985
 20
28590.0
 30
0.0
 11
4430.849985
 21
28357.916667
 31
0.0
  0
LINE
  5
57
  8
0
  6
BYBLOCK
 62
     9
 10
4430.849985
 20
28020.0
 30
0.0
 11
4430.849985
 21
28252.083333
 31
0.0
  0
SOLID
  5
58
  8
0
  6
BYBLOCK
 62
     9
 10
4427.516652
 20
28590.0
 30
0.0
 11
4434.183318
 21
28590.0
 31
0.0
 12
4430.849985
 22
28610.0
 32
0.0
 13
4430.849985
 23
28610.0
 33
0.0
  0
SOLID
  5
59
  8
0
  6
BYBLOCK
 62
     9
 10
4427.516652
 20
28020.0
 30
0.0
 11
4434.183318
 21
28020.0
 31
0.0
 12
4430.849985
 22
28000.0
 32
0.0
 13
4430.849985
 23
28000.0
 33
0.0
  0
TEXT
  5
5A
  8
0
  6
BYBLOCK
 62
    11
 10
4448.349985
 20
28267.083333
 30
0.0
 40
35.0
  1
610
 50
90.0
  0
POINT
  5
5B
  8
DEFPOINTS
  6
BYBLOCK
 62
     0
 10
4095.0
 20
28610.0
 30
0.0
  0
POINT
  5
5C
  8
DEFPOINTS
  6
BYBLOCK
 62
     0
 10
4000.0
 20
28000.0
 30
0.0
  0
POINT
  5
5D
  8
DEFPOINTS
  6
BYBLOCK
 62
     0
 10
4430.849985
 20
28000.0
 30
0.0
  0
ENDBLK
  5
5F
  8
0
  0
BLOCK
  8
0
  2
*D7
 70
     1
 10
0.0
 20
0.0
 30
0.0
  3
*D7
  1

  0
LINE
  5
25
  8
0
  6
BYBLOCK
 62
     9
 10
3925.0
 20
28580.0
 30
0.0
 11
3925.0
 21
28465.288366
 31
0.0
  0
LINE
  5
26
  8
0
  6
BYBLOCK
 62
     9
 10
4075.0
 20
28580.0
 30
0.0
 11
4075.0
 21
28465.288366
 31
0.0
  0
LINE
  5
27
  8
0
  6
BYBLOCK
 62
     9
 10
3945.0
 20
28466.288366
 30
0.0
 11
3960.0
 21
28466.288366
 31
0.0
  0
LINE
  5
28
  8
0
  6
BYBLOCK
 62
     9
 10
4055.0
 20
28466.288366
 30
0.0
 11
4040.0
 21
28466.288366
 31
0.0
  0
TEXT
  5
29
  8
0
  6
BYBLOCK
 62
    11
 10
3962.083333
 20
28448.788366
 30
0.0
 40
35.0
  1
150
  0
SOLID
  5
2A
  8
0
  6
BYBLOCK
 62
     9
 10
3945.0
 20
28469.6217
 30
0.0
 11
3945.0
 21
28462.955033
 31
0.0
 12
3925.0
 22
28466.288366
 32
0.0
 13
3925.0
 23
28466.288366
 33
0.0
  0
SOLID
  5
2B
  8
0
  6
BYBLOCK
 62
     9
 10
4055.0
 20
28469.6217
 30
0.0
 11
4055.0
 21
28462.955033
 31
0.0
 12
4075.0
 22
28466.288366
 32
0.0
 13
4075.0
 23
28466.288366
 33
0.0
  0
POINT
  5
2C
  8
DEFPOINTS
  6
BYBLOCK
 62
     0
 10
3925.0
 20
28590.0
 30
0.0
  0
POINT
  5
2E
  8
DEFPOINTS
  6
BYBLOCK
 62
     0
 10
4075.0
 20
28590.0
 30
0.0
  0
POINT
  5
2F
  8
DEFPOINTS
  6
BYBLOCK
 62
     0
 10
4075.0
 20
28466.288366
 30
0.0
  0
ENDBLK
  5
31
  8
0
  0
ENDSEC
  0
SECTION
  2
ENTITIES
  0
POLYLINE
  5
20
  8
STANDARDEBENE
 62
     2
 66
     1
 10
0.0
 20
0.0
 30
0.0
  0
VERTEX
  5
33F
  8
STANDARDEBENE
 62
     2
 10
192.037956
 20
899.998542
 30
0.0
  0
VERTEX
  5
340
  8
STANDARDEBENE
 62
     2
 10
192.246635
 20
900.009223
 30
0.0
  0
VERTEX
  5
341
  8
STANDARDEBENE
 62
     2
 10
192.835991
 20
900.028449
 30
0.0
  0
VERTEX
  5
342
  8
STANDARDEBENE
 62
     2
 10
193.750908
 20
900.036994
 30
0.0
  0
VERTEX
  5
343
  8
STANDARDEBENE
 62
     2
 10
194.936454
 20
900.015693
 30
0.0
  0
VERTEX
  5
344
  8
STANDARDEBENE
 62
     2
 10
196.337394
 20
899.945259
 30
0.0
  0
VERTEX
  5
345
  8
STANDARDEBENE
 62
     2
 10
197.898796
 20
899.806526
 30
0.0
  0
VERTEX
  5
346
  8
STANDARDEBENE
 62
     2
 10
199.565544
 20
899.580268
 30
0.0
  0
VERTEX
  5
347
  8
STANDARDEBENE
 62
     2
 10
201.282646
 20
899.247261
 30
0.0
  0
VERTEX
  5
348
  8
STANDARDEBENE
 62
     2
 10
202.994926
 20
898.788337
 30
0.0
  0
VERTEX
  5
349
  8
STANDARDEBENE
 62
     2
 10
204.647453
 20
898.18415
 30
0.0
  0
VERTEX
  5
34A
  8
STANDARDEBENE
 62
     2
 10
206.185112
 20
897.415657
 30
0.0
  0
VERTEX
  5
34B
  8
STANDARDEBENE
 62
     2
 10
207.552787
 20
896.463508
 30
0.0
  0
VERTEX
  5
34C
  8
STANDARDEBENE
 62
     2
 10
208.695488
 20
895.308601
 30
0.0
  0
VERTEX
  5
34D
  8
STANDARDEBENE
 62
     2
 10
209.558159
 20
893.931587
 30
0.0
  0
VERTEX
  5
34E
  8
STANDARDEBENE
 62
     2
 10
210.085685
 20
892.313362
 30
0.0
  0
VERTEX
  5
34F
  8
STANDARDEBENE
 62
     2
 10
210.223076
 20
890.434699
 30
0.0
  0
VERTEX
  5
350
  8
STANDARDEBENE
 62
     2
 10
209.915214
 20
888.276313
 30
0.0
  0
VERTEX
  5
351
  8
STANDARDEBENE
 62
     2
 10
209.107048
 20
885.819038
 30
0.0
  0
VERTEX
  5
352
  8
STANDARDEBENE
 62
     2
 10
207.743522
 20
883.043647
 30
0.0
  0
VERTEX
  5
353
  8
STANDARDEBENE
 62
     2
 10
205.769645
 20
879.930976
 30
0.0
  0
SEQEND
  5
354
  8
STANDARDEBENE
 62
     2
  0
DIMENSION
  5
23
  8
TEAM-MAS
  2
*D7
 10
75.0
 20
466.288366
 30
0.0
 11
0.0
 21
466.288366
 31
0.0
 12
-4000.0
 22
-28000.0
 32
0.0
 70
   128
 13
-75.0
 23
590.0
 33
0.0
 14
75.0
 24
590.0
 34
0.0
  0
CIRCLE
  5
32
  8
TEAM-INSP
 10
0.0
 20
0.0
 30
0.0
 40
10.0
  0
LINE
  5
34
  8
STANDARDEBENE
 62
     2
 10
-191.393669
 20
900.000007
 30
0.0
 11
191.393669
 21
900.000007
 31
0.0
  0
LINE
  5
35
  8
TEAM-AXE
 10
-95.0
 20
610.0
 30
0.0
 11
-55.0
 21
610.0
 31
0.0
  0
CIRCLE
  5
38
  8
TEAM-WARM
 10
-75.0
 20
610.0
 30
0.0
 40
10.0
  0
LINE
  5
3A
  8
TEAM-AXE
 10
-75.0
 20
630.0
 30
0.0
 11
-75.0
 21
590.0
 31
0.0
210
0.0
220
-0.0
230
-1.0
  0
LINE
  5
3B
  8
TEAM-AXE
 10
55.0
 20
610.0
 30
0.0
 11
95.0
 21
610.0
 31
0.0
  0
CIRCLE
  5
3C
  8
TEAM-COLD
 10
75.0
 20
610.0
 30
0.0
 40
10.0
  0
LINE
  5
3E
  8
TEAM-AXE
 10
75.0
 20
630.0
 30
0.0
 11
75.0
 21
590.0
 31
0.0
210
0.0
220
-0.0
230
-1.0
  0
LINE
  5
3F
  8
TEAM-AXE
 10
-30.0
 20
560.0
 30
0.0
 11
30.0
 21
560.0
 31
0.0
  0
CIRCLE
  5
40
  8
TEAM-KAN
 10
0.0
 20
560.0
 30
0.0
 40
20.0
  0
LINE
  5
42
  8
TEAM-AXE
 10
-30.0
 20
560.0
 30
0.0
 11
30.0
 21
560.0
 31
0.0
  0
CIRCLE
  5
43
  8
TEAM-KAN
 10
0.0
 20
560.0
 30
0.0
 40
20.0
  0
TEXT
  5
44
  8
TEAM-TXT
 10
-103.510021
 20
822.178077
 30
0.0
 40
30.0
  1
team 211120
 41
0.8
 51
15.0
  7
TEAM
  0
LINE
  5
47
  8
TEAM-AXE
 10
0.0
 20
900.000007
 30
0.0
 11
0.0
 21
499.218706
 31
0.0
210
0.0
220
-0.0
230
-1.0
  0
LINE
  5
48
  8
STANDARDEBENE
 62
     2
 10
120.21096
 20
764.534715
 30
0.0
 11
68.452781
 21
764.534715
 31
0.0
  0
LINE
  5
49
  8
STANDARDEBENE
 62
     2
 10
38.348533
 20
729.376297
 30
0.0
 11
38.348533
 21
745.001604
 31
0.0
  0
LINE
  5
4A
  8
STANDARDEBENE
 62
     2
 10
-117.45356
 20
764.534715
 30
0.0
 11
-75.202187
 21
764.534715
 31
0.0
  0
LINE
  5
4B
  8
STANDARDEBENE
 62
     2
 10
-36.647835
 20
743.946001
 30
0.0
 11
-36.647835
 21
729.376297
 31
0.0
  0
LINE
  5
4C
  8
STANDARDEBENE
 62
     2
 10
-36.647835
 20
729.376297
 30
0.0
 11
38.348533
 21
729.376297
 31
0.0
  0
LINE
  5
4D
  8
STANDARDEBENE
 62
     2
 10
-111.116112
 20
745.001604
 30
0.0
 11
111.17968
 21
745.001604
 31
0.0
  0
POLYLINE
  5
4E
  8
STANDARDEBENE
 62
     2
 66
     1
 10
0.0
 20
0.0
 30
0.0
  0
VERTEX
  5
355
  8
STANDARDEBENE
 62
     2
 10
-122.73507
 20
765.590288
 30
0.0
  0
VERTEX
  5
356
  8
STANDARDEBENE
 62
     2
 10
-122.650505
 20
765.517534
 30
0.0
  0
VERTEX
  5
357
  8
STANDARDEBENE
 62
     2
 10
-122.408455
 20
765.30385
 30
0.0
  0
VERTEX
  5
358
  8
STANDARDEBENE
 62
     2
 10
-122.026436
 20
764.956102
 30
0.0
  0
VERTEX
  5
359
  8
STANDARDEBENE
 62
     2
 10
-121.521935
 20
764.481126
 30
0.0
  0
VERTEX
  5
35A
  8
STANDARDEBENE
 62
     2
 10
-120.912453
 20
763.885759
 30
0.0
  0
VERTEX
  5
35B
  8
STANDARDEBENE
 62
     2
 10
-120.215477
 20
763.176927
 30
0.0
  0
VERTEX
  5
35C
  8
STANDARDEBENE
 62
     2
 10
-119.448525
 20
762.361437
 30
0.0
  0
VERTEX
  5
35D
  8
STANDARDEBENE
 62
     2
 10
-118.629082
 20
761.446153
 30
0.0
  0
VERTEX
  5
35E
  8
STANDARDEBENE
 62
     2
 10
-117.774636
 20
760.437914
 30
0.0
  0
VERTEX
  5
35F
  8
STANDARDEBENE
 62
     2
 10
-116.902703
 20
759.343614
 30
0.0
  0
VERTEX
  5
360
  8
STANDARDEBENE
 62
     2
 10
-116.030754
 20
758.170091
 30
0.0
  0
VERTEX
  5
361
  8
STANDARDEBENE
 62
     2
 10
-115.176308
 20
756.924211
 30
0.0
  0
VERTEX
  5
362
  8
STANDARDEBENE
 62
     2
 10
-114.356865
 20
755.61281
 30
0.0
  0
VERTEX
  5
363
  8
STANDARDEBENE
 62
     2
 10
-113.589913
 20
754.242754
 30
0.0
  0
VERTEX
  5
364
  8
STANDARDEBENE
 62
     2
 10
-112.892937
 20
752.820909
 30
0.0
  0
VERTEX
  5
365
  8
STANDARDEBENE
 62
     2
 10
-112.283455
 20
751.354112
 30
0.0
  0
VERTEX
  5
366
  8
STANDARDEBENE
 62
     2
 10
-111.778954
 20
749.84923
 30
0.0
  0
VERTEX
  5
367
  8
STANDARDEBENE
 62
     2
 10
-111.396935
 20
748.313127
 30
0.0
  0
VERTEX
  5
368
  8
STANDARDEBENE
 62
     2
 10
-111.154885
 20
746.752672
 30
0.0
  0
VERTEX
  5
369
  8
STANDARDEBENE
 62
     2
 10
-111.07032
 20
745.174699
 30
0.0
  0
SEQEND
  5
36A
  8
STANDARDEBENE
 62
     2
  0
POLYLINE
  5
4F
  8
STANDARDEBENE
 62
     2
 66
     1
 10
0.0
 20
0.0
 30
0.0
  0
VERTEX
  5
36B
  8
STANDARDEBENE
 62
     2
 10
123.379448
 20
765.590288
 30
0.0
  0
VERTEX
  5
36C
  8
STANDARDEBENE
 62
     2
 10
123.291008
 20
765.517534
 30
0.0
  0
VERTEX
  5
36D
  8
STANDARDEBENE
 62
     2
 10
123.037864
 20
765.30385
 30
0.0
  0
VERTEX
  5
36E
  8
STANDARDEBENE
 62
     2
 10
122.638298
 20
764.956102
 30
0.0
  0
VERTEX
  5
36F
  8
STANDARDEBENE
 62
     2
 10
122.110679
 20
764.481126
 30
0.0
  0
VERTEX
  5
370
  8
STANDARDEBENE
 62
     2
 10
121.473228
 20
763.885759
 30
0.0
  0
VERTEX
  5
371
  8
STANDARDEBENE
 62
     2
 10
120.744285
 20
763.176927
 30
0.0
  0
VERTEX
  5
372
  8
STANDARDEBENE
 62
     2
 10
119.942161
 20
762.361437
 30
0.0
  0
VERTEX
  5
373
  8
STANDARDEBENE
 62
     2
 10
119.085136
 20
761.446153
 30
0.0
  0
VERTEX
  5
374
  8
STANDARDEBENE
 62
     2
 10
118.19149
 20
760.437914
 30
0.0
  0
VERTEX
  5
375
  8
STANDARDEBENE
 62
     2
 10
117.279564
 20
759.343614
 30
0.0
  0
VERTEX
  5
376
  8
STANDARDEBENE
 62
     2
 10
116.367637
 20
758.170091
 30
0.0
  0
VERTEX
  5
377
  8
STANDARDEBENE
 62
     2
 10
115.473991
 20
756.924211
 30
0.0
  0
VERTEX
  5
378
  8
STANDARDEBENE
 62
     2
 10
114.616966
 20
755.61281
 30
0.0
  0
VERTEX
  5
379
  8
STANDARDEBENE
 62
     2
 10
113.814842
 20
754.242754
 30
0.0
  0
VERTEX
  5
37A
  8
STANDARDEBENE
 62
     2
 10
113.085899
 20
752.820909
 30
0.0
  0
VERTEX
  5
37B
  8
STANDARDEBENE
 62
     2
 10
112.448448
 20
751.354112
 30
0.0
  0
VERTEX
  5
37C
  8
STANDARDEBENE
 62
     2
 10
111.920829
 20
749.84923
 30
0.0
  0
VERTEX
  5
37D
  8
STANDARDEBENE
 62
     2
 10
111.521263
 20
748.313127
 30
0.0
  0
VERTEX
  5
37E
  8
STANDARDEBENE
 62
     2
 10
111.268119
 20
746.752672
 30
0.0
  0
VERTEX
  5
37F
  8
STANDARDEBENE
 62
     2
 10
111.17968
 20
745.174699
 30
0.0
  0
SEQEND
  5
380
  8
STANDARDEBENE
 62
     2
  0
POLYLINE
  5
50
  8
STANDARDEBENE
 62
     2
 66
     1
 10
0.0
 20
0.0
 30
0.0
  0
VERTEX
  5
381
  8
STANDARDEBENE
 62
     2
 10
-191.393669
 20
899.998542
 30
0.0
  0
VERTEX
  5
382
  8
STANDARDEBENE
 62
     2
 10
-191.602349
 20
900.009223
 30
0.0
  0
VERTEX
  5
383
  8
STANDARDEBENE
 62
     2
 10
-192.191689
 20
900.028449
 30
0.0
  0
VERTEX
  5
384
  8
STANDARDEBENE
 62
     2
 10
-193.106636
 20
900.036994
 30
0.0
  0
VERTEX
  5
385
  8
STANDARDEBENE
 62
     2
 10
-194.292122
 20
900.015693
 30
0.0
  0
VERTEX
  5
386
  8
STANDARDEBENE
 62
     2
 10
-195.693093
 20
899.945259
 30
0.0
  0
VERTEX
  5
387
  8
STANDARDEBENE
 62
     2
 10
-197.254494
 20
899.806526
 30
0.0
  0
VERTEX
  5
388
  8
STANDARDEBENE
 62
     2
 10
-198.921242
 20
899.580268
 30
0.0
  0
VERTEX
  5
389
  8
STANDARDEBENE
 62
     2
 10
-200.638298
 20
899.247261
 30
0.0
  0
VERTEX
  5
38A
  8
STANDARDEBENE
 62
     2
 10
-202.350609
 20
898.788337
 30
0.0
  0
VERTEX
  5
38B
  8
STANDARDEBENE
 62
     2
 10
-204.003106
 20
898.18415
 30
0.0
  0
VERTEX
  5
38C
  8
STANDARDEBENE
 62
     2
 10
-205.540718
 20
897.415657
 30
0.0
  0
VERTEX
  5
38D
  8
STANDARDEBENE
 62
     2
 10
-206.908409
 20
896.463508
 30
0.0
  0
VERTEX
  5
38E
  8
STANDARDEBENE
 62
     2
 10
-208.05111
 20
895.308601
 30
0.0
  0
VERTEX
  5
38F
  8
STANDARDEBENE
 62
     2
 10
-208.913758
 20
893.931587
 30
0.0
  0
VERTEX
  5
390
  8
STANDARDEBENE
 62
     2
 10
-209.441292
 20
892.313362
 30
0.0
  0
VERTEX
  5
391
  8
STANDARDEBENE
 62
     2
 10
-209.578659
 20
890.434699
 30
0.0
  0
VERTEX
  5
392
  8
STANDARDEBENE
 62
     2
 10
-209.270798
 20
888.276313
 30
0.0
  0
VERTEX
  5
393
  8
STANDARDEBENE
 62
     2
 10
-208.462647
 20
885.819038
 30
0.0
  0
VERTEX
  5
394
  8
STANDARDEBENE
 62
     2
 10
-207.099152
 20
883.043647
 30
0.0
  0
VERTEX
  5
395
  8
STANDARDEBENE
 62
     2
 10
-205.125252
 20
879.930976
 30
0.0
  0
SEQEND
  5
396
  8
STANDARDEBENE
 62
     2
  0
POLYLINE
  5
51
  8
STANDARDEBENE
 62
     2
 66
     1
 10
0.0
 20
0.0
 30
0.0
  0
VERTEX
  5
397
  8
STANDARDEBENE
 62
     2
 10
-205.653756
 20
880.457344
 30
0.0
  0
VERTEX
  5
398
  8
STANDARDEBENE
 62
     2
 10
-205.406319
 20
879.940742
 30
0.0
  0
VERTEX
  5
399
  8
STANDARDEBENE
 62
     2
 10
-204.672463
 20
878.439826
 30
0.0
  0
VERTEX
  5
39A
  8
STANDARDEBENE
 62
     2
 10
-203.464852
 20
876.0279
 30
0.0
  0
VERTEX
  5
39B
  8
STANDARDEBENE
 62
     2
 10
-201.796181
 20
872.778144
 30
0.0
  0
VERTEX
  5
39C
  8
STANDARDEBENE
 62
     2
 10
-199.679116
 20
868.763923
 30
0.0
  0
VERTEX
  5
39D
  8
STANDARDEBENE
 62
     2
 10
-197.12632
 20
864.05854
 30
0.0
  0
VERTEX
  5
39E
  8
STANDARDEBENE
 62
     2
 10
-194.15049
 20
858.735176
 30
0.0
  0
VERTEX
  5
39F
  8
STANDARDEBENE
 62
     2
 10
-190.76429
 20
852.867195
 30
0.0
  0
VERTEX
  5
3A0
  8
STANDARDEBENE
 62
     2
 10
-186.980385
 20
846.527839
 30
0.0
  0
VERTEX
  5
3A1
  8
STANDARDEBENE
 62
     2
 10
-182.81147
 20
839.790412
 30
0.0
  0
VERTEX
  5
3A2
  8
STANDARDEBENE
 62
     2
 10
-178.270226
 20
832.728157
 30
0.0
  0
VERTEX
  5
3A3
  8
STANDARDEBENE
 62
     2
 10
-173.369301
 20
825.414375
 30
0.0
  0
VERTEX
  5
3A4
  8
STANDARDEBENE
 62
     2
 10
-168.121392
 20
817.92237
 30
0.0
  0
VERTEX
  5
3A5
  8
STANDARDEBENE
 62
     2
 10
-162.539177
 20
810.325324
 30
0.0
  0
VERTEX
  5
3A6
  8
STANDARDEBENE
 62
     2
 10
-156.635308
 20
802.696662
 30
0.0
  0
VERTEX
  5
3A7
  8
STANDARDEBENE
 62
     2
 10
-150.422493
 20
794.849565
 30
0.0
  0
VERTEX
  5
3A8
  8
STANDARDEBENE
 62
     2
 10
-143.913369
 20
787.156094
 30
0.0
  0
VERTEX
  5
3A9
  8
STANDARDEBENE
 62
     2
 10
-137.120644
 20
780.093248
 30
0.0
  0
VERTEX
  5
3AA
  8
STANDARDEBENE
 62
     2
 10
-130.056984
 20
773.070604
 30
0.0
  0
VERTEX
  5
3AB
  8
STANDARDEBENE
 62
     2
 10
-122.73507
 20
766.382677
 30
0.0
  0
SEQEND
  5
3AC
  8
STANDARDEBENE
 62
     2
  0
DIMENSION
  5
52
  8
TEAM-MAS
  2
*D6
 10
430.849985
 20
0.0
 30
0.0
 11
430.849985
 21
305.0
 31
0.0
 12
-4000.0
 22
-28000.0
 32
0.0
 13
95.0
 23
610.0
 33
0.0
 14
0.0
 24
0.0
 34
0.0
 50
90.0
  0
DIMENSION
  5
60
  8
TEAM-MAS
  2
*D5
 10
500.075777
 20
0.0
 30
0.0
 11
500.075777
 21
280.0
 31
0.0
 12
-4000.0
 22
-28000.0
 32
0.0
 13
30.0
 23
560.0
 33
0.0
 14
0.0
 24
0.0
 34
0.0
 50
90.0
  0
DIMENSION
  5
6E
  8
TEAM-MAS
  2
*D4
 10
567.599053
 20
0.0
 30
0.0
 11
567.599053
 21
450.000004
 31
0.0
 12
-4000.0
 22
-28000.0
 32
0.0
 13
0.0
 23
900.000007
 33
0.0
 14
0.0
 24
0.0
 34
0.0
 50
90.0
  0
DIMENSION
  5
7C
  8
TEAM-MAS
  2
*D3
 10
430.849985
 20
900.000007
 30
0.0
 11
430.849985
 21
755.000004
 31
0.0
 12
-4000.0
 22
-28000.0
 32
0.0
 13
95.0
 23
610.0
 33
0.0
 14
188.447597
 24
900.000007
 34
0.0
 50
90.0
1001
ACAD
1000
DSTYLE
1002
{
1070
    40
1040
1.0
1002
}
  0
DIMENSION
  5
8A
  8
TEAM-MAS
  2
*D2
 10
365.895193
 20
730.005283
 30
0.0
 11
365.895193
 21
815.022645
 31
0.0
 12
-4000.0
 22
-28000.0
 32
0.0
 70
   128
 13
0.0
 23
900.000007
 33
0.0
 14
35.0
 24
730.005283
 34
0.0
 50
90.0
  0
DIMENSION
  5
98
  8
TEAM-MAS
  2
*D1
 10
297.274855
 20
745.001604
 30
0.0
 11
297.274855
 21
822.630806
 31
0.0
 12
-4000.0
 22
-28000.0
 32
0.0
 70
   128
 13
191.393669
 23
900.000007
 33
0.0
 14
111.17968
 24
745.001604
 34
0.0
 50
90.0
1001
ACAD
1000
DSTYLE
1002
{
1070
    40
1040
1.0
1002
}
  0
DIMENSION
  5
A6
  8
TEAM-MAS
  2
*D0
 10
499.075777
 20
560.0
 30
0.0
 11
499.075777
 21
730.000004
 31
0.0
 12
-4000.0
 22
-28000.0
 32
0.0
 13
0.0
 23
900.000007
 33
0.0
 14
30.0
 24
560.0
 34
0.0
 50
90.0
  0
POLYLINE
  5
B4
  8
STANDARDEBENE
 62
     2
 66
     1
 10
0.0
 20
0.0
 30
0.0
  0
VERTEX
  5
3AD
  8
STANDARDEBENE
 62
     2
 10
206.298149
 20
880.457344
 30
0.0
  0
VERTEX
  5
3AE
  8
STANDARDEBENE
 62
     2
 10
206.050712
 20
879.940742
 30
0.0
  0
VERTEX
  5
3AF
  8
STANDARDEBENE
 62
     2
 10
205.316826
 20
878.439826
 30
0.0
  0
VERTEX
  5
3B0
  8
STANDARDEBENE
 62
     2
 10
204.109245
 20
876.0279
 30
0.0
  0
VERTEX
  5
3B1
  8
STANDARDEBENE
 62
     2
 10
202.440544
 20
872.778144
 30
0.0
  0
VERTEX
  5
3B2
  8
STANDARDEBENE
 62
     2
 10
200.323478
 20
868.763923
 30
0.0
  0
VERTEX
  5
3B3
  8
STANDARDEBENE
 62
     2
 10
197.770683
 20
864.05854
 30
0.0
  0
VERTEX
  5
3B4
  8
STANDARDEBENE
 62
     2
 10
194.794853
 20
858.735176
 30
0.0
  0
VERTEX
  5
3B5
  8
STANDARDEBENE
 62
     2
 10
191.408683
 20
852.867195
 30
0.0
  0
VERTEX
  5
3B6
  8
STANDARDEBENE
 62
     2
 10
187.624748
 20
846.527839
 30
0.0
  0
VERTEX
  5
3B7
  8
STANDARDEBENE
 62
     2
 10
183.455864
 20
839.790412
 30
0.0
  0
VERTEX
  5
3B8
  8
STANDARDEBENE
 62
     2
 10
178.914604
 20
832.728157
 30
0.0
  0
VERTEX
  5
3B9
  8
STANDARDEBENE
 62
     2
 10
174.013664
 20
825.414375
 30
0.0
  0
VERTEX
  5
3BA
  8
STANDARDEBENE
 62
     2
 10
168.76577
 20
817.92237
 30
0.0
  0
VERTEX
  5
3BB
  8
STANDARDEBENE
 62
     2
 10
163.183555
 20
810.325324
 30
0.0
  0
VERTEX
  5
3BC
  8
STANDARDEBENE
 62
     2
 10
157.279686
 20
802.696662
 30
0.0
  0
VERTEX
  5
3BD
  8
STANDARDEBENE
 62
     2
 10
151.066856
 20
794.849565
 30
0.0
  0
VERTEX
  5
3BE
  8
STANDARDEBENE
 62
     2
 10
144.557731
 20
787.970622
 30
0.0
  0
VERTEX
  5
3BF
  8
STANDARDEBENE
 62
     2
 10
137.765037
 20
780.093248
 30
0.0
  0
VERTEX
  5
3C0
  8
STANDARDEBENE
 62
     2
 10
130.701378
 20
773.070604
 30
0.0
  0
VERTEX
  5
3C1
  8
STANDARDEBENE
 62
     2
 10
123.379448
 20
766.382677
 30
0.0
  0
SEQEND
  5
3C2
  8
STANDARDEBENE
 62
     2
  0
ENDSEC
  0
EOF
