  0
SECTION
  2
HEADER
  9
$ACADVER
  1
AC1009
  9
$INSBASE
 10
0.0
 20
0.0
 30
0.0
  9
$EXTMIN
 10
-252.071545
 20
-550.091032
 30
0.0
  9
$EXTMAX
 10
403.415696
 20
10.032022
 30
0.0
  9
$LIMMIN
 10
-252.071545
 20
-550.091032
  9
$LIMMAX
 10
403.415696
 20
10.032022
  9
$ORTHOMODE
 70
     1
  9
$REGENMODE
 70
     1
  9
$FILLMODE
 70
     1
  9
$QTEXTMODE
 70
     0
  9
$MIRRTEXT
 70
     0
  9
$DRAGMODE
 70
     2
  9
$LTSCALE
 40
25.0
  9
$OSMODE
 70
     0
  9
$ATTMODE
 70
     1
  9
$TEXTSIZE
 40
200.0
  9
$TRACEWID
 40
1.0
  9
$TEXTSTYLE
  7
STANDARD
  9
$CLAYER
  8
TEAM-MAS
  9
$CELTYPE
  6
BYLAYER
  9
$CECOLOR
 62
   256
  9
$DIMSCALE
 40
0.0
  9
$DIMASZ
 40
20.0
  9
$DIMEXO
 40
10.0
  9
$DIMDLI
 40
1.0
  9
$DIMRND
 40
0.0
  9
$DIMDLE
 40
0.0
  9
$DIMEXE
 40
1.0
  9
$DIMTP
 40
0.0
  9
$DIMTM
 40
0.0
  9
$DIMTXT
 40
35.0
  9
$DIMCEN
 40
1.0
  9
$DIMTSZ
 40
0.0
  9
$DIMTOL
 70
     0
  9
$DIMLIM
 70
     0
  9
$DIMTIH
 70
     0
  9
$DIMTOH
 70
     0
  9
$DIMSE1
 70
     0
  9
$DIMSE2
 70
     0
  9
$DIMTAD
 70
     0
  9
$DIMZIN
 70
     0
  9
$DIMBLK
  1

  9
$DIMASO
 70
     1
  9
$DIMSHO
 70
     0
  9
$DIMPOST
  1

  9
$DIMAPOST
  1

  9
$DIMALT
 70
     0
  9
$DIMALTD
 70
     2
  9
$DIMALTF
 40
25.4
  9
$DIMLFAC
 40
1.0
  9
$DIMTOFL
 70
     0
  9
$DIMTVP
 40
0.0
  9
$DIMTIX
 70
     0
  9
$DIMSOXD
 70
     0
  9
$DIMSAH
 70
     0
  9
$DIMBLK1
  1

  9
$DIMBLK2
  1

  9
$DIMSTYLE
  2
TEAM
  9
$DIMCLRD
 70
     9
  9
$DIMCLRE
 70
     9
  9
$DIMCLRT
 70
    11
  9
$DIMTFAC
 40
1.0
  9
$DIMGAP
 40
15.0
  9
$LUNITS
 70
     2
  9
$LUPREC
 70
     1
  9
$SKETCHINC
 40
1.0
  9
$FILLETRAD
 40
50.0
  9
$AUNITS
 70
     0
  9
$AUPREC
 70
     0
  9
$MENU
  1
ROPLANS
  9
$ELEVATION
 40
0.0
  9
$PELEVATION
 40
0.0
  9
$THICKNESS
 40
0.0
  9
$LIMCHECK
 70
     0
  9
$BLIPMODE
 70
     1
  9
$CHAMFERA
 40
0.0
  9
$CHAMFERB
 40
0.0
  9
$SKPOLY
 70
     0
  9
$TDCREATE
 40
2450392.957851
  9
$TDUPDATE
 40
2455498.624065
  9
$TDINDWG
 40
1.987034
  9
$TDUSRTIMER
 40
1.987034
  9
$USRTIMER
 70
     1
  9
$ANGBASE
 50
0.0
  9
$ANGDIR
 70
     0
  9
$PDMODE
 70
     0
  9
$PDSIZE
 40
0.0
  9
$PLINEWID
 40
0.0
  9
$COORDS
 70
     2
  9
$SPLFRAME
 70
     0
  9
$SPLINETYPE
 70
     6
  9
$SPLINESEGS
 70
     8
  9
$ATTDIA
 70
     0
  9
$ATTREQ
 70
     0
  9
$HANDLING
 70
     1
  9
$HANDSEED
  5
100
  9
$SURFTAB1
 70
    24
  9
$SURFTAB2
 70
    24
  9
$SURFTYPE
 70
     6
  9
$SURFU
 70
     6
  9
$SURFV
 70
     6
  9
$UCSNAME
  2

  9
$UCSORG
 10
0.0
 20
0.0
 30
0.0
  9
$UCSXDIR
 10
1.0
 20
0.0
 30
0.0
  9
$UCSYDIR
 10
0.0
 20
1.0
 30
0.0
  9
$PUCSNAME
  2

  9
$PUCSORG
 10
0.0
 20
0.0
 30
0.0
  9
$PUCSXDIR
 10
1.0
 20
0.0
 30
0.0
  9
$PUCSYDIR
 10
0.0
 20
1.0
 30
0.0
  9
$USERI1
 70
     0
  9
$USERI2
 70
     0
  9
$USERI3
 70
     0
  9
$USERI4
 70
     0
  9
$USERI5
 70
     0
  9
$USERR1
 40
0.0
  9
$USERR2
 40
0.0
  9
$USERR3
 40
0.0
  9
$USERR4
 40
0.0
  9
$USERR5
 40
0.0
  9
$WORLDVIEW
 70
     1
  9
$SHADEDGE
 70
     0
  9
$SHADEDIF
 70
    70
  9
$TILEMODE
 70
     1
  9
$MAXACTVP
 70
    16
  9
$PLIMCHECK
 70
     0
  9
$PEXTMIN
 10
-0.805942
 20
0.005011
 30
0.0
  9
$PEXTMAX
 10
20.250094
 20
11.356329
 30
0.0
  9
$PLIMMIN
 10
0.0
 20
0.0
  9
$PLIMMAX
 10
12.0
 20
9.0
  9
$UNITMODE
 70
     0
  9
$VISRETAIN
 70
     0
  9
$PLINEGEN
 70
     0
  9
$PSLTSCALE
 70
     0
  0
ENDSEC
  0
SECTION
  2
TABLES
  0
TABLE
  2
VPORT
 70
     2
  0
VPORT
  2
*ACTIVE
 70
     0
 10
0.0
 20
0.0
 11
1.0
 21
1.0
 12
75.672076
 22
-270.029505
 13
0.0
 23
0.0
 14
1.0
 24
1.0
 15
50.0
 25
50.0
 16
0.0
 26
0.0
 36
1.0
 17
0.0
 27
0.0
 37
0.0
 40
563.56291
 41
1.865779
 42
50.0
 43
0.0
 44
0.0
 50
0.0
 51
0.0
 71
     0
 72
   100
 73
     1
 74
     1
 75
     0
 76
     0
 77
     0
 78
     0
  0
ENDTAB
  0
TABLE
  2
LTYPE
 70
     2
  0
LTYPE
  2
CONTINUOUS
 70
     0
  3
Solid Line
 72
    65
 73
     0
 40
0.0
  0
LTYPE
  2
31
 70
     0
  3

 72
    65
 73
     4
 40
2.1
 49
1.5
 49
-0.3
 49
0.0
 49
-0.3
  0
ENDTAB
  0
TABLE
  2
LAYER
 70
     8
  0
LAYER
  2
0
 70
     0
 62
     7
  6
CONTINUOUS
  0
LAYER
  2
DEFPOINTS
 70
     0
 62
     7
  6
CONTINUOUS
  0
LAYER
  2
TEAM-BODY
 70
     0
 62
     2
  6
CONTINUOUS
  0
LAYER
  2
TEAM-AXE
 70
     0
 62
    10
  6
31
  0
LAYER
  2
TEAM-MAS
 70
     0
 62
     9
  6
CONTINUOUS
  0
LAYER
  2
TEAM-TXT
 70
     0
 62
    11
  6
CONTINUOUS
  0
LAYER
  2
TEAM-DET1
 70
     0
 62
     4
  6
CONTINUOUS
  0
LAYER
  2
TEAM-INSP
 70
     0
 62
     5
  6
CONTINUOUS
  0
ENDTAB
  0
TABLE
  2
STYLE
 70
     2
  0
STYLE
  2
STANDARD
 70
     0
 40
0.0
 41
1.0
 50
0.0
 71
     0
 42
200.0
  3
txt
  4

  0
STYLE
  2
TEAM
 70
     0
 40
0.0
 41
0.8
 50
15.0
 71
     0
 42
7.0
  3
ROMANS.shx
  4

  0
ENDTAB
  0
TABLE
  2
VIEW
 70
     0
  0
ENDTAB
  0
TABLE
  2
UCS
 70
     0
  0
ENDTAB
  0
TABLE
  2
APPID
 70
     1
  0
APPID
  2
ACAD
 70
     0
  0
ENDTAB
  0
TABLE
  2
DIMSTYLE
 70
     1
  0
DIMSTYLE
  2
TEAM
 70
     0
  3

  4

  5

  6

  7

 40
0.0
 41
20.0
 42
10.0
 43
1.0
 44
1.0
 45
0.0
 46
0.0
 47
0.0
 48
0.0
140
35.0
141
1.0
142
0.0
143
25.4
144
1.0
145
0.0
146
1.0
147
15.0
 71
     0
 72
     0
 73
     0
 74
     0
 75
     0
 76
     0
 77
     0
 78
     0
170
     0
171
     2
172
     0
173
     0
174
     0
175
     0
176
     9
177
     9
178
    11
  0
ENDTAB
  0
ENDSEC
  0
SECTION
  2
BLOCKS
  0
BLOCK
  8
0
  2
$MODEL_SPACE
 70
     0
 10
0.0
 20
0.0
 30
0.0
  3
$MODEL_SPACE
  1

  0
ENDBLK
  5
F0
  8
0
  0
BLOCK
 67
     1
  8
0
  2
$PAPER_SPACE
 70
     0
 10
0.0
 20
0.0
 30
0.0
  3
$PAPER_SPACE
  1

  0
ENDBLK
  5
EE
 67
     1
  8
0
  0
BLOCK
  8
0
  2
*D0
 70
     1
 10
0.0
 20
0.0
 30
0.0
  3
*D0
  1

  0
LINE
  5
31
  8
0
  6
BYBLOCK
 62
     9
 10
8050.0
 20
175805.0
 30
0.0
 11
8327.180137
 21
175805.0
 31
0.0
  0
LINE
  5
32
  8
0
  6
BYBLOCK
 62
     9
 10
8010.0
 20
176000.0
 30
0.0
 11
8327.180137
 21
176000.0
 31
0.0
  0
LINE
  5
33
  8
0
  6
BYBLOCK
 62
     9
 10
8326.180137
 20
175825.0
 30
0.0
 11
8326.180137
 21
175858.713975
 31
0.0
  0
LINE
  5
34
  8
0
  6
BYBLOCK
 62
     9
 10
8326.180137
 20
175980.0
 30
0.0
 11
8326.180137
 21
175946.286025
 31
0.0
  0
SOLID
  5
35
  8
0
  6
BYBLOCK
 62
     9
 10
8322.846804
 20
175825.0
 30
0.0
 11
8329.513471
 21
175825.0
 31
0.0
 12
8326.180137
 22
175805.0
 32
0.0
 13
8326.180137
 23
175805.0
 33
0.0
  0
SOLID
  5
36
  8
0
  6
BYBLOCK
 62
     9
 10
8322.846804
 20
175980.0
 30
0.0
 11
8329.513471
 21
175980.0
 31
0.0
 12
8326.180137
 22
176000.0
 32
0.0
 13
8326.180137
 23
176000.0
 33
0.0
  0
TEXT
  5
37
  8
0
  6
BYBLOCK
 62
    11
 10
8343.680137
 20
175868.463975
 30
0.0
 40
35.0
  1
195
 50
90.0
  0
POINT
  5
38
  8
DEFPOINTS
  6
BYBLOCK
 62
     0
 10
8040.0
 20
175805.0
 30
0.0
  0
POINT
  5
39
  8
DEFPOINTS
  6
BYBLOCK
 62
     0
 10
8000.0
 20
176000.0
 30
0.0
  0
POINT
  5
3A
  8
DEFPOINTS
  6
BYBLOCK
 62
     0
 10
8326.180137
 20
176000.0
 30
0.0
  0
ENDBLK
  5
3C
  8
0
  0
BLOCK
  8
0
  2
*D1
 70
     1
 10
0.0
 20
0.0
 30
0.0
  3
*D1
  1

  0
LINE
  5
22
  8
0
  6
BYBLOCK
 62
     9
 10
8250.0
 20
175530.0
 30
0.0
 11
8388.60969
 21
175530.0
 31
0.0
  0
LINE
  5
23
  8
0
  6
BYBLOCK
 62
     9
 10
8010.0
 20
176000.0
 30
0.0
 11
8388.60969
 21
176000.0
 31
0.0
  0
LINE
  5
24
  8
0
  6
BYBLOCK
 62
     9
 10
8387.60969
 20
175550.0
 30
0.0
 11
8387.60969
 21
175716.73622
 31
0.0
  0
LINE
  5
25
  8
0
  6
BYBLOCK
 62
     9
 10
8387.60969
 20
175980.0
 30
0.0
 11
8387.60969
 21
175813.26378
 31
0.0
  0
SOLID
  5
26
  8
0
  6
BYBLOCK
 62
     9
 10
8384.276357
 20
175550.0
 30
0.0
 11
8390.943024
 21
175550.0
 31
0.0
 12
8387.60969
 22
175530.0
 32
0.0
 13
8387.60969
 23
175530.0
 33
0.0
  0
SOLID
  5
27
  8
0
  6
BYBLOCK
 62
     9
 10
8384.276357
 20
175980.0
 30
0.0
 11
8390.943024
 21
175980.0
 31
0.0
 12
8387.60969
 22
176000.0
 32
0.0
 13
8387.60969
 23
176000.0
 33
0.0
  0
TEXT
  5
28
  8
0
  6
BYBLOCK
 62
    11
 10
8405.10969
 20
175726.48622
 30
0.0
 40
35.0
  1
470
 50
90.0
  0
POINT
  5
29
  8
DEFPOINTS
  6
BYBLOCK
 62
     0
 10
8240.0
 20
175530.0
 30
0.0
  0
POINT
  5
2B
  8
DEFPOINTS
  6
BYBLOCK
 62
     0
 10
8000.0
 20
176000.0
 30
0.0
  0
POINT
  5
2C
  8
DEFPOINTS
  6
BYBLOCK
 62
     0
 10
8387.60969
 20
176000.0
 30
0.0
  0
ENDBLK
  5
2E
  8
0
  0
BLOCK
  8
0
  2
*D2
 70
     1
 10
0.0
 20
0.0
 30
0.0
  3
*D2
  1

  0
LINE
  5
5C
  8
0
  6
BYBLOCK
 62
     9
 10
7750.0
 20
175530.0
 30
0.0
 11
7750.0
 21
175466.148595
 31
0.0
  0
LINE
  5
5D
  8
0
  6
BYBLOCK
 62
     9
 10
8250.0
 20
175530.0
 30
0.0
 11
8250.0
 21
175466.148595
 31
0.0
  0
LINE
  5
5E
  8
0
  6
BYBLOCK
 62
     9
 10
7770.0
 20
175467.148595
 30
0.0
 11
7953.48622
 21
175467.148595
 31
0.0
  0
LINE
  5
5F
  8
0
  6
BYBLOCK
 62
     9
 10
8230.0
 20
175467.148595
 30
0.0
 11
8046.51378
 21
175467.148595
 31
0.0
  0
SOLID
  5
60
  8
0
  6
BYBLOCK
 62
     9
 10
7770.0
 20
175470.481928
 30
0.0
 11
7770.0
 21
175463.815261
 31
0.0
 12
7750.0
 22
175467.148595
 32
0.0
 13
7750.0
 23
175467.148595
 33
0.0
  0
SOLID
  5
61
  8
0
  6
BYBLOCK
 62
     9
 10
8230.0
 20
175470.481928
 30
0.0
 11
8230.0
 21
175463.815261
 31
0.0
 12
8250.0
 22
175467.148595
 32
0.0
 13
8250.0
 23
175467.148595
 33
0.0
  0
TEXT
  5
62
  8
0
  6
BYBLOCK
 62
    11
 10
7963.23622
 20
175449.648595
 30
0.0
 40
35.0
  1
500
  0
POINT
  5
63
  8
DEFPOINTS
  6
BYBLOCK
 62
     0
 10
7750.0
 20
175540.0
 30
0.0
  0
POINT
  5
64
  8
DEFPOINTS
  6
BYBLOCK
 62
     0
 10
8250.0
 20
175540.0
 30
0.0
  0
POINT
  5
65
  8
DEFPOINTS
  6
BYBLOCK
 62
     0
 10
8250.0
 20
175467.148595
 30
0.0
  0
ENDBLK
  5
67
  8
0
  0
ENDSEC
  0
SECTION
  2
ENTITIES
  0
DIMENSION
  5
20
  8
TEAM-MAS
  2
*D1
 10
387.60969
 20
0.0
 30
0.0
 11
387.60969
 21
-235.0
 31
0.0
 12
-8000.0
 22
-176000.0
 32
0.0
 13
240.0
 23
-470.0
 33
0.0
 14
0.0
 24
0.0
 34
0.0
 50
90.0
  0
DIMENSION
  5
2F
  8
TEAM-MAS
  2
*D0
 10
326.180137
 20
0.0
 30
0.0
 11
326.180137
 21
-97.5
 31
0.0
 12
-8000.0
 22
-176000.0
 32
0.0
 13
40.0
 23
-195.0
 33
0.0
 14
0.0
 24
0.0
 34
0.0
 50
90.0
  0
LINE
  5
3D
  8
TEAM-BODY
 10
210.0
 20
-130.100577
 30
0.0
 11
210.0
 21
-419.971758
 31
0.0
  0
ARC
  5
3F
  8
TEAM-BODY
 10
200.0
 20
-419.971758
 30
0.0
 40
10.0
 50
270.0
 51
0.0
  0
ARC
  5
40
  8
TEAM-BODY
 10
200.0
 20
-130.100577
 30
0.0
 40
10.0
 50
0.0
 51
90.0
  0
LINE
  5
41
  8
TEAM-AXE
 10
130.455821
 20
-58.562904
 30
0.0
 11
69.544179
 21
-58.562904
 31
0.0
  0
LINE
  5
44
  8
TEAM-AXE
 10
100.0
 20
-28.104327
 30
0.0
 11
100.0
 21
-89.015968
 31
0.0
  0
LINE
  5
45
  8
TEAM-BODY
 10
-210.0
 20
-130.100577
 30
0.0
 11
-210.0
 21
-419.971758
 31
0.0
  0
ARC
  5
46
  8
TEAM-BODY
 10
-200.0
 20
-419.971758
 30
0.0
 40
10.0
 50
180.0
 51
270.0
  0
ARC
  5
47
  8
TEAM-BODY
 10
-200.0
 20
-130.100577
 30
0.0
 40
10.0
 50
90.0
 51
180.0
  0
LINE
  5
48
  8
TEAM-AXE
 10
-100.0
 20
-28.104327
 30
0.0
 11
-100.0
 21
-89.015968
 31
0.0
  0
LINE
  5
49
  8
TEAM-AXE
 10
-130.455821
 20
-58.562904
 30
0.0
 11
-69.544179
 21
-58.562904
 31
0.0
  0
CIRCLE
  5
4A
  8
TEAM-DET1
 10
0.0
 20
-58.562904
 30
0.0
 40
17.5
  0
LINE
  5
4C
  8
TEAM-AXE
 10
0.0
 20
-28.104327
 30
0.0
 11
0.0
 21
-89.015968
 31
0.0
  0
LINE
  5
4D
  8
TEAM-AXE
 10
-30.455821
 20
-58.562904
 30
0.0
 11
30.455821
 21
-58.562904
 31
0.0
  0
CIRCLE
  5
4E
  8
TEAM-BODY
 10
0.0
 20
-195.0
 30
0.0
 40
20.0
  0
LINE
  5
4F
  8
TEAM-AXE
 10
0.0
 20
-235.0
 30
0.0
 11
0.0
 21
-155.0
 31
0.0
  0
LINE
  5
50
  8
TEAM-AXE
 10
-40.0
 20
-195.0
 30
0.0
 11
40.0
 21
-195.0
 31
0.0
  0
CIRCLE
  5
51
  8
TEAM-DET1
 10
0.0
 20
-195.0
 30
0.0
 40
30.0
  0
POLYLINE
  5
52
  8
TEAM-BODY
 66
     1
 10
0.0
 20
0.0
 30
0.0
 70
   129
  0
VERTEX
  5
F6
  8
TEAM-BODY
 10
250.0
 20
-5.0
 30
0.0
 42
0.414214
  0
VERTEX
  5
F7
  8
TEAM-BODY
 10
245.0
 20
0.0
 30
0.0
  0
VERTEX
  5
F8
  8
TEAM-BODY
 10
-245.0
 20
0.0
 30
0.0
 42
0.414214
  0
VERTEX
  5
F9
  8
TEAM-BODY
 10
-250.0
 20
-5.0
 30
0.0
  0
VERTEX
  5
FA
  8
TEAM-BODY
 10
-250.0
 20
-460.0
 30
0.0
 42
0.414214
  0
VERTEX
  5
FB
  8
TEAM-BODY
 10
-240.0
 20
-470.0
 30
0.0
  0
VERTEX
  5
FC
  8
TEAM-BODY
 10
240.0
 20
-470.0
 30
0.0
 42
0.414214
  0
VERTEX
  5
FD
  8
TEAM-BODY
 10
250.0
 20
-460.0
 30
0.0
  0
SEQEND
  5
FE
  8
TEAM-BODY
  0
LINE
  5
53
  8
TEAM-BODY
 10
-200.0
 20
-429.971758
 30
0.0
 11
200.0
 21
-429.971758
 31
0.0
  0
LINE
  5
54
  8
TEAM-BODY
 10
-200.0
 20
-120.100577
 30
0.0
 11
200.0
 21
-120.100577
 31
0.0
  0
TEXT
  5
55
  8
TEAM-TXT
 10
-136.254015
 20
-364.542078
 30
0.0
 40
30.0
  1
team 211129
 41
0.8
 51
15.0
  7
TEAM
  0
CIRCLE
  5
58
  8
TEAM-INSP
 10
0.0
 20
0.0
 30
0.0
 40
10.0
  0
DIMENSION
  5
5A
  8
TEAM-MAS
  2
*D2
 10
250.0
 20
-532.851405
 30
0.0
 11
0.0
 21
-532.851405
 31
0.0
 12
-8000.0
 22
-176000.0
 32
0.0
 13
-250.0
 23
-460.0
 33
0.0
 14
250.0
 24
-460.0
 34
0.0
  0
ENDSEC
  0
EOF
