  0
SECTION
  2
HEADER
  9
$ACADVER
  1
AC1009
  9
$INSBASE
 10
0.0
 20
0.0
 30
0.0
  9
$EXTMIN
 10
-281.249519
 20
-605.851152
 30
0.0
  9
$EXTMAX
 10
396.227728
 20
10.018953
 30
0.0
  9
$LIMMIN
 10
-281.249519
 20
-605.851152
  9
$LIMMAX
 10
396.227728
 20
10.018953
  9
$ORTHOMODE
 70
     1
  9
$REGENMODE
 70
     1
  9
$FILLMODE
 70
     1
  9
$QTEXTMODE
 70
     0
  9
$MIRRTEXT
 70
     0
  9
$DRAGMODE
 70
     2
  9
$LTSCALE
 40
25.0
  9
$OSMODE
 70
     0
  9
$ATTMODE
 70
     1
  9
$TEXTSIZE
 40
200.0
  9
$TRACEWID
 40
1.0
  9
$TEXTSTYLE
  7
STANDARD
  9
$CLAYER
  8
TEAM-MAS
  9
$CELTYPE
  6
BYLAYER
  9
$CECOLOR
 62
   256
  9
$DIMSCALE
 40
0.0
  9
$DIMASZ
 40
20.0
  9
$DIMEXO
 40
10.0
  9
$DIMDLI
 40
1.0
  9
$DIMRND
 40
0.0
  9
$DIMDLE
 40
0.0
  9
$DIMEXE
 40
1.0
  9
$DIMTP
 40
0.0
  9
$DIMTM
 40
0.0
  9
$DIMTXT
 40
35.0
  9
$DIMCEN
 40
1.0
  9
$DIMTSZ
 40
0.0
  9
$DIMTOL
 70
     0
  9
$DIMLIM
 70
     0
  9
$DIMTIH
 70
     0
  9
$DIMTOH
 70
     0
  9
$DIMSE1
 70
     0
  9
$DIMSE2
 70
     0
  9
$DIMTAD
 70
     0
  9
$DIMZIN
 70
     0
  9
$DIMBLK
  1

  9
$DIMASO
 70
     1
  9
$DIMSHO
 70
     0
  9
$DIMPOST
  1

  9
$DIMAPOST
  1

  9
$DIMALT
 70
     0
  9
$DIMALTD
 70
     2
  9
$DIMALTF
 40
25.4
  9
$DIMLFAC
 40
1.0
  9
$DIMTOFL
 70
     0
  9
$DIMTVP
 40
0.0
  9
$DIMTIX
 70
     0
  9
$DIMSOXD
 70
     0
  9
$DIMSAH
 70
     0
  9
$DIMBLK1
  1

  9
$DIMBLK2
  1

  9
$DIMSTYLE
  2
TEAM
  9
$DIMCLRD
 70
     9
  9
$DIMCLRE
 70
     9
  9
$DIMCLRT
 70
    11
  9
$DIMTFAC
 40
1.0
  9
$DIMGAP
 40
15.0
  9
$LUNITS
 70
     2
  9
$LUPREC
 70
     1
  9
$SKETCHINC
 40
1.0
  9
$FILLETRAD
 40
50.0
  9
$AUNITS
 70
     0
  9
$AUPREC
 70
     0
  9
$MENU
  1
ROPLANS
  9
$ELEVATION
 40
0.0
  9
$PELEVATION
 40
0.0
  9
$THICKNESS
 40
0.0
  9
$LIMCHECK
 70
     0
  9
$BLIPMODE
 70
     1
  9
$CHAMFERA
 40
0.0
  9
$CHAMFERB
 40
0.0
  9
$SKPOLY
 70
     0
  9
$TDCREATE
 40
2450392.957851
  9
$TDUPDATE
 40
2455498.668349
  9
$TDINDWG
 40
1.994891
  9
$TDUSRTIMER
 40
1.994891
  9
$USRTIMER
 70
     1
  9
$ANGBASE
 50
0.0
  9
$ANGDIR
 70
     0
  9
$PDMODE
 70
     0
  9
$PDSIZE
 40
0.0
  9
$PLINEWID
 40
0.0
  9
$COORDS
 70
     2
  9
$SPLFRAME
 70
     0
  9
$SPLINETYPE
 70
     6
  9
$SPLINESEGS
 70
     8
  9
$ATTDIA
 70
     0
  9
$ATTREQ
 70
     0
  9
$HANDLING
 70
     1
  9
$HANDSEED
  5
187
  9
$SURFTAB1
 70
    24
  9
$SURFTAB2
 70
    24
  9
$SURFTYPE
 70
     6
  9
$SURFU
 70
     6
  9
$SURFV
 70
     6
  9
$UCSNAME
  2

  9
$UCSORG
 10
0.0
 20
0.0
 30
0.0
  9
$UCSXDIR
 10
1.0
 20
0.0
 30
0.0
  9
$UCSYDIR
 10
0.0
 20
1.0
 30
0.0
  9
$PUCSNAME
  2

  9
$PUCSORG
 10
0.0
 20
0.0
 30
0.0
  9
$PUCSXDIR
 10
1.0
 20
0.0
 30
0.0
  9
$PUCSYDIR
 10
0.0
 20
1.0
 30
0.0
  9
$USERI1
 70
     0
  9
$USERI2
 70
     0
  9
$USERI3
 70
     0
  9
$USERI4
 70
     0
  9
$USERI5
 70
     0
  9
$USERR1
 40
0.0
  9
$USERR2
 40
0.0
  9
$USERR3
 40
0.0
  9
$USERR4
 40
0.0
  9
$USERR5
 40
0.0
  9
$WORLDVIEW
 70
     1
  9
$SHADEDGE
 70
     0
  9
$SHADEDIF
 70
    70
  9
$TILEMODE
 70
     1
  9
$MAXACTVP
 70
    16
  9
$PLIMCHECK
 70
     0
  9
$PEXTMIN
 10
-0.805942
 20
0.005011
 30
0.0
  9
$PEXTMAX
 10
20.250094
 20
11.356329
 30
0.0
  9
$PLIMMIN
 10
0.0
 20
0.0
  9
$PLIMMAX
 10
12.0
 20
9.0
  9
$UNITMODE
 70
     0
  9
$VISRETAIN
 70
     0
  9
$PLINEGEN
 70
     0
  9
$PSLTSCALE
 70
     0
  0
ENDSEC
  0
SECTION
  2
TABLES
  0
TABLE
  2
VPORT
 70
     2
  0
VPORT
  2
*ACTIVE
 70
     0
 10
0.0
 20
0.0
 11
1.0
 21
1.0
 12
57.489105
 22
-297.916099
 13
0.0
 23
0.0
 14
1.0
 24
1.0
 15
50.0
 25
50.0
 16
0.0
 26
0.0
 36
1.0
 17
0.0
 27
0.0
 37
0.0
 40
619.652317
 41
1.865779
 42
50.0
 43
0.0
 44
0.0
 50
0.0
 51
0.0
 71
     0
 72
   100
 73
     1
 74
     1
 75
     0
 76
     0
 77
     0
 78
     0
  0
ENDTAB
  0
TABLE
  2
LTYPE
 70
     2
  0
LTYPE
  2
CONTINUOUS
 70
     0
  3
Solid Line
 72
    65
 73
     0
 40
0.0
  0
LTYPE
  2
31
 70
     0
  3

 72
    65
 73
     4
 40
2.1
 49
1.5
 49
-0.3
 49
0.0
 49
-0.3
  0
ENDTAB
  0
TABLE
  2
LAYER
 70
     9
  0
LAYER
  2
0
 70
     0
 62
     7
  6
CONTINUOUS
  0
LAYER
  2
DEFPOINTS
 70
     0
 62
     7
  6
CONTINUOUS
  0
LAYER
  2
TEAM-BODY
 70
     0
 62
     2
  6
CONTINUOUS
  0
LAYER
  2
TEAM-AXE
 70
     0
 62
    10
  6
31
  0
LAYER
  2
TEAM-MAS
 70
     0
 62
     9
  6
CONTINUOUS
  0
LAYER
  2
TEAM-TXT
 70
     0
 62
    11
  6
CONTINUOUS
  0
LAYER
  2
TEAM-DET1
 70
     0
 62
     4
  6
CONTINUOUS
  0
LAYER
  2
TEAM-KAN
 70
     0
 62
     6
  6
CONTINUOUS
  0
LAYER
  2
TEAM-INSP
 70
     0
 62
     5
  6
CONTINUOUS
  0
ENDTAB
  0
TABLE
  2
STYLE
 70
     2
  0
STYLE
  2
STANDARD
 70
     0
 40
0.0
 41
1.0
 50
0.0
 71
     0
 42
200.0
  3
txt
  4

  0
STYLE
  2
TEAM
 70
     0
 40
0.0
 41
0.8
 50
15.0
 71
     0
 42
7.0
  3
ROMANS.shx
  4

  0
ENDTAB
  0
TABLE
  2
VIEW
 70
     0
  0
ENDTAB
  0
TABLE
  2
UCS
 70
     0
  0
ENDTAB
  0
TABLE
  2
APPID
 70
     1
  0
APPID
  2
ACAD
 70
     0
  0
ENDTAB
  0
TABLE
  2
DIMSTYLE
 70
     1
  0
DIMSTYLE
  2
TEAM
 70
     0
  3

  4

  5

  6

  7

 40
0.0
 41
20.0
 42
10.0
 43
1.0
 44
1.0
 45
0.0
 46
0.0
 47
0.0
 48
0.0
140
35.0
141
1.0
142
0.0
143
25.4
144
1.0
145
0.0
146
1.0
147
15.0
 71
     0
 72
     0
 73
     0
 74
     0
 75
     0
 76
     0
 77
     0
 78
     0
170
     0
171
     2
172
     0
173
     0
174
     0
175
     0
176
     9
177
     9
178
    11
  0
ENDTAB
  0
ENDSEC
  0
SECTION
  2
BLOCKS
  0
BLOCK
  8
0
  2
$MODEL_SPACE
 70
     0
 10
0.0
 20
0.0
 30
0.0
  3
$MODEL_SPACE
  1

  0
ENDBLK
  5
158
  8
0
  0
BLOCK
 67
     1
  8
0
  2
$PAPER_SPACE
 70
     0
 10
0.0
 20
0.0
 30
0.0
  3
$PAPER_SPACE
  1

  0
ENDBLK
  5
156
 67
     1
  8
0
  0
BLOCK
  8
0
  2
*D0
 70
     1
 10
0.0
 20
0.0
 30
0.0
  3
*D0
  1

  0
LINE
  5
3B
  8
0
  6
BYBLOCK
 62
     9
 10
4010.0
 20
76000.0
 30
0.0
 11
4381.430714
 21
76000.0
 31
0.0
  0
LINE
  5
3C
  8
0
  6
BYBLOCK
 62
     9
 10
4010.0
 20
75520.264012
 30
0.0
 11
4381.430714
 21
75520.264012
 31
0.0
  0
LINE
  5
3D
  8
0
  6
BYBLOCK
 62
     9
 10
4380.430714
 20
75980.0
 30
0.0
 11
4380.430714
 21
75808.395785
 31
0.0
  0
LINE
  5
3E
  8
0
  6
BYBLOCK
 62
     9
 10
4380.430714
 20
75540.264012
 30
0.0
 11
4380.430714
 21
75711.868226
 31
0.0
  0
SOLID
  5
3F
  8
0
  6
BYBLOCK
 62
     9
 10
4377.097381
 20
75980.0
 30
0.0
 11
4383.764048
 21
75980.0
 31
0.0
 12
4380.430714
 22
76000.0
 32
0.0
 13
4380.430714
 23
76000.0
 33
0.0
  0
SOLID
  5
40
  8
0
  6
BYBLOCK
 62
     9
 10
4377.097381
 20
75540.264012
 30
0.0
 11
4383.764048
 21
75540.264012
 31
0.0
 12
4380.430714
 22
75520.264012
 32
0.0
 13
4380.430714
 23
75520.264012
 33
0.0
  0
TEXT
  5
41
  8
0
  6
BYBLOCK
 62
    11
 10
4397.930714
 20
75721.618226
 30
0.0
 40
35.0
  1
480
 50
90.0
  0
POINT
  5
42
  8
DEFPOINTS
  6
BYBLOCK
 62
     0
 10
4000.0
 20
76000.0
 30
0.0
  0
POINT
  5
43
  8
DEFPOINTS
  6
BYBLOCK
 62
     0
 10
4000.0
 20
75520.264012
 30
0.0
  0
POINT
  5
44
  8
DEFPOINTS
  6
BYBLOCK
 62
     0
 10
4380.430714
 20
75520.264012
 30
0.0
  0
ENDBLK
  5
46
  8
0
  0
BLOCK
  8
0
  2
*D1
 70
     1
 10
0.0
 20
0.0
 30
0.0
  3
*D1
  1

  0
LINE
  5
22
  8
0
  6
BYBLOCK
 62
     9
 10
3725.0
 20
75810.023815
 30
0.0
 11
3725.0
 21
75410.359249
 31
0.0
  0
LINE
  5
23
  8
0
  6
BYBLOCK
 62
     9
 10
4275.0
 20
75810.023815
 30
0.0
 11
4275.0
 21
75410.359249
 31
0.0
  0
LINE
  5
24
  8
0
  6
BYBLOCK
 62
     9
 10
3745.0
 20
75411.359249
 30
0.0
 11
3953.48622
 21
75411.359249
 31
0.0
  0
LINE
  5
25
  8
0
  6
BYBLOCK
 62
     9
 10
4255.0
 20
75411.359249
 30
0.0
 11
4046.51378
 21
75411.359249
 31
0.0
  0
SOLID
  5
26
  8
0
  6
BYBLOCK
 62
     9
 10
3745.0
 20
75414.692583
 30
0.0
 11
3745.0
 21
75408.025916
 31
0.0
 12
3725.0
 22
75411.359249
 32
0.0
 13
3725.0
 23
75411.359249
 33
0.0
  0
SOLID
  5
27
  8
0
  6
BYBLOCK
 62
     9
 10
4255.0
 20
75414.692583
 30
0.0
 11
4255.0
 21
75408.025916
 31
0.0
 12
4275.0
 22
75411.359249
 32
0.0
 13
4275.0
 23
75411.359249
 33
0.0
  0
TEXT
  5
28
  8
0
  6
BYBLOCK
 62
    11
 10
3963.23622
 20
75393.859249
 30
0.0
 40
35.0
  1
550
  0
POINT
  5
29
  8
DEFPOINTS
  6
BYBLOCK
 62
     0
 10
3725.0
 20
75820.023815
 30
0.0
  0
POINT
  5
2B
  8
DEFPOINTS
  6
BYBLOCK
 62
     0
 10
4275.0
 20
75820.023815
 30
0.0
  0
POINT
  5
2C
  8
DEFPOINTS
  6
BYBLOCK
 62
     0
 10
4275.0
 20
75411.359249
 30
0.0
  0
ENDBLK
  5
2E
  8
0
  0
ENDSEC
  0
SECTION
  2
ENTITIES
  0
DIMENSION
  5
20
  8
TEAM-MAS
  2
*D1
 10
275.0
 20
-588.640751
 30
0.0
 11
0.0
 21
-588.640751
 31
0.0
 12
-4000.0
 22
-76000.0
 32
0.0
 13
-275.0
 23
-179.976185
 33
0.0
 14
275.0
 24
-179.976185
 34
0.0
  0
POLYLINE
  5
2F
  8
TEAM-BODY
 66
     1
 10
0.0
 20
0.0
 30
0.0
  0
VERTEX
  5
15E
  8
TEAM-BODY
 10
245.0
 20
-169.408337
 30
0.0
 42
0.414214
  0
VERTEX
  5
15F
  8
TEAM-BODY
 10
215.0
 20
-139.408337
 30
0.0
  0
VERTEX
  5
160
  8
TEAM-BODY
 10
-215.0
 20
-139.408337
 30
0.0
 42
0.414214
  0
VERTEX
  5
161
  8
TEAM-BODY
 10
-245.0
 20
-169.408337
 30
0.0
  0
SEQEND
  5
162
  8
TEAM-BODY
  0
POLYLINE
  5
31
  8
TEAM-BODY
 66
     1
 10
0.0
 20
0.0
 30
0.0
  0
VERTEX
  5
163
  8
TEAM-BODY
 10
245.0
 20
-169.408337
 30
0.0
  0
VERTEX
  5
164
  8
TEAM-BODY
 10
245.0
 20
-34.523406
 30
0.0
 42
0.414214
  0
VERTEX
  5
165
  8
TEAM-BODY
 10
215.0
 20
-4.523406
 30
0.0
  0
VERTEX
  5
166
  8
TEAM-BODY
 10
-215.0
 20
-4.523406
 30
0.0
 42
0.414214
  0
VERTEX
  5
167
  8
TEAM-BODY
 10
-245.0
 20
-34.523406
 30
0.0
  0
VERTEX
  5
168
  8
TEAM-BODY
 10
-245.0
 20
-169.408337
 30
0.0
  0
SEQEND
  5
169
  8
TEAM-BODY
  0
POLYLINE
  5
32
  8
TEAM-BODY
 66
     1
 10
0.0
 20
0.0
 30
0.0
  0
VERTEX
  5
16A
  8
TEAM-BODY
 10
275.0
 20
-169.408337
 30
0.0
  0
VERTEX
  5
16B
  8
TEAM-BODY
 10
275.0
 20
-30.0
 30
0.0
 42
0.414214
  0
VERTEX
  5
16C
  8
TEAM-BODY
 10
245.0
 20
0.0
 30
0.0
  0
VERTEX
  5
16D
  8
TEAM-BODY
 10
-245.0
 20
0.0
 30
0.0
 42
0.414214
  0
VERTEX
  5
16E
  8
TEAM-BODY
 10
-275.0
 20
-30.0
 30
0.0
  0
VERTEX
  5
16F
  8
TEAM-BODY
 10
-275.0
 20
-169.408337
 30
0.0
  0
SEQEND
  5
170
  8
TEAM-BODY
  0
POLYLINE
  5
33
  8
TEAM-BODY
 66
     1
 10
0.0
 20
0.0
 30
0.0
  0
VERTEX
  5
171
  8
TEAM-BODY
 10
-245.0
 20
-169.408337
 30
0.0
  0
VERTEX
  5
172
  8
TEAM-BODY
 10
-245.0
 20
-420.0
 30
0.0
 42
0.414214
  0
VERTEX
  5
173
  8
TEAM-BODY
 10
-215.0
 20
-450.0
 30
0.0
  0
VERTEX
  5
174
  8
TEAM-BODY
 10
215.0
 20
-450.0
 30
0.0
 42
0.414214
  0
VERTEX
  5
175
  8
TEAM-BODY
 10
245.0
 20
-420.0
 30
0.0
  0
VERTEX
  5
176
  8
TEAM-BODY
 10
245.0
 20
-178.679288
 30
0.0
  0
SEQEND
  5
177
  8
TEAM-BODY
  0
POLYLINE
  5
34
  8
TEAM-BODY
 66
     1
 10
0.0
 20
0.0
 30
0.0
  0
VERTEX
  5
178
  8
TEAM-BODY
 10
-275.0
 20
-169.408337
 30
0.0
  0
VERTEX
  5
179
  8
TEAM-BODY
 10
-275.0
 20
-450.0
 30
0.0
 42
0.414214
  0
VERTEX
  5
17A
  8
TEAM-BODY
 10
-245.0
 20
-480.0
 30
0.0
  0
VERTEX
  5
17B
  8
TEAM-BODY
 10
245.0
 20
-480.0
 30
0.0
 42
0.414214
  0
VERTEX
  5
17C
  8
TEAM-BODY
 10
275.0
 20
-450.0
 30
0.0
  0
VERTEX
  5
17D
  8
TEAM-BODY
 10
275.0
 20
-169.408337
 30
0.0
  0
SEQEND
  5
17E
  8
TEAM-BODY
  0
POLYLINE
  5
35
  8
TEAM-BODY
 66
     1
 10
0.0
 20
0.0
 30
0.0
  0
VERTEX
  5
17F
  8
TEAM-BODY
 10
-245.0
 20
-169.408337
 30
0.0
  0
VERTEX
  5
180
  8
TEAM-BODY
 10
-245.0
 20
-420.0
 30
0.0
 42
0.414214
  0
VERTEX
  5
181
  8
TEAM-BODY
 10
-215.0
 20
-450.0
 30
0.0
  0
VERTEX
  5
182
  8
TEAM-BODY
 10
215.0
 20
-450.0
 30
0.0
 42
0.414214
  0
VERTEX
  5
183
  8
TEAM-BODY
 10
245.0
 20
-420.0
 30
0.0
  0
VERTEX
  5
184
  8
TEAM-BODY
 10
245.0
 20
-169.408337
 30
0.0
  0
SEQEND
  5
185
  8
TEAM-BODY
  0
TEXT
  5
36
  8
TEAM-TXT
 10
-239.692631
 20
-57.967927
 30
0.0
 40
24.999999
  1
team 211241
 41
0.8
 51
15.0
  7
TEAM
  0
DIMENSION
  5
39
  8
TEAM-MAS
  2
*D0
 10
380.430714
 20
-479.735988
 30
0.0
 11
380.430714
 21
-239.867994
 31
0.0
 12
-4000.0
 22
-76000.0
 32
0.0
 13
0.0
 23
0.0
 33
0.0
 14
0.0
 24
-479.735988
 34
0.0
 50
90.0
  0
CIRCLE
  5
47
  8
TEAM-KAN
 10
0.0
 20
-229.655143
 30
0.0
 40
20.0
  0
LINE
  5
49
  8
TEAM-AXE
 10
-35.0
 20
-229.655143
 30
0.0
 11
35.0
 21
-229.655143
 31
0.0
  0
LINE
  5
4C
  8
TEAM-AXE
 10
0.0
 20
-264.655143
 30
0.0
 11
0.0
 21
-194.655143
 31
0.0
  0
LINE
  5
4D
  8
TEAM-AXE
 10
-25.0
 20
-67.359731
 30
0.0
 11
25.0
 21
-67.359731
 31
0.0
  0
LINE
  5
4E
  8
TEAM-AXE
 10
0.0
 20
-92.359731
 30
0.0
 11
0.0
 21
-42.359731
 31
0.0
  0
CIRCLE
  5
4F
  8
TEAM-DET1
 10
0.0
 20
-229.655143
 30
0.0
 40
30.0
  0
CIRCLE
  5
51
  8
TEAM-DET1
 10
0.0
 20
-67.359731
 30
0.0
 40
20.0
  0
CIRCLE
  5
52
  8
TEAM-INSP
 10
0.0
 20
0.0
 30
0.0
 40
10.0
  0
ENDSEC
  0
EOF
