  0
SECTION
  2
HEADER
  9
$ACADVER
  1
AC1009
  9
$INSBASE
 10
0.0
 20
0.0
 30
0.0
  9
$EXTMIN
 10
-278.708559
 20
-10.047073
 30
0.0
  9
$EXTMAX
 10
558.14378
 20
892.998382
 30
0.000005
  9
$LIMMIN
 10
-278.708559
 20
-10.047073
  9
$LIMMAX
 10
558.14378
 20
892.998382
  9
$ORTHOMODE
 70
     1
  9
$REGENMODE
 70
     1
  9
$FILLMODE
 70
     1
  9
$QTEXTMODE
 70
     0
  9
$MIRRTEXT
 70
     0
  9
$DRAGMODE
 70
     2
  9
$LTSCALE
 40
50.0
  9
$OSMODE
 70
     0
  9
$ATTMODE
 70
     1
  9
$TEXTSIZE
 40
200.0
  9
$TRACEWID
 40
1.0
  9
$TEXTSTYLE
  7
STANDARD
  9
$CLAYER
  8
TEAM-MAS
  9
$CELTYPE
  6
BYLAYER
  9
$CECOLOR
 62
   256
  9
$DIMSCALE
 40
0.0
  9
$DIMASZ
 40
20.0
  9
$DIMEXO
 40
10.0
  9
$DIMDLI
 40
1.0
  9
$DIMRND
 40
0.0
  9
$DIMDLE
 40
0.0
  9
$DIMEXE
 40
1.0
  9
$DIMTP
 40
0.0
  9
$DIMTM
 40
0.0
  9
$DIMTXT
 40
35.0
  9
$DIMCEN
 40
1.0
  9
$DIMTSZ
 40
0.0
  9
$DIMTOL
 70
     0
  9
$DIMLIM
 70
     0
  9
$DIMTIH
 70
     0
  9
$DIMTOH
 70
     0
  9
$DIMSE1
 70
     0
  9
$DIMSE2
 70
     0
  9
$DIMTAD
 70
     0
  9
$DIMZIN
 70
     0
  9
$DIMBLK
  1

  9
$DIMASO
 70
     1
  9
$DIMSHO
 70
     0
  9
$DIMPOST
  1

  9
$DIMAPOST
  1

  9
$DIMALT
 70
     0
  9
$DIMALTD
 70
     2
  9
$DIMALTF
 40
25.4
  9
$DIMLFAC
 40
1.0
  9
$DIMTOFL
 70
     0
  9
$DIMTVP
 40
0.0
  9
$DIMTIX
 70
     0
  9
$DIMSOXD
 70
     0
  9
$DIMSAH
 70
     0
  9
$DIMBLK1
  1

  9
$DIMBLK2
  1

  9
$DIMSTYLE
  2
TEAM
  9
$DIMCLRD
 70
     9
  9
$DIMCLRE
 70
     9
  9
$DIMCLRT
 70
    11
  9
$DIMTFAC
 40
1.0
  9
$DIMGAP
 40
7.0
  9
$LUNITS
 70
     2
  9
$LUPREC
 70
     1
  9
$SKETCHINC
 40
1.0
  9
$FILLETRAD
 40
50.0
  9
$AUNITS
 70
     0
  9
$AUPREC
 70
     0
  9
$MENU
  1
ROPLANS
  9
$ELEVATION
 40
0.0
  9
$PELEVATION
 40
0.0
  9
$THICKNESS
 40
0.0
  9
$LIMCHECK
 70
     0
  9
$BLIPMODE
 70
     1
  9
$CHAMFERA
 40
0.0
  9
$CHAMFERB
 40
0.0
  9
$SKPOLY
 70
     0
  9
$TDCREATE
 40
2450392.957851
  9
$TDUPDATE
 40
2456280.422984
  9
$TDINDWG
 40
2.166821
  9
$TDUSRTIMER
 40
2.166821
  9
$USRTIMER
 70
     1
  9
$ANGBASE
 50
0.0
  9
$ANGDIR
 70
     0
  9
$PDMODE
 70
     0
  9
$PDSIZE
 40
0.0
  9
$PLINEWID
 40
0.0
  9
$COORDS
 70
     2
  9
$SPLFRAME
 70
     0
  9
$SPLINETYPE
 70
     6
  9
$SPLINESEGS
 70
     8
  9
$ATTDIA
 70
     0
  9
$ATTREQ
 70
     0
  9
$HANDLING
 70
     1
  9
$HANDSEED
  5
15C
  9
$SURFTAB1
 70
    24
  9
$SURFTAB2
 70
    24
  9
$SURFTYPE
 70
     6
  9
$SURFU
 70
     6
  9
$SURFV
 70
     6
  9
$UCSNAME
  2

  9
$UCSORG
 10
0.0
 20
0.0
 30
0.0
  9
$UCSXDIR
 10
1.0
 20
0.0
 30
0.0
  9
$UCSYDIR
 10
0.0
 20
1.0
 30
0.0
  9
$PUCSNAME
  2

  9
$PUCSORG
 10
0.0
 20
0.0
 30
0.0
  9
$PUCSXDIR
 10
1.0
 20
0.0
 30
0.0
  9
$PUCSYDIR
 10
0.0
 20
1.0
 30
0.0
  9
$USERI1
 70
     0
  9
$USERI2
 70
     0
  9
$USERI3
 70
     0
  9
$USERI4
 70
     0
  9
$USERI5
 70
     0
  9
$USERR1
 40
0.0
  9
$USERR2
 40
0.0
  9
$USERR3
 40
0.0
  9
$USERR4
 40
0.0
  9
$USERR5
 40
0.0
  9
$WORLDVIEW
 70
     1
  9
$SHADEDGE
 70
     0
  9
$SHADEDIF
 70
    70
  9
$TILEMODE
 70
     1
  9
$MAXACTVP
 70
    16
  9
$PLIMCHECK
 70
     0
  9
$PEXTMIN
 10
-0.805942
 20
0.005011
 30
0.0
  9
$PEXTMAX
 10
20.250094
 20
11.356329
 30
0.0
  9
$PLIMMIN
 10
0.0
 20
0.0
  9
$PLIMMAX
 10
12.0
 20
9.0
  9
$UNITMODE
 70
     0
  9
$VISRETAIN
 70
     0
  9
$PLINEGEN
 70
     0
  9
$PSLTSCALE
 70
     0
  0
ENDSEC
  0
SECTION
  2
TABLES
  0
TABLE
  2
VPORT
 70
     2
  0
VPORT
  2
*ACTIVE
 70
     0
 10
0.0
 20
0.0
 11
1.0
 21
1.0
 12
139.717611
 22
441.475655
 13
0.0
 23
0.0
 14
1.0
 24
1.0
 15
50.0
 25
50.0
 16
0.0
 26
0.0
 36
1.0
 17
0.0
 27
0.0
 37
0.0
 40
908.730945
 41
1.911765
 42
50.0
 43
0.0
 44
0.0
 50
0.0
 51
0.0
 71
     0
 72
   100
 73
     1
 74
     1
 75
     0
 76
     0
 77
     0
 78
     0
  0
ENDTAB
  0
TABLE
  2
LTYPE
 70
     4
  0
LTYPE
  2
CONTINUOUS
 70
     0
  3
Solid Line
 72
    65
 73
     0
 40
0.0
  0
LTYPE
  2
31
 70
     0
  3

 72
    65
 73
     4
 40
2.1
 49
1.5
 49
-0.3
 49
0.0
 49
-0.3
  0
LTYPE
  2
22
 70
     0
  3

 72
    65
 73
     2
 40
1.4
 49
1.2
 49
-0.2
  0
LTYPE
  2
STRICHLINIE
 70
     0
  3
Strichlinie __ __ __ __ __ __ __ __ __ __ __ __
 72
    65
 73
     2
 40
0.75
 49
0.5
 49
-0.25
  0
ENDTAB
  0
TABLE
  2
LAYER
 70
    12
  0
LAYER
  2
0
 70
     0
 62
     7
  6
CONTINUOUS
  0
LAYER
  2
DEFPOINTS
 70
     0
 62
     7
  6
CONTINUOUS
  0
LAYER
  2
TEAM-BODY
 70
     0
 62
     2
  6
CONTINUOUS
  0
LAYER
  2
TEAM-AXE
 70
     0
 62
    10
  6
31
  0
LAYER
  2
TEAM-MAS
 70
     0
 62
     9
  6
CONTINUOUS
  0
LAYER
  2
TEAM-TXT
 70
     0
 62
    11
  6
CONTINUOUS
  0
LAYER
  2
TEAM-COLD
 70
     0
 62
     3
  6
CONTINUOUS
  0
LAYER
  2
TEAM-HIDE
 70
     0
 62
     8
  6
22
  0
LAYER
  2
TEAM-KAN
 70
     0
 62
     6
  6
CONTINUOUS
  0
LAYER
  2
TEAM-WARM
 70
     0
 62
     1
  6
CONTINUOUS
  0
LAYER
  2
TEAM-INSP
 70
     0
 62
     5
  6
CONTINUOUS
  0
LAYER
  2
TEAM-HAUBE
 70
     0
 62
     4
  6
STRICHLINIE
  0
ENDTAB
  0
TABLE
  2
STYLE
 70
     2
  0
STYLE
  2
STANDARD
 70
     0
 40
0.0
 41
1.0
 50
0.0
 71
     0
 42
200.0
  3
txt
  4

  0
STYLE
  2
TEAM
 70
     0
 40
0.0
 41
0.8
 50
15.0
 71
     0
 42
7.0
  3
ROMANS.shx
  4

  0
ENDTAB
  0
TABLE
  2
VIEW
 70
     0
  0
ENDTAB
  0
TABLE
  2
UCS
 70
     0
  0
ENDTAB
  0
TABLE
  2
APPID
 70
     1
  0
APPID
  2
ACAD
 70
     0
  0
ENDTAB
  0
TABLE
  2
DIMSTYLE
 70
     1
  0
DIMSTYLE
  2
TEAM
 70
     0
  3

  4

  5

  6

  7

 40
0.0
 41
20.0
 42
10.0
 43
1.0
 44
1.0
 45
0.0
 46
0.0
 47
0.0
 48
0.0
140
35.0
141
1.0
142
0.0
143
25.4
144
1.0
145
0.0
146
1.0
147
7.0
 71
     0
 72
     0
 73
     0
 74
     0
 75
     0
 76
     0
 77
     0
 78
     0
170
     0
171
     2
172
     0
173
     0
174
     0
175
     0
176
     9
177
     9
178
    11
  0
ENDTAB
  0
ENDSEC
  0
SECTION
  2
BLOCKS
  0
BLOCK
  8
0
  2
$MODEL_SPACE
 70
     0
 10
0.0
 20
0.0
 30
0.0
  3
$MODEL_SPACE
  1

  0
ENDBLK
  5
143
  8
0
  0
BLOCK
 67
     1
  8
0
  2
$PAPER_SPACE
 70
     0
 10
0.0
 20
0.0
 30
0.0
  3
$PAPER_SPACE
  1

  0
ENDBLK
  5
141
 67
     1
  8
0
  0
BLOCK
  8
0
  2
*D0
 70
     1
 10
0.0
 20
0.0
 30
0.0
  3
*D0
  1

  0
LINE
  5
86
  8
0
  6
BYBLOCK
 62
     9
 10
12010.0
 20
20850.000007
 30
0.0
 11
12541.593117
 21
20850.000007
 31
0.0
  0
LINE
  5
87
  8
0
  6
BYBLOCK
 62
     9
 10
12010.0
 20
20000.0
 30
0.0
 11
12541.593117
 21
20000.0
 31
0.0
  0
LINE
  5
88
  8
0
  6
BYBLOCK
 62
     9
 10
12540.593117
 20
20830.000007
 30
0.0
 11
12540.593117
 21
20475.750004
 31
0.0
  0
LINE
  5
89
  8
0
  6
BYBLOCK
 62
     9
 10
12540.593117
 20
20020.0
 30
0.0
 11
12540.593117
 21
20374.250004
 31
0.0
  0
SOLID
  5
8A
  8
0
  6
BYBLOCK
 62
     9
 10
12537.259784
 20
20830.000007
 30
0.0
 11
12543.926451
 21
20830.000007
 31
0.0
 12
12540.593117
 22
20850.000007
 32
0.0
 13
12540.593117
 23
20850.000007
 33
0.0
  0
SOLID
  5
8B
  8
0
  6
BYBLOCK
 62
     9
 10
12537.259784
 20
20020.0
 30
0.0
 11
12543.926451
 21
20020.0
 31
0.0
 12
12540.593117
 22
20000.0
 32
0.0
 13
12540.593117
 23
20000.0
 33
0.0
  0
TEXT
  5
8C
  8
0
  6
BYBLOCK
 62
    11
 10
12558.093117
 20
20381.250004
 30
0.0
 40
35.0
  1
850
 50
90.0
  0
POINT
  5
8D
  8
DEFPOINTS
  6
BYBLOCK
 62
     0
 10
12000.0
 20
20850.000007
 30
0.0
  0
POINT
  5
8E
  8
DEFPOINTS
  6
BYBLOCK
 62
     0
 10
12000.0
 20
20000.0
 30
0.0
  0
POINT
  5
8F
  8
DEFPOINTS
  6
BYBLOCK
 62
     0
 10
12540.593117
 20
20000.0
 30
0.0
  0
ENDBLK
  5
91
  8
0
  0
BLOCK
  8
0
  2
*D1
 70
     1
 10
0.0
 20
0.0
 30
0.0
  3
*D1
  1

  0
LINE
  5
78
  8
0
  6
BYBLOCK
 62
     9
 10
12010.0
 20
20850.000007
 30
0.0
 11
12441.875974
 21
20850.000007
 31
0.0
  0
LINE
  5
79
  8
0
  6
BYBLOCK
 62
     9
 10
12060.0
 20
20600.0
 30
0.0
 11
12441.875974
 21
20600.0
 31
0.0
  0
LINE
  5
7A
  8
0
  6
BYBLOCK
 62
     9
 10
12440.875974
 20
20830.000007
 30
0.0
 11
12440.875974
 21
20775.750004
 31
0.0
  0
LINE
  5
7B
  8
0
  6
BYBLOCK
 62
     9
 10
12440.875974
 20
20620.0
 30
0.0
 11
12440.875974
 21
20674.250004
 31
0.0
  0
SOLID
  5
7C
  8
0
  6
BYBLOCK
 62
     9
 10
12437.542641
 20
20830.000007
 30
0.0
 11
12444.209307
 21
20830.000007
 31
0.0
 12
12440.875974
 22
20850.000007
 32
0.0
 13
12440.875974
 23
20850.000007
 33
0.0
  0
SOLID
  5
7D
  8
0
  6
BYBLOCK
 62
     9
 10
12437.542641
 20
20620.0
 30
0.0
 11
12444.209307
 21
20620.0
 31
0.0
 12
12440.875974
 22
20600.0
 32
0.0
 13
12440.875974
 23
20600.0
 33
0.0
  0
TEXT
  5
7E
  8
0
  6
BYBLOCK
 62
    11
 10
12458.375974
 20
20681.250004
 30
0.0
 40
35.0
  1
250
 50
90.0
  0
POINT
  5
7F
  8
DEFPOINTS
  6
BYBLOCK
 62
     0
 10
12000.0
 20
20850.000007
 30
0.0
  0
POINT
  5
80
  8
DEFPOINTS
  6
BYBLOCK
 62
     0
 10
12050.0
 20
20600.0
 30
0.0
  0
POINT
  5
81
  8
DEFPOINTS
  6
BYBLOCK
 62
     0
 10
12440.875974
 20
20600.0
 30
0.0
  0
ENDBLK
  5
83
  8
0
  0
BLOCK
  8
0
  2
*D2
 70
     1
 10
0.0
 20
0.0
 30
0.0
  3
*D2
  1

  0
LINE
  5
6A
  8
0
  6
BYBLOCK
 62
     9
 10
12010.0
 20
20850.000007
 30
0.0
 11
12492.321274
 21
20850.000007
 31
0.0
  0
LINE
  5
6B
  8
0
  6
BYBLOCK
 62
     9
 10
12030.0
 20
20530.0
 30
0.0
 11
12492.321274
 21
20530.0
 31
0.0
  0
LINE
  5
6C
  8
0
  6
BYBLOCK
 62
     9
 10
12491.321274
 20
20830.000007
 30
0.0
 11
12491.321274
 21
20740.750004
 31
0.0
  0
LINE
  5
6D
  8
0
  6
BYBLOCK
 62
     9
 10
12491.321274
 20
20550.0
 30
0.0
 11
12491.321274
 21
20639.250004
 31
0.0
  0
SOLID
  5
6E
  8
0
  6
BYBLOCK
 62
     9
 10
12487.987941
 20
20830.000007
 30
0.0
 11
12494.654607
 21
20830.000007
 31
0.0
 12
12491.321274
 22
20850.000007
 32
0.0
 13
12491.321274
 23
20850.000007
 33
0.0
  0
SOLID
  5
6F
  8
0
  6
BYBLOCK
 62
     9
 10
12487.987941
 20
20550.0
 30
0.0
 11
12494.654607
 21
20550.0
 31
0.0
 12
12491.321274
 22
20530.0
 32
0.0
 13
12491.321274
 23
20530.0
 33
0.0
  0
TEXT
  5
70
  8
0
  6
BYBLOCK
 62
    11
 10
12508.821274
 20
20646.250004
 30
0.0
 40
35.0
  1
320
 50
90.0
  0
POINT
  5
71
  8
DEFPOINTS
  6
BYBLOCK
 62
     0
 10
12000.0
 20
20850.000007
 30
0.0
  0
POINT
  5
72
  8
DEFPOINTS
  6
BYBLOCK
 62
     0
 10
12020.0
 20
20530.0
 30
0.0
  0
POINT
  5
73
  8
DEFPOINTS
  6
BYBLOCK
 62
     0
 10
12491.321274
 20
20530.0
 30
0.0
  0
ENDBLK
  5
75
  8
0
  0
BLOCK
  8
0
  2
*D3
 70
     1
 10
0.0
 20
0.0
 30
0.0
  3
*D3
  1

  0
LINE
  5
5C
  8
0
  6
BYBLOCK
 62
     9
 10
12060.0
 20
20600.0
 30
0.0
 11
12441.875974
 21
20600.0
 31
0.0
  0
LINE
  5
5D
  8
0
  6
BYBLOCK
 62
     9
 10
12010.0
 20
20000.0
 30
0.0
 11
12441.875974
 21
20000.0
 31
0.0
  0
LINE
  5
5E
  8
0
  6
BYBLOCK
 62
     9
 10
12440.875974
 20
20580.0
 30
0.0
 11
12440.875974
 21
20347.833333
 31
0.0
  0
LINE
  5
5F
  8
0
  6
BYBLOCK
 62
     9
 10
12440.875974
 20
20020.0
 30
0.0
 11
12440.875974
 21
20252.166667
 31
0.0
  0
SOLID
  5
60
  8
0
  6
BYBLOCK
 62
     9
 10
12437.542641
 20
20580.0
 30
0.0
 11
12444.209307
 21
20580.0
 31
0.0
 12
12440.875974
 22
20600.0
 32
0.0
 13
12440.875974
 23
20600.0
 33
0.0
  0
SOLID
  5
61
  8
0
  6
BYBLOCK
 62
     9
 10
12437.542641
 20
20020.0
 30
0.0
 11
12444.209307
 21
20020.0
 31
0.0
 12
12440.875974
 22
20000.0
 32
0.0
 13
12440.875974
 23
20000.0
 33
0.0
  0
TEXT
  5
62
  8
0
  6
BYBLOCK
 62
    11
 10
12458.375974
 20
20259.166667
 30
0.0
 40
35.0
  1
600
 50
90.0
  0
POINT
  5
63
  8
DEFPOINTS
  6
BYBLOCK
 62
     0
 10
12050.0
 20
20600.0
 30
0.0
  0
POINT
  5
64
  8
DEFPOINTS
  6
BYBLOCK
 62
     0
 10
12000.0
 20
20000.0
 30
0.0
  0
POINT
  5
65
  8
DEFPOINTS
  6
BYBLOCK
 62
     0
 10
12440.875974
 20
20000.0
 30
0.0
  0
ENDBLK
  5
67
  8
0
  0
BLOCK
  8
0
  2
*D4
 70
     1
 10
0.0
 20
0.0
 30
0.0
  3
*D4
  1

  0
LINE
  5
4E
  8
0
  6
BYBLOCK
 62
     9
 10
12030.0
 20
20530.0
 30
0.0
 11
12492.321274
 21
20530.0
 31
0.0
  0
LINE
  5
4F
  8
0
  6
BYBLOCK
 62
     9
 10
12010.0
 20
20000.0
 30
0.0
 11
12492.321274
 21
20000.0
 31
0.0
  0
LINE
  5
50
  8
0
  6
BYBLOCK
 62
     9
 10
12491.321274
 20
20510.0
 30
0.0
 11
12491.321274
 21
20315.75
 31
0.0
  0
LINE
  5
51
  8
0
  6
BYBLOCK
 62
     9
 10
12491.321274
 20
20020.0
 30
0.0
 11
12491.321274
 21
20214.25
 31
0.0
  0
SOLID
  5
52
  8
0
  6
BYBLOCK
 62
     9
 10
12487.987941
 20
20510.0
 30
0.0
 11
12494.654607
 21
20510.0
 31
0.0
 12
12491.321274
 22
20530.0
 32
0.0
 13
12491.321274
 23
20530.0
 33
0.0
  0
SOLID
  5
53
  8
0
  6
BYBLOCK
 62
     9
 10
12487.987941
 20
20020.0
 30
0.0
 11
12494.654607
 21
20020.0
 31
0.0
 12
12491.321274
 22
20000.0
 32
0.0
 13
12491.321274
 23
20000.0
 33
0.0
  0
TEXT
  5
54
  8
0
  6
BYBLOCK
 62
    11
 10
12508.821274
 20
20221.25
 30
0.0
 40
35.0
  1
530
 50
90.0
  0
POINT
  5
55
  8
DEFPOINTS
  6
BYBLOCK
 62
     0
 10
12020.0
 20
20530.0
 30
0.0
  0
POINT
  5
56
  8
DEFPOINTS
  6
BYBLOCK
 62
     0
 10
12000.0
 20
20000.0
 30
0.0
  0
POINT
  5
57
  8
DEFPOINTS
  6
BYBLOCK
 62
     0
 10
12491.321274
 20
20000.0
 30
0.0
  0
ENDBLK
  5
59
  8
0
  0
BLOCK
  8
0
  2
*D5
 70
     1
 10
0.0
 20
0.0
 30
0.0
  3
*D5
  1

  0
LINE
  5
9B
  8
0
  6
BYBLOCK
 62
     9
 10
11960.0
 20
20580.0
 30
0.0
 11
11960.0
 21
20442.361525
 31
0.0
  0
LINE
  5
9C
  8
0
  6
BYBLOCK
 62
     9
 10
12040.0
 20
20580.0
 30
0.0
 11
12040.0
 21
20442.361525
 31
0.0
  0
LINE
  5
9D
  8
0
  6
BYBLOCK
 62
     9
 10
11980.0
 20
20443.361525
 30
0.0
 11
11987.0
 21
20443.361525
 31
0.0
  0
LINE
  5
9E
  8
0
  6
BYBLOCK
 62
     9
 10
12020.0
 20
20443.361525
 30
0.0
 11
12013.0
 21
20443.361525
 31
0.0
  0
TEXT
  5
9F
  8
0
  6
BYBLOCK
 62
    11
 10
11973.052434
 20
20449.29563
 30
0.0
 40
35.0
  1
80
  0
SOLID
  5
A0
  8
0
  6
BYBLOCK
 62
     9
 10
11980.0
 20
20446.694859
 30
0.0
 11
11980.0
 21
20440.028192
 31
0.0
 12
11960.0
 22
20443.361525
 32
0.0
 13
11960.0
 23
20443.361525
 33
0.0
  0
SOLID
  5
A1
  8
0
  6
BYBLOCK
 62
     9
 10
12020.0
 20
20446.694859
 30
0.0
 11
12020.0
 21
20440.028192
 31
0.0
 12
12040.0
 22
20443.361525
 32
0.0
 13
12040.0
 23
20443.361525
 33
0.0
  0
POINT
  5
A2
  8
DEFPOINTS
  6
BYBLOCK
 62
     0
 10
11960.0
 20
20590.0
 30
0.0
  0
POINT
  5
A3
  8
DEFPOINTS
  6
BYBLOCK
 62
     0
 10
12040.0
 20
20590.0
 30
0.0
  0
POINT
  5
A4
  8
DEFPOINTS
  6
BYBLOCK
 62
     0
 10
12040.0
 20
20443.361525
 30
0.0
  0
ENDBLK
  5
A6
  8
0
  0
BLOCK
  8
0
  2
*D6
 70
     1
 10
0.0
 20
0.0
 30
0.0
  3
*D6
  1

  0
LINE
  5
3F
  8
0
  6
BYBLOCK
 62
     9
 10
12170.0
 20
20800.0
 30
0.0
 11
12342.15883
 21
20800.0
 31
0.0
  0
LINE
  5
40
  8
0
  6
BYBLOCK
 62
     9
 10
12010.0
 20
20850.000007
 30
0.0
 11
12342.15883
 21
20850.000007
 31
0.0
  0
LINE
  5
41
  8
0
  6
BYBLOCK
 62
     9
 10
12341.15883
 20
20780.0
 30
0.0
 11
12341.15883
 21
20760.0
 31
0.0
  0
LINE
  5
42
  8
0
  6
BYBLOCK
 62
     9
 10
12341.15883
 20
20870.000007
 30
0.0
 11
12341.15883
 21
20890.000007
 31
0.0
  0
TEXT
  5
43
  8
0
  6
BYBLOCK
 62
    11
 10
12358.909159
 20
20706.168445
 30
0.0
 40
35.0
  1
50
 50
90.0
  0
LINE
  5
44
  8
0
  6
BYBLOCK
 62
     9
 10
12341.15883
 20
20800.0
 30
0.0
 11
12341.15883
 21
20850.000007
 31
0.0
  0
SOLID
  5
45
  8
0
  6
BYBLOCK
 62
     9
 10
12337.825497
 20
20780.0
 30
0.0
 11
12344.492164
 21
20780.0
 31
0.0
 12
12341.15883
 22
20800.0
 32
0.0
 13
12341.15883
 23
20800.0
 33
0.0
  0
SOLID
  5
46
  8
0
  6
BYBLOCK
 62
     9
 10
12337.825497
 20
20870.000007
 30
0.0
 11
12344.492164
 21
20870.000007
 31
0.0
 12
12341.15883
 22
20850.000007
 32
0.0
 13
12341.15883
 23
20850.000007
 33
0.0
  0
POINT
  5
47
  8
DEFPOINTS
  6
BYBLOCK
 62
     0
 10
12160.0
 20
20800.0
 30
0.0
  0
POINT
  5
48
  8
DEFPOINTS
  6
BYBLOCK
 62
     0
 10
12000.0
 20
20850.000007
 30
0.0
  0
POINT
  5
49
  8
DEFPOINTS
  6
BYBLOCK
 62
     0
 10
12341.15883
 20
20850.000007
 30
0.0
  0
ENDBLK
  5
4B
  8
0
  0
BLOCK
  8
0
  2
*D7
 70
     1
 10
0.0
 20
0.0
 30
0.0
  3
*D7
  1

  0
LINE
  5
31
  8
0
  6
BYBLOCK
 62
     9
 10
12010.0
 20
20850.000007
 30
0.0
 11
12391.603888
 21
20850.000007
 31
0.0
  0
LINE
  5
32
  8
0
  6
BYBLOCK
 62
     9
 10
12010.0
 20
20680.00285
 30
0.0
 11
12391.603888
 21
20680.00285
 31
0.0
  0
LINE
  5
33
  8
0
  6
BYBLOCK
 62
     9
 10
12390.603888
 20
20830.000007
 30
0.0
 11
12390.603888
 21
20810.123095
 31
0.0
  0
LINE
  5
34
  8
0
  6
BYBLOCK
 62
     9
 10
12390.603888
 20
20700.00285
 30
0.0
 11
12390.603888
 21
20720.289762
 31
0.0
  0
TEXT
  5
35
  8
0
  6
BYBLOCK
 62
    11
 10
12408.103888
 20
20727.289762
 30
0.0
 40
35.0
  1
170
 50
90.0
  0
SOLID
  5
36
  8
0
  6
BYBLOCK
 62
     9
 10
12387.270555
 20
20830.000007
 30
0.0
 11
12393.937221
 21
20830.000007
 31
0.0
 12
12390.603888
 22
20850.000007
 32
0.0
 13
12390.603888
 23
20850.000007
 33
0.0
  0
SOLID
  5
37
  8
0
  6
BYBLOCK
 62
     9
 10
12387.270555
 20
20700.00285
 30
0.0
 11
12393.937221
 21
20700.00285
 31
0.0
 12
12390.603888
 22
20680.00285
 32
0.0
 13
12390.603888
 23
20680.00285
 33
0.0
  0
POINT
  5
38
  8
DEFPOINTS
  6
BYBLOCK
 62
     0
 10
12000.0
 20
20850.000007
 30
0.0
  0
POINT
  5
39
  8
DEFPOINTS
  6
BYBLOCK
 62
     0
 10
12000.0
 20
20680.00285
 30
0.0
  0
POINT
  5
3A
  8
DEFPOINTS
  6
BYBLOCK
 62
     0
 10
12390.603888
 20
20680.00285
 30
0.0
  0
ENDBLK
  5
3C
  8
0
  0
BLOCK
  8
0
  2
*D8
 70
     1
 10
0.0
 20
0.0
 30
0.0
  3
*D8
  1

  0
LINE
  5
22
  8
0
  6
BYBLOCK
 62
     9
 10
11860.0
 20
20819.0
 30
0.0
 11
11860.0
 21
20876.432992
 31
0.0
  0
LINE
  5
23
  8
0
  6
BYBLOCK
 62
     9
 10
12140.0
 20
20819.0
 30
0.0
 11
12140.0
 21
20876.432992
 31
0.0
  0
LINE
  5
24
  8
0
  6
BYBLOCK
 62
     9
 10
11880.0
 20
20875.432992
 30
0.0
 11
11949.25
 21
20875.432992
 31
0.0
  0
LINE
  5
25
  8
0
  6
BYBLOCK
 62
     9
 10
12120.0
 20
20875.432992
 30
0.0
 11
12050.75
 21
20875.432992
 31
0.0
  0
SOLID
  5
26
  8
0
  6
BYBLOCK
 62
     9
 10
11880.0
 20
20878.766326
 30
0.0
 11
11880.0
 21
20872.099659
 31
0.0
 12
11860.0
 22
20875.432992
 32
0.0
 13
11860.0
 23
20875.432992
 33
0.0
  0
SOLID
  5
27
  8
0
  6
BYBLOCK
 62
     9
 10
12120.0
 20
20878.766326
 30
0.0
 11
12120.0
 21
20872.099659
 31
0.0
 12
12140.0
 22
20875.432992
 32
0.0
 13
12140.0
 23
20875.432992
 33
0.0
  0
TEXT
  5
28
  8
0
  6
BYBLOCK
 62
    11
 10
11956.25
 20
20857.932992
 30
0.0
 40
35.0
  1
280
  0
POINT
  5
29
  8
DEFPOINTS
  6
BYBLOCK
 62
     0
 10
11860.0
 20
20809.0
 30
0.0
  0
POINT
  5
2B
  8
DEFPOINTS
  6
BYBLOCK
 62
     0
 10
12140.0
 20
20809.0
 30
0.0
  0
POINT
  5
2C
  8
DEFPOINTS
  6
BYBLOCK
 62
     0
 10
12140.0
 20
20875.432992
 30
0.0
  0
ENDBLK
  5
2E
  8
0
  0
ENDSEC
  0
SECTION
  2
ENTITIES
  0
DIMENSION
  5
20
  8
TEAM-MAS
  2
*D8
 10
140.0
 20
875.432992
 30
0.0
 11
0.0
 21
875.432992
 31
0.0
 12
-12000.0
 22
-20000.0
 32
0.0
 13
-140.0
 23
809.0
 33
0.0
 14
140.0
 24
809.0
 34
0.0
  0
DIMENSION
  5
2F
  8
TEAM-MAS
  2
*D7
 10
390.603888
 20
680.00285
 30
0.0
 11
390.603888
 21
765.206429
 31
0.0
 12
-12000.0
 22
-20000.0
 32
0.0
 70
   128
 13
0.0
 23
850.000007
 33
0.0
 14
0.0
 24
680.00285
 34
0.0
 50
90.0
  0
DIMENSION
  5
3D
  8
TEAM-MAS
  2
*D6
 10
341.15883
 20
850.000007
 30
0.0
 11
341.409159
 21
732.418445
 31
0.0
 12
-12000.0
 22
-20000.0
 32
0.0
 70
   128
 13
160.0
 23
800.0
 33
0.0
 14
0.0
 24
850.000007
 34
0.0
 50
90.0
  0
DIMENSION
  5
4C
  8
TEAM-MAS
  2
*D4
 10
491.321274
 20
0.0
 30
0.0
 11
491.321274
 21
265.0
 31
0.0
 12
-12000.0
 22
-20000.0
 32
0.0
 13
20.0
 23
530.0
 33
0.0
 14
0.0
 24
0.0
 34
0.0
 50
90.0
  0
DIMENSION
  5
5A
  8
TEAM-MAS
  2
*D3
 10
440.875974
 20
0.0
 30
0.0
 11
440.875974
 21
300.0
 31
0.0
 12
-12000.0
 22
-20000.0
 32
0.0
 13
50.0
 23
600.0
 33
0.0
 14
0.0
 24
0.0
 34
0.0
 50
90.0
  0
DIMENSION
  5
68
  8
TEAM-MAS
  2
*D2
 10
491.321274
 20
530.0
 30
0.0
 11
491.321274
 21
690.000004
 31
0.0
 12
-12000.0
 22
-20000.0
 32
0.0
 13
0.0
 23
850.000007
 33
0.0
 14
20.0
 24
530.0
 34
0.0
 50
90.0
  0
DIMENSION
  5
76
  8
TEAM-MAS
  2
*D1
 10
440.875974
 20
600.0
 30
0.0
 11
440.875974
 21
725.000004
 31
0.0
 12
-12000.0
 22
-20000.0
 32
0.0
 13
0.0
 23
850.000007
 33
0.0
 14
50.0
 24
600.0
 34
0.0
 50
90.0
1001
ACAD
1000
DSTYLE
1002
{
1070
    40
1040
1.0
1002
}
  0
DIMENSION
  5
84
  8
TEAM-MAS
  2
*D0
 10
540.593117
 20
0.0
 30
0.0
 11
540.593117
 21
425.000004
 31
0.0
 12
-12000.0
 22
-20000.0
 32
0.0
 13
0.0
 23
850.000007
 33
0.0
 14
0.0
 24
0.0
 34
0.0
 50
90.0
  0
LINE
  5
92
  8
TEAM-BODY
 10
0.0
 20
850.000007
 30
0.0
 11
265.005072
 21
849.916961
 31
0.0
  0
LINE
  5
94
  8
TEAM-BODY
 10
0.0
 20
734.961282
 30
0.0
 11
247.998038
 21
734.892187
 31
0.0
  0
POLYLINE
  5
95
  8
TEAM-BODY
 66
     1
 10
0.0
 20
0.0
 30
0.0
  0
VERTEX
  5
149
  8
TEAM-BODY
 10
0.0
 20
709.863966
 30
0.0
  0
VERTEX
  5
14A
  8
TEAM-BODY
 10
168.42149
 20
709.863966
 30
0.0
 42
0.162846
  0
VERTEX
  5
14B
  8
TEAM-BODY
 10
198.510078
 20
719.93056
 30
0.0
  0
VERTEX
  5
14C
  8
TEAM-BODY
 10
218.378018
 20
734.900439
 30
0.0
  0
SEQEND
  5
14D
  8
TEAM-BODY
  0
TEXT
  5
96
  8
TEAM-TXT
 10
-113.082469
 20
750.84808
 30
0.0
 40
30.0
  1
team 211241
 41
0.8
 51
15.0
  7
TEAM
  0
DIMENSION
  5
99
  8
TEAM-MAS
  2
*D5
 10
40.0
 20
443.361525
 30
0.0
 11
-0.697566
 21
466.79563
 31
0.0
 12
-12000.0
 22
-20000.0
 32
0.0
 70
   128
 13
-40.0
 23
590.0
 33
0.0
 14
40.0
 24
590.0
 34
0.0
  0
LINE
  5
A7
  8
TEAM-BODY
 10
0.0
 20
679.59
 30
0.0
 11
25.0
 21
679.59
 31
0.0
  0
ARC
  5
A8
  8
TEAM-BODY
 10
25.0
 20
684.59
 30
0.0
 40
5.0
 50
270.0
 51
0.0
  0
LINE
  5
A9
  8
TEAM-BODY
 10
30.0
 20
709.863966
 30
0.0
 11
30.0
 21
684.59
 31
0.0
210
-0.0
220
-0.0
230
-1.0
  0
ARC
  5
AA
  8
TEAM-BODY
 10
-25.0
 20
684.59
 30
0.0
 40
5.0
 50
180.0
 51
270.0
  0
LINE
  5
AB
  8
TEAM-BODY
 10
-30.0
 20
709.863966
 30
0.0
 11
-30.0
 21
684.59
 31
0.0
210
0.0
220
-0.0
230
-1.0
  0
LINE
  5
AC
  8
TEAM-BODY
 10
0.0
 20
679.59
 30
0.0
 11
-25.0
 21
679.59
 31
0.0
  0
LINE
  5
AD
  8
TEAM-BODY
 10
0.0
 20
850.000007
 30
0.0
 11
-265.005072
 21
849.916961
 31
0.0
  0
LINE
  5
AE
  8
TEAM-BODY
 10
0.0
 20
734.961282
 30
0.0
 11
-247.998038
 21
734.892187
 31
0.0
  0
ARC
  5
AF
  8
TEAM-BODY
 10
56.280004
 20
848.369843
 30
0.0
 40
331.39464
 50
181.507089
 51
198.78177
  0
ARC
  5
B0
  8
TEAM-BODY
 10
-265.003459
 20
839.916962
 30
0.0
 40
10.0
 50
90.009241
 51
181.507089
  0
ARC
  5
B1
  8
TEAM-BODY
 10
-248.000934
 20
744.892186
 30
0.0
 40
10.0
 50
198.78177
 51
270.016594
  0
POLYLINE
  5
B2
  8
TEAM-BODY
 66
     1
 10
0.0
 20
0.0
 30
0.0
  0
VERTEX
  5
14E
  8
TEAM-BODY
 10
0.0
 20
709.863966
 30
0.0
  0
VERTEX
  5
14F
  8
TEAM-BODY
 10
-168.42149
 20
709.863966
 30
0.0
 42
-0.162846
  0
VERTEX
  5
150
  8
TEAM-BODY
 10
-198.510078
 20
719.93056
 30
0.0
  0
VERTEX
  5
151
  8
TEAM-BODY
 10
-218.378018
 20
734.900439
 30
0.0
  0
SEQEND
  5
152
  8
TEAM-BODY
  0
ARC
  5
B3
  8
TEAM-HIDE
 10
-129.0
 20
800.0
 30
0.0
 40
9.0
 50
270.0
 51
90.0
  0
LINE
  5
B6
  8
TEAM-AXE
 10
-140.0
 20
809.0
 30
0.0
 11
-140.0
 21
791.0
 31
0.0
  0
ARC
  5
B9
  8
TEAM-HIDE
 10
-151.0
 20
800.0
 30
0.0
 40
9.0
 50
90.0
 51
270.0
  0
LINE
  5
BA
  8
TEAM-HIDE
 10
-151.0
 20
791.0
 30
0.0
 11
-129.0
 21
791.0
 31
0.0
  0
LINE
  5
BB
  8
TEAM-HIDE
 10
-129.0
 20
809.0
 30
0.0
 11
-151.0
 21
809.0
 31
0.0
  0
LINE
  5
BC
  8
TEAM-AXE
 10
-160.0
 20
800.0
 30
0.0
 11
-120.0
 21
800.0
 31
0.0
  0
ARC
  5
BD
  8
TEAM-HIDE
 10
-129.0
 20
800.0
 30
0.0
 40
9.0
 50
270.0
 51
90.0
  0
ARC
  5
BE
  8
TEAM-HIDE
 10
-151.0
 20
800.0
 30
0.0
 40
9.0
 50
90.0
 51
270.0
  0
LINE
  5
BF
  8
TEAM-HIDE
 10
-151.0
 20
791.0
 30
0.0
 11
-129.0
 21
791.0
 31
0.0
  0
LINE
  5
C0
  8
TEAM-HIDE
 10
-129.0
 20
809.0
 30
0.0
 11
-151.0
 21
809.0
 31
0.0
  0
LINE
  5
C1
  8
TEAM-AXE
 10
-20.0
 20
530.0
 30
0.0
 11
20.0
 21
530.0
 31
0.0
  0
CIRCLE
  5
C2
  8
TEAM-KAN
 10
0.0
 20
530.0
 30
0.0
 40
20.0
  0
CIRCLE
  5
C4
  8
TEAM-KAN
 10
0.0
 20
530.0
 30
0.0
 40
20.0
  0
LINE
  5
C5
  8
TEAM-AXE
 10
0.0
 20
550.0
 30
0.0
 11
0.0
 21
510.0
 31
0.0
210
0.0
220
-0.0
230
-1.0
  0
CIRCLE
  5
C6
  8
TEAM-WARM
 10
-40.0
 20
600.0
 30
0.0
 40
10.0
  0
LINE
  5
C8
  8
TEAM-AXE
 10
-50.0
 20
600.0
 30
0.0
 11
-30.0
 21
600.0
 31
0.0
  0
LINE
  5
C9
  8
TEAM-AXE
 10
-40.0
 20
610.0
 30
0.0
 11
-40.0
 21
590.0
 31
0.0
210
0.0
220
-0.0
230
-1.0
  0
LINE
  5
CA
  8
TEAM-AXE
 10
30.0
 20
600.0
 30
0.0
 11
50.0
 21
600.0
 31
0.0
  0
CIRCLE
  5
CB
  8
TEAM-COLD
 10
40.0
 20
600.0
 30
0.0
 40
10.0
  0
LINE
  5
CD
  8
TEAM-AXE
 10
40.0
 20
610.0
 30
0.0
 11
40.0
 21
590.0
 31
0.0
210
0.0
220
-0.0
230
-1.0
  0
CIRCLE
  5
CE
  8
TEAM-INSP
 10
0.0
 20
0.0
 30
0.0
 40
10.0
  0
LINE
  5
D0
  8
TEAM-AXE
 10
0.0
 20
850.000007
 30
0.0
 11
0.0
 21
593.079684
 31
0.0
210
0.0
220
-0.0
230
-1.0
  0
POLYLINE
  5
D1
  8
TEAM-HAUBE
 66
     1
 10
0.0
 20
0.0
 30
0.0
  0
VERTEX
  5
153
  8
TEAM-HAUBE
 10
-69.315765
 20
709.863966
 30
0.0
  0
VERTEX
  5
154
  8
TEAM-HAUBE
 10
-69.315765
 20
0.0
 30
0.0
  0
VERTEX
  5
155
  8
TEAM-HAUBE
 10
0.0
 20
0.0
 30
0.0
  0
SEQEND
  5
156
  8
TEAM-HAUBE
  0
POLYLINE
  5
D4
  8
TEAM-HAUBE
 66
     1
 10
0.0
 20
0.0
 30
0.0
  0
VERTEX
  5
157
  8
TEAM-HAUBE
 10
69.315765
 20
709.863966
 30
0.0
  0
VERTEX
  5
158
  8
TEAM-HAUBE
 10
69.315765
 20
0.0
 30
0.0
  0
VERTEX
  5
159
  8
TEAM-HAUBE
 10
0.0
 20
0.0
 30
0.0
  0
SEQEND
  5
15A
  8
TEAM-HAUBE
  0
ARC
  5
D5
  8
TEAM-BODY
 10
265.003459
 20
839.916962
 30
0.0
 40
10.0
 50
358.492911
 51
89.990759
  0
ARC
  5
D6
  8
TEAM-BODY
 10
248.000934
 20
744.892186
 30
0.0
 40
10.0
 50
269.983406
 51
341.21823
  0
ARC
  5
D7
  8
TEAM-BODY
 10
-56.280004
 20
848.369843
 30
0.0
 40
331.39464
 50
341.21823
 51
358.492911
  0
LINE
  5
D8
  8
TEAM-AXE
 10
140.0
 20
809.0
 30
0.0
 11
140.0
 21
791.0
 31
0.0
  0
LINE
  5
D9
  8
TEAM-HIDE
 10
151.0
 20
791.0
 30
0.0
 11
129.0
 21
791.0
 31
0.0
  0
LINE
  5
DA
  8
TEAM-HIDE
 10
129.0
 20
809.0
 30
0.0
 11
151.0
 21
809.0
 31
0.0
  0
ARC
  5
DB
  8
TEAM-HIDE
 10
129.0
 20
800.0
 30
0.0
 40
9.0
 50
90.0
 51
270.0
  0
ARC
  5
DC
  8
TEAM-HIDE
 10
151.0
 20
800.0
 30
0.0
 40
9.0
 50
270.0
 51
90.0
  0
LINE
  5
DD
  8
TEAM-HIDE
 10
151.0
 20
791.0
 30
0.0
 11
129.0
 21
791.0
 31
0.0
  0
LINE
  5
DE
  8
TEAM-HIDE
 10
129.0
 20
809.0
 30
0.0
 11
151.0
 21
809.0
 31
0.0
  0
ARC
  5
DF
  8
TEAM-HIDE
 10
129.0
 20
800.0
 30
0.0
 40
9.0
 50
90.0
 51
270.0
  0
ARC
  5
E0
  8
TEAM-HIDE
 10
151.0
 20
800.0
 30
0.0
 40
9.0
 50
270.0
 51
90.0
  0
LINE
  5
E1
  8
TEAM-AXE
 10
160.0
 20
800.0
 30
0.0
 11
120.0
 21
800.0
 31
0.0
  0
ENDSEC
  0
EOF
