  0
SECTION
  2
HEADER
  9
$ACADVER
  1
AC1009
  9
$INSBASE
 10
0.0
 20
0.0
 30
0.0
  9
$EXTMIN
 10
-279.147595
 20
-487.535861
 30
-0.000305
  9
$EXTMAX
 10
369.31266
 20
10.01514
 30
10.000305
  9
$LIMMIN
 10
-279.147595
 20
-487.535861
  9
$LIMMAX
 10
369.31266
 20
10.01514
  9
$ORTHOMODE
 70
     1
  9
$REGENMODE
 70
     1
  9
$FILLMODE
 70
     1
  9
$QTEXTMODE
 70
     0
  9
$MIRRTEXT
 70
     0
  9
$DRAGMODE
 70
     2
  9
$LTSCALE
 40
25.0
  9
$OSMODE
 70
     0
  9
$ATTMODE
 70
     1
  9
$TEXTSIZE
 40
200.0
  9
$TRACEWID
 40
1.0
  9
$TEXTSTYLE
  7
STANDARD
  9
$CLAYER
  8
TEAM-MAS
  9
$CELTYPE
  6
BYLAYER
  9
$CECOLOR
 62
   256
  9
$DIMSCALE
 40
0.0
  9
$DIMASZ
 40
20.0
  9
$DIMEXO
 40
10.0
  9
$DIMDLI
 40
1.0
  9
$DIMRND
 40
0.0
  9
$DIMDLE
 40
0.0
  9
$DIMEXE
 40
1.0
  9
$DIMTP
 40
0.0
  9
$DIMTM
 40
0.0
  9
$DIMTXT
 40
35.0
  9
$DIMCEN
 40
1.0
  9
$DIMTSZ
 40
0.0
  9
$DIMTOL
 70
     0
  9
$DIMLIM
 70
     0
  9
$DIMTIH
 70
     0
  9
$DIMTOH
 70
     0
  9
$DIMSE1
 70
     0
  9
$DIMSE2
 70
     0
  9
$DIMTAD
 70
     0
  9
$DIMZIN
 70
     0
  9
$DIMBLK
  1

  9
$DIMASO
 70
     1
  9
$DIMSHO
 70
     0
  9
$DIMPOST
  1

  9
$DIMAPOST
  1

  9
$DIMALT
 70
     0
  9
$DIMALTD
 70
     2
  9
$DIMALTF
 40
25.4
  9
$DIMLFAC
 40
1.0
  9
$DIMTOFL
 70
     0
  9
$DIMTVP
 40
0.0
  9
$DIMTIX
 70
     0
  9
$DIMSOXD
 70
     0
  9
$DIMSAH
 70
     0
  9
$DIMBLK1
  1

  9
$DIMBLK2
  1

  9
$DIMSTYLE
  2
TEAM
  9
$DIMCLRD
 70
     9
  9
$DIMCLRE
 70
     9
  9
$DIMCLRT
 70
    11
  9
$DIMTFAC
 40
1.0
  9
$DIMGAP
 40
15.0
  9
$LUNITS
 70
     2
  9
$LUPREC
 70
     1
  9
$SKETCHINC
 40
1.0
  9
$FILLETRAD
 40
50.0
  9
$AUNITS
 70
     0
  9
$AUPREC
 70
     0
  9
$MENU
  1
ROPLANS
  9
$ELEVATION
 40
0.0
  9
$PELEVATION
 40
0.0
  9
$THICKNESS
 40
0.0
  9
$LIMCHECK
 70
     0
  9
$BLIPMODE
 70
     1
  9
$CHAMFERA
 40
0.0
  9
$CHAMFERB
 40
0.0
  9
$SKPOLY
 70
     0
  9
$TDCREATE
 40
2450392.957851
  9
$TDUPDATE
 40
2455618.717998
  9
$TDINDWG
 40
2.602259
  9
$TDUSRTIMER
 40
2.602259
  9
$USRTIMER
 70
     1
  9
$ANGBASE
 50
0.0
  9
$ANGDIR
 70
     0
  9
$PDMODE
 70
     0
  9
$PDSIZE
 40
0.0
  9
$PLINEWID
 40
0.0
  9
$COORDS
 70
     2
  9
$SPLFRAME
 70
     0
  9
$SPLINETYPE
 70
     6
  9
$SPLINESEGS
 70
     8
  9
$ATTDIA
 70
     0
  9
$ATTREQ
 70
     0
  9
$HANDLING
 70
     1
  9
$HANDSEED
  5
CC
  9
$SURFTAB1
 70
    36
  9
$SURFTAB2
 70
    36
  9
$SURFTYPE
 70
     6
  9
$SURFU
 70
     6
  9
$SURFV
 70
     6
  9
$UCSNAME
  2

  9
$UCSORG
 10
0.0
 20
0.0
 30
0.0
  9
$UCSXDIR
 10
1.0
 20
0.0
 30
0.0
  9
$UCSYDIR
 10
0.0
 20
1.0
 30
0.0
  9
$PUCSNAME
  2

  9
$PUCSORG
 10
0.0
 20
0.0
 30
0.0
  9
$PUCSXDIR
 10
1.0
 20
0.0
 30
0.0
  9
$PUCSYDIR
 10
0.0
 20
1.0
 30
0.0
  9
$USERI1
 70
     0
  9
$USERI2
 70
     0
  9
$USERI3
 70
     0
  9
$USERI4
 70
     0
  9
$USERI5
 70
     0
  9
$USERR1
 40
0.0
  9
$USERR2
 40
0.0
  9
$USERR3
 40
0.0
  9
$USERR4
 40
0.0
  9
$USERR5
 40
0.0
  9
$WORLDVIEW
 70
     1
  9
$SHADEDGE
 70
     0
  9
$SHADEDIF
 70
    70
  9
$TILEMODE
 70
     1
  9
$MAXACTVP
 70
    16
  9
$PLIMCHECK
 70
     0
  9
$PEXTMIN
 10
-0.805942
 20
0.005011
 30
0.0
  9
$PEXTMAX
 10
20.250094
 20
11.356329
 30
0.0
  9
$PLIMMIN
 10
0.0
 20
0.0
  9
$PLIMMAX
 10
12.0
 20
9.0
  9
$UNITMODE
 70
     0
  9
$VISRETAIN
 70
     0
  9
$PLINEGEN
 70
     0
  9
$PSLTSCALE
 70
     0
  0
ENDSEC
  0
SECTION
  2
TABLES
  0
TABLE
  2
VPORT
 70
     2
  0
VPORT
  2
*ACTIVE
 70
     0
 10
0.0
 20
0.0
 11
1.0
 21
1.0
 12
45.082532
 22
-238.76036
 13
0.0
 23
0.0
 14
1.0
 24
1.0
 15
50.0
 25
50.0
 16
0.0
 26
0.0
 36
1.0
 17
0.0
 27
0.0
 37
0.0
 40
500.606586
 41
1.865779
 42
50.0
 43
0.0
 44
0.0
 50
0.0
 51
0.0
 71
     0
 72
   100
 73
     1
 74
     1
 75
     0
 76
     0
 77
     0
 78
     0
  0
ENDTAB
  0
TABLE
  2
LTYPE
 70
     2
  0
LTYPE
  2
CONTINUOUS
 70
     0
  3
Solid Line
 72
    65
 73
     0
 40
0.0
  0
LTYPE
  2
31
 70
     0
  3

 72
    65
 73
     4
 40
2.1
 49
1.5
 49
-0.3
 49
0.0
 49
-0.3
  0
ENDTAB
  0
TABLE
  2
LAYER
 70
     8
  0
LAYER
  2
0
 70
     0
 62
     7
  6
CONTINUOUS
  0
LAYER
  2
DEFPOINTS
 70
     0
 62
     7
  6
CONTINUOUS
  0
LAYER
  2
TEAM-BODY
 70
     0
 62
     2
  6
CONTINUOUS
  0
LAYER
  2
TEAM-AXE
 70
     0
 62
    10
  6
31
  0
LAYER
  2
TEAM-MAS
 70
     0
 62
     9
  6
CONTINUOUS
  0
LAYER
  2
TEAM-TXT
 70
     0
 62
    11
  6
CONTINUOUS
  0
LAYER
  2
TEAM-DET1
 70
     0
 62
     4
  6
CONTINUOUS
  0
LAYER
  2
TEAM-INSP
 70
     0
 62
     5
  6
CONTINUOUS
  0
ENDTAB
  0
TABLE
  2
STYLE
 70
     2
  0
STYLE
  2
STANDARD
 70
     0
 40
0.0
 41
1.0
 50
0.0
 71
     0
 42
200.0
  3
txt
  4

  0
STYLE
  2
TEAM
 70
     0
 40
0.0
 41
0.8
 50
15.0
 71
     0
 42
7.0
  3
ROMANS.shx
  4

  0
ENDTAB
  0
TABLE
  2
VIEW
 70
     0
  0
ENDTAB
  0
TABLE
  2
UCS
 70
     0
  0
ENDTAB
  0
TABLE
  2
APPID
 70
     1
  0
APPID
  2
ACAD
 70
     0
  0
ENDTAB
  0
TABLE
  2
DIMSTYLE
 70
     1
  0
DIMSTYLE
  2
TEAM
 70
     0
  3

  4

  5

  6

  7

 40
0.0
 41
20.0
 42
10.0
 43
1.0
 44
1.0
 45
0.0
 46
0.0
 47
0.0
 48
0.0
140
35.0
141
1.0
142
0.0
143
25.4
144
1.0
145
0.0
146
1.0
147
15.0
 71
     0
 72
     0
 73
     0
 74
     0
 75
     0
 76
     0
 77
     0
 78
     0
170
     0
171
     2
172
     0
173
     0
174
     0
175
     0
176
     9
177
     9
178
    11
  0
ENDTAB
  0
ENDSEC
  0
SECTION
  2
BLOCKS
  0
BLOCK
  8
0
  2
$MODEL_SPACE
 70
     0
 10
0.0
 20
0.0
 30
0.0
  3
$MODEL_SPACE
  1

  0
ENDBLK
  5
B3
  8
0
  0
BLOCK
 67
     1
  8
0
  2
$PAPER_SPACE
 70
     0
 10
0.0
 20
0.0
 30
0.0
  3
$PAPER_SPACE
  1

  0
ENDBLK
  5
B1
 67
     1
  8
0
  0
BLOCK
  8
0
  2
*D0
 70
     1
 10
0.0
 20
0.0
 30
0.0
  3
*D0
  1

  0
LINE
  5
3F
  8
0
  6
BYBLOCK
 62
     9
 10
3725.001133
 20
91570.003931
 30
0.0
 11
3725.001133
 21
91528.681284
 31
0.0
  0
LINE
  5
40
  8
0
  6
BYBLOCK
 62
     9
 10
4274.995856
 20
91570.003931
 30
0.0
 11
4274.995856
 21
91528.681284
 31
0.0
  0
LINE
  5
41
  8
0
  6
BYBLOCK
 62
     9
 10
3745.001133
 20
91529.681284
 30
0.0
 11
3953.484715
 21
91529.681284
 31
0.0
  0
LINE
  5
42
  8
0
  6
BYBLOCK
 62
     9
 10
4254.995856
 20
91529.681284
 30
0.0
 11
4046.512274
 21
91529.681284
 31
0.0
  0
SOLID
  5
43
  8
0
  6
BYBLOCK
 62
     9
 10
3745.001133
 20
91533.014618
 30
0.0
 11
3745.001133
 21
91526.347951
 31
0.0
 12
3725.001133
 22
91529.681284
 32
0.0
 13
3725.001133
 23
91529.681284
 33
0.0
  0
SOLID
  5
44
  8
0
  6
BYBLOCK
 62
     9
 10
4254.995856
 20
91533.014618
 30
0.0
 11
4254.995856
 21
91526.347951
 31
0.0
 12
4274.995856
 22
91529.681284
 32
0.0
 13
4274.995856
 23
91529.681284
 33
0.0
  0
TEXT
  5
45
  8
0
  6
BYBLOCK
 62
    11
 10
3963.234715
 20
91512.181284
 30
0.0
 40
35.0
  1
550
  0
POINT
  5
46
  8
DEFPOINTS
  6
BYBLOCK
 62
     0
 10
3725.001133
 20
91580.003931
 30
0.0
  0
POINT
  5
47
  8
DEFPOINTS
  6
BYBLOCK
 62
     0
 10
4274.995856
 20
91580.003931
 30
0.0
  0
POINT
  5
48
  8
DEFPOINTS
  6
BYBLOCK
 62
     0
 10
4274.995856
 20
91529.681284
 30
10.0
  0
ENDBLK
  5
4A
  8
0
  0
BLOCK
  8
0
  2
*D1
 70
     1
 10
0.0
 20
0.0
 30
0.0
  3
*D1
  1

  0
LINE
  5
31
  8
0
  6
BYBLOCK
 62
     9
 10
4284.993421
 20
92000.005076
 30
0.0
 11
4354.529216
 21
92000.005076
 31
0.0
  0
LINE
  5
32
  8
0
  6
BYBLOCK
 62
     9
 10
4265.001789
 20
91560.006103
 30
0.0
 11
4354.529216
 21
91560.006103
 31
0.0
  0
LINE
  5
33
  8
0
  6
BYBLOCK
 62
     9
 10
4353.529216
 20
91980.005076
 30
0.0
 11
4353.529216
 21
91830.019369
 31
0.0
  0
LINE
  5
34
  8
0
  6
BYBLOCK
 62
     9
 10
4353.529216
 20
91580.006103
 30
0.0
 11
4353.529216
 21
91729.99181
 31
0.0
  0
SOLID
  5
35
  8
0
  6
BYBLOCK
 62
     9
 10
4350.195883
 20
91980.005076
 30
0.0
 11
4356.86255
 21
91980.005076
 31
0.0
 12
4353.529216
 22
92000.005076
 32
0.0
 13
4353.529216
 23
92000.005076
 33
0.0
  0
SOLID
  5
36
  8
0
  6
BYBLOCK
 62
     9
 10
4350.195883
 20
91580.006103
 30
0.0
 11
4356.86255
 21
91580.006103
 31
0.0
 12
4353.529216
 22
91560.006103
 32
0.0
 13
4353.529216
 23
91560.006103
 33
0.0
  0
TEXT
  5
37
  8
0
  6
BYBLOCK
 62
    11
 10
4371.029216
 20
91739.74181
 30
0.0
 40
35.0
  1
440
 50
90.0
  0
POINT
  5
38
  8
DEFPOINTS
  6
BYBLOCK
 62
     0
 10
4274.993421
 20
92000.005076
 30
0.0
  0
POINT
  5
39
  8
DEFPOINTS
  6
BYBLOCK
 62
     0
 10
4255.001789
 20
91560.006103
 30
0.0
  0
POINT
  5
3A
  8
DEFPOINTS
  6
BYBLOCK
 62
     0
 10
4353.529216
 20
91560.006103
 30
10.0
  0
ENDBLK
  5
3C
  8
0
  0
BLOCK
  8
0
  2
*D2
 70
     1
 10
0.0
 20
0.0
 30
0.0
  3
*D2
  1

  0
LINE
  5
22
  8
0
  6
BYBLOCK
 62
     9
 10
4284.993421
 20
92000.005076
 30
0.0
 11
4309.637965
 21
92000.005076
 31
0.0
  0
LINE
  5
23
  8
0
  6
BYBLOCK
 62
     9
 10
4010.427754
 20
91785.01
 30
0.0
 11
4309.637965
 21
91785.01
 31
0.0
  0
LINE
  5
24
  8
0
  6
BYBLOCK
 62
     9
 10
4308.637965
 20
91980.005076
 30
0.0
 11
4308.637965
 21
91936.676802
 31
0.0
  0
LINE
  5
25
  8
0
  6
BYBLOCK
 62
     9
 10
4308.637965
 20
91805.01
 30
0.0
 11
4308.637965
 21
91848.338275
 31
0.0
  0
SOLID
  5
26
  8
0
  6
BYBLOCK
 62
     9
 10
4305.304632
 20
91980.005076
 30
0.0
 11
4311.971298
 21
91980.005076
 31
0.0
 12
4308.637965
 22
92000.005076
 32
0.0
 13
4308.637965
 23
92000.005076
 33
0.0
  0
SOLID
  5
27
  8
0
  6
BYBLOCK
 62
     9
 10
4305.304632
 20
91805.01
 30
0.0
 11
4311.971298
 21
91805.01
 31
0.0
 12
4308.637965
 22
91785.01
 32
0.0
 13
4308.637965
 23
91785.01
 33
0.0
  0
TEXT
  5
28
  8
0
  6
BYBLOCK
 62
    11
 10
4326.137965
 20
91858.977054
 30
0.0
 40
35.0
  1
215
 50
90.0
  0
POINT
  5
29
  8
DEFPOINTS
  6
BYBLOCK
 62
     0
 10
4274.993421
 20
92000.005076
 30
0.0
  0
POINT
  5
2B
  8
DEFPOINTS
  6
BYBLOCK
 62
     0
 10
4000.427754
 20
91785.01
 30
0.0
  0
POINT
  5
2C
  8
DEFPOINTS
  6
BYBLOCK
 62
     0
 10
4308.637965
 20
91785.01
 30
0.0
  0
ENDBLK
  5
2E
  8
0
  0
ENDSEC
  0
SECTION
  2
ENTITIES
  0
DIMENSION
  5
20
  8
TEAM-MAS
  2
*D2
 10
308.637965
 20
-214.99
 30
0.0
 11
308.637965
 21
-107.492462
 31
0.0
 12
-4000.0
 22
-92000.0
 32
0.0
 13
274.993421
 23
0.005076
 33
0.0
 14
0.427754
 24
-214.99
 34
0.0
 50
90.0
1001
ACAD
1000
DSTYLE
1002
{
1070
    40
1040
1.0
1002
}
  0
DIMENSION
  5
2F
  8
TEAM-MAS
  2
*D1
 10
353.529216
 20
-439.993897
 30
10.0
 11
353.529216
 21
-219.994411
 31
0.0
 12
-4000.0
 22
-92000.0
 32
0.0
 13
274.993421
 23
0.005076
 33
0.0
 14
255.001789
 24
-439.993897
 34
0.0
 50
90.0
1001
ACAD
1000
DSTYLE
1002
{
1070
    40
1040
1.0
1002
}
  0
DIMENSION
  5
3D
  8
TEAM-MAS
  2
*D0
 10
274.995856
 20
-470.318716
 30
10.0
 11
-0.001505
 21
-470.318716
 31
0.0
 12
-4000.0
 22
-92000.0
 32
0.0
 13
-274.998867
 23
-419.996069
 33
0.0
 14
274.995856
 24
-419.996069
 34
0.0
1001
ACAD
1000
DSTYLE
1002
{
1070
    40
1040
1.0
1002
}
  0
CIRCLE
  5
4B
  8
TEAM-INSP
 10
0.0
 20
0.0
 30
0.0
 40
10.0
  0
CIRCLE
  5
4D
  8
TEAM-DET1
 10
0.0
 20
-60.000005
 30
0.0
 40
15.0
  0
LINE
  5
4F
  8
TEAM-AXE
 10
22.5
 20
-60.000005
 30
0.0
 11
-22.5
 21
-60.000005
 31
0.0
  0
LINE
  5
52
  8
TEAM-AXE
 10
0.0
 20
-37.500005
 30
0.0
 11
0.0
 21
-82.5
 31
0.0
  0
ARC
  5
53
  8
TEAM-BODY
 10
0.427754
 20
-214.99
 30
0.0
 40
23.75
 50
0.0
 51
180.0
  0
ARC
  5
55
  8
TEAM-BODY
 10
0.427754
 20
-214.99
 30
0.0
 40
23.75
 50
180.0
 51
0.0
  0
CIRCLE
  5
56
  8
TEAM-DET1
 10
0.427754
 20
-214.99
 30
0.0
 40
37.5
  0
LINE
  5
57
  8
TEAM-AXE
 10
45.212708
 20
-214.99
 30
0.0
 11
-44.787292
 21
-214.99
 31
0.0
  0
LINE
  5
58
  8
TEAM-AXE
 10
0.427754
 20
-169.99
 30
0.0
 11
0.427754
 21
-259.99
 31
0.0
  0
POLYLINE
  5
59
  8
TEAM-BODY
 66
     1
 10
0.0
 20
0.0
 30
0.0
  0
VERTEX
  5
B9
  8
TEAM-BODY
 10
-274.993421
 20
-0.005076
 30
0.0
  0
VERTEX
  5
BA
  8
TEAM-BODY
 10
274.993421
 20
0.005076
 30
0.0
  0
VERTEX
  5
BB
  8
TEAM-BODY
 10
274.995856
 20
-419.996069
 30
0.0
 42
-0.414162
  0
VERTEX
  5
BC
  8
TEAM-BODY
 10
255.001789
 20
-439.993897
 30
0.0
  0
VERTEX
  5
BD
  8
TEAM-BODY
 10
-255.0048
 20
-439.993897
 30
0.0
 42
-0.414269
  0
VERTEX
  5
BE
  8
TEAM-BODY
 10
-274.998867
 20
-419.996069
 30
0.0
  0
VERTEX
  5
BF
  8
TEAM-BODY
 10
-274.993421
 20
-0.005076
 30
0.0
  0
SEQEND
  5
C0
  8
TEAM-BODY
  0
TEXT
  5
5A
  8
TEAM-TXT
 10
-169.469364
 20
-356.676899
 30
0.0
 40
30.0
  1
team 211855
 41
0.8
 51
15.0
  7
TEAM
  0
POLYLINE
  5
5D
  8
TEAM-BODY
 66
     1
 10
0.0
 20
0.0
 30
0.0
  0
VERTEX
  5
C1
  8
TEAM-BODY
 10
-184.87096
 20
-130.412854
 30
0.0
  0
VERTEX
  5
C2
  8
TEAM-BODY
 10
184.778651
 20
-130.577464
 30
0.0
 42
-0.409961
  0
VERTEX
  5
C3
  8
TEAM-BODY
 10
207.646063
 20
-154.619978
 30
0.0
  0
VERTEX
  5
C4
  8
TEAM-BODY
 10
207.357063
 20
-377.32385
 30
0.0
 42
-0.401608
  0
VERTEX
  5
C5
  8
TEAM-BODY
 10
184.79442
 20
-400.829648
 30
0.0
  0
VERTEX
  5
C6
  8
TEAM-BODY
 10
-184.797431
 20
-400.829648
 30
0.0
 42
-0.414953
  0
VERTEX
  5
C7
  8
TEAM-BODY
 10
-207.354927
 20
-375.988534
 30
0.0
  0
VERTEX
  5
C8
  8
TEAM-BODY
 10
-207.649066
 20
-154.616442
 30
0.0
 42
-0.386734
  0
VERTEX
  5
C9
  8
TEAM-BODY
 10
-184.87096
 20
-130.412854
 30
0.0
 42
-1.044301
  0
SEQEND
  5
CA
  8
TEAM-BODY
  0
ENDSEC
  0
EOF
