  0
SECTION
  2
HEADER
  9
$ACADVER
  1
AC1009
  9
$INSBASE
 10
0.0
 20
0.0
 30
0.0
  9
$EXTMIN
 10
-276.278803
 20
-10.025868
 30
-0.000767
  9
$EXTMAX
 10
476.925387
 20
937.457991
 30
10.000674
  9
$LIMMIN
 10
-276.278803
 20
-10.025868
  9
$LIMMAX
 10
476.925387
 20
937.457991
  9
$ORTHOMODE
 70
     1
  9
$REGENMODE
 70
     1
  9
$FILLMODE
 70
     1
  9
$QTEXTMODE
 70
     0
  9
$MIRRTEXT
 70
     0
  9
$DRAGMODE
 70
     2
  9
$LTSCALE
 40
25.0
  9
$OSMODE
 70
     0
  9
$ATTMODE
 70
     1
  9
$TEXTSIZE
 40
200.0
  9
$TRACEWID
 40
1.0
  9
$TEXTSTYLE
  7
STANDARD
  9
$CLAYER
  8
TEAM-MAS
  9
$CELTYPE
  6
BYLAYER
  9
$CECOLOR
 62
   256
  9
$DIMSCALE
 40
0.0
  9
$DIMASZ
 40
20.0
  9
$DIMEXO
 40
10.0
  9
$DIMDLI
 40
1.0
  9
$DIMRND
 40
0.0
  9
$DIMDLE
 40
0.0
  9
$DIMEXE
 40
1.0
  9
$DIMTP
 40
0.0
  9
$DIMTM
 40
0.0
  9
$DIMTXT
 40
35.0
  9
$DIMCEN
 40
1.0
  9
$DIMTSZ
 40
0.0
  9
$DIMTOL
 70
     0
  9
$DIMLIM
 70
     0
  9
$DIMTIH
 70
     0
  9
$DIMTOH
 70
     0
  9
$DIMSE1
 70
     0
  9
$DIMSE2
 70
     0
  9
$DIMTAD
 70
     0
  9
$DIMZIN
 70
     0
  9
$DIMBLK
  1

  9
$DIMASO
 70
     1
  9
$DIMSHO
 70
     0
  9
$DIMPOST
  1

  9
$DIMAPOST
  1

  9
$DIMALT
 70
     0
  9
$DIMALTD
 70
     2
  9
$DIMALTF
 40
25.4
  9
$DIMLFAC
 40
1.0
  9
$DIMTOFL
 70
     0
  9
$DIMTVP
 40
0.0
  9
$DIMTIX
 70
     0
  9
$DIMSOXD
 70
     0
  9
$DIMSAH
 70
     0
  9
$DIMBLK1
  1

  9
$DIMBLK2
  1

  9
$DIMSTYLE
  2
TEAM
  9
$DIMCLRD
 70
     9
  9
$DIMCLRE
 70
     9
  9
$DIMCLRT
 70
    11
  9
$DIMTFAC
 40
1.0
  9
$DIMGAP
 40
15.0
  9
$LUNITS
 70
     2
  9
$LUPREC
 70
     1
  9
$SKETCHINC
 40
1.0
  9
$FILLETRAD
 40
50.0
  9
$AUNITS
 70
     0
  9
$AUPREC
 70
     0
  9
$MENU
  1
ROPLANS
  9
$ELEVATION
 40
0.0
  9
$PELEVATION
 40
0.0
  9
$THICKNESS
 40
0.0
  9
$LIMCHECK
 70
     0
  9
$BLIPMODE
 70
     1
  9
$CHAMFERA
 40
0.0
  9
$CHAMFERB
 40
0.0
  9
$SKPOLY
 70
     0
  9
$TDCREATE
 40
2450392.957851
  9
$TDUPDATE
 40
2455618.717998
  9
$TDINDWG
 40
2.602259
  9
$TDUSRTIMER
 40
2.602259
  9
$USRTIMER
 70
     1
  9
$ANGBASE
 50
0.0
  9
$ANGDIR
 70
     0
  9
$PDMODE
 70
     0
  9
$PDSIZE
 40
0.0
  9
$PLINEWID
 40
0.0
  9
$COORDS
 70
     2
  9
$SPLFRAME
 70
     0
  9
$SPLINETYPE
 70
     6
  9
$SPLINESEGS
 70
     8
  9
$ATTDIA
 70
     0
  9
$ATTREQ
 70
     0
  9
$HANDLING
 70
     1
  9
$HANDSEED
  5
1ED
  9
$SURFTAB1
 70
    36
  9
$SURFTAB2
 70
    36
  9
$SURFTYPE
 70
     6
  9
$SURFU
 70
     6
  9
$SURFV
 70
     6
  9
$UCSNAME
  2

  9
$UCSORG
 10
0.0
 20
0.0
 30
0.0
  9
$UCSXDIR
 10
1.0
 20
0.0
 30
0.0
  9
$UCSYDIR
 10
0.0
 20
1.0
 30
0.0
  9
$PUCSNAME
  2

  9
$PUCSORG
 10
0.0
 20
0.0
 30
0.0
  9
$PUCSXDIR
 10
1.0
 20
0.0
 30
0.0
  9
$PUCSYDIR
 10
0.0
 20
1.0
 30
0.0
  9
$USERI1
 70
     0
  9
$USERI2
 70
     0
  9
$USERI3
 70
     0
  9
$USERI4
 70
     0
  9
$USERI5
 70
     0
  9
$USERR1
 40
0.0
  9
$USERR2
 40
0.0
  9
$USERR3
 40
0.0
  9
$USERR4
 40
0.0
  9
$USERR5
 40
0.0
  9
$WORLDVIEW
 70
     1
  9
$SHADEDGE
 70
     0
  9
$SHADEDIF
 70
    70
  9
$TILEMODE
 70
     1
  9
$MAXACTVP
 70
    16
  9
$PLIMCHECK
 70
     0
  9
$PEXTMIN
 10
-0.805942
 20
0.005011
 30
0.0
  9
$PEXTMAX
 10
20.250094
 20
11.356329
 30
0.0
  9
$PLIMMIN
 10
0.0
 20
0.0
  9
$PLIMMAX
 10
12.0
 20
9.0
  9
$UNITMODE
 70
     0
  9
$VISRETAIN
 70
     0
  9
$PLINEGEN
 70
     0
  9
$PSLTSCALE
 70
     0
  0
ENDSEC
  0
SECTION
  2
TABLES
  0
TABLE
  2
VPORT
 70
     2
  0
VPORT
  2
*ACTIVE
 70
     0
 10
0.0
 20
0.0
 11
1.0
 21
1.0
 12
100.323292
 22
463.716061
 13
0.0
 23
0.0
 14
1.0
 24
1.0
 15
50.0
 25
50.0
 16
0.0
 26
0.0
 36
1.0
 17
0.0
 27
0.0
 37
0.0
 40
953.302593
 41
1.865779
 42
50.0
 43
0.0
 44
0.0
 50
0.0
 51
0.0
 71
     0
 72
   100
 73
     1
 74
     1
 75
     0
 76
     0
 77
     0
 78
     0
  0
ENDTAB
  0
TABLE
  2
LTYPE
 70
     3
  0
LTYPE
  2
CONTINUOUS
 70
     0
  3
Solid Line
 72
    65
 73
     0
 40
0.0
  0
LTYPE
  2
31
 70
     0
  3

 72
    65
 73
     4
 40
2.1
 49
1.5
 49
-0.3
 49
0.0
 49
-0.3
  0
LTYPE
  2
22
 70
     0
  3

 72
    65
 73
     2
 40
1.4
 49
1.2
 49
-0.2
  0
ENDTAB
  0
TABLE
  2
LAYER
 70
    11
  0
LAYER
  2
0
 70
     0
 62
     7
  6
CONTINUOUS
  0
LAYER
  2
DEFPOINTS
 70
     0
 62
     7
  6
CONTINUOUS
  0
LAYER
  2
TEAM-BODY
 70
     0
 62
     2
  6
CONTINUOUS
  0
LAYER
  2
TEAM-AXE
 70
     0
 62
    10
  6
31
  0
LAYER
  2
TEAM-MAS
 70
     0
 62
     9
  6
CONTINUOUS
  0
LAYER
  2
TEAM-TXT
 70
     0
 62
    11
  6
CONTINUOUS
  0
LAYER
  2
TEAM-COLD
 70
     0
 62
     3
  6
CONTINUOUS
  0
LAYER
  2
TEAM-HIDE
 70
     0
 62
     8
  6
22
  0
LAYER
  2
TEAM-KAN
 70
     0
 62
     6
  6
CONTINUOUS
  0
LAYER
  2
TEAM-WARM
 70
     0
 62
     1
  6
CONTINUOUS
  0
LAYER
  2
TEAM-INSP
 70
     0
 62
     5
  6
CONTINUOUS
  0
ENDTAB
  0
TABLE
  2
STYLE
 70
     2
  0
STYLE
  2
STANDARD
 70
     0
 40
0.0
 41
1.0
 50
0.0
 71
     0
 42
200.0
  3
txt
  4

  0
STYLE
  2
TEAM
 70
     0
 40
0.0
 41
0.8
 50
15.0
 71
     0
 42
7.0
  3
ROMANS.shx
  4

  0
ENDTAB
  0
TABLE
  2
VIEW
 70
     0
  0
ENDTAB
  0
TABLE
  2
UCS
 70
     0
  0
ENDTAB
  0
TABLE
  2
APPID
 70
     1
  0
APPID
  2
ACAD
 70
     0
  0
ENDTAB
  0
TABLE
  2
DIMSTYLE
 70
     1
  0
DIMSTYLE
  2
TEAM
 70
     0
  3

  4

  5

  6

  7

 40
0.0
 41
20.0
 42
10.0
 43
1.0
 44
1.0
 45
0.0
 46
0.0
 47
0.0
 48
0.0
140
35.0
141
1.0
142
0.0
143
25.4
144
1.0
145
0.0
146
1.0
147
15.0
 71
     0
 72
     0
 73
     0
 74
     0
 75
     0
 76
     0
 77
     0
 78
     0
170
     0
171
     2
172
     0
173
     0
174
     0
175
     0
176
     9
177
     9
178
    11
  0
ENDTAB
  0
ENDSEC
  0
SECTION
  2
BLOCKS
  0
BLOCK
  8
0
  2
$MODEL_SPACE
 70
     0
 10
0.0
 20
0.0
 30
0.0
  3
$MODEL_SPACE
  1

  0
ENDBLK
  5
19D
  8
0
  0
BLOCK
 67
     1
  8
0
  2
$PAPER_SPACE
 70
     0
 10
0.0
 20
0.0
 30
0.0
  3
$PAPER_SPACE
  1

  0
ENDBLK
  5
19B
 67
     1
  8
0
  0
BLOCK
  8
0
  2
*D0
 70
     1
 10
0.0
 20
0.0
 30
0.0
  3
*D0
  1

  0
LINE
  5
AF
  8
0
  6
BYBLOCK
 62
     9
 10
8254.98069
 20
92849.997355
 30
0.0
 11
8321.435979
 21
92849.997355
 31
0.0
  0
LINE
  5
B0
  8
0
  6
BYBLOCK
 62
     9
 10
8172.094137
 20
92790.0
 30
0.0
 11
8321.435979
 21
92790.0
 31
0.0
  0
LINE
  5
B1
  8
0
  6
BYBLOCK
 62
     9
 10
8320.435979
 20
92869.997355
 30
0.0
 11
8320.435979
 21
92889.997355
 31
0.0
  0
LINE
  5
B2
  8
0
  6
BYBLOCK
 62
     9
 10
8320.435979
 20
92770.0
 30
0.0
 11
8320.435979
 21
92750.0
 31
0.0
  0
TEXT
  5
B3
  8
0
  6
BYBLOCK
 62
    11
 10
8337.935979
 20
92731.533465
 30
0.0
 40
35.0
  1
60
 50
90.0
  0
LINE
  5
B4
  8
0
  6
BYBLOCK
 62
     9
 10
8320.435979
 20
92849.997355
 30
0.0
 11
8320.435979
 21
92790.0
 31
0.0
  0
SOLID
  5
B5
  8
0
  6
BYBLOCK
 62
     9
 10
8317.102645
 20
92869.997355
 30
0.0
 11
8323.769312
 21
92869.997355
 31
0.0
 12
8320.435979
 22
92849.997355
 32
0.0
 13
8320.435979
 23
92849.997355
 33
0.0
  0
SOLID
  5
B6
  8
0
  6
BYBLOCK
 62
     9
 10
8317.102645
 20
92770.0
 30
0.0
 11
8323.769312
 21
92770.0
 31
0.0
 12
8320.435979
 22
92790.0
 32
0.0
 13
8320.435979
 23
92790.0
 33
0.0
  0
POINT
  5
B7
  8
DEFPOINTS
  6
BYBLOCK
 62
     0
 10
8244.98069
 20
92849.997355
 30
0.0
  0
POINT
  5
B8
  8
DEFPOINTS
  6
BYBLOCK
 62
     0
 10
8162.094137
 20
92790.0
 30
0.0
  0
POINT
  5
B9
  8
DEFPOINTS
  6
BYBLOCK
 62
     0
 10
8320.435979
 20
92790.0
 30
0.0
  0
ENDBLK
  5
BB
  8
0
  0
BLOCK
  8
0
  2
*D1
 70
     1
 10
0.0
 20
0.0
 30
0.0
  3
*D1
  1

  0
LINE
  5
69
  8
0
  6
BYBLOCK
 62
     9
 10
7725.002639
 20
92853.588506
 30
0.0
 11
7725.002639
 21
92922.691677
 31
0.0
  0
LINE
  5
6A
  8
0
  6
BYBLOCK
 62
     9
 10
8274.997361
 20
92853.588506
 30
0.0
 11
8274.997361
 21
92922.691677
 31
0.0
  0
LINE
  5
6B
  8
0
  6
BYBLOCK
 62
     9
 10
7745.002639
 20
92921.691677
 30
0.0
 11
7953.48622
 21
92921.691677
 31
0.0
  0
LINE
  5
6C
  8
0
  6
BYBLOCK
 62
     9
 10
8254.997361
 20
92921.691677
 30
0.0
 11
8046.51378
 21
92921.691677
 31
0.0
  0
SOLID
  5
6D
  8
0
  6
BYBLOCK
 62
     9
 10
7745.002639
 20
92925.02501
 30
0.0
 11
7745.002639
 21
92918.358344
 31
0.0
 12
7725.002639
 22
92921.691677
 32
0.0
 13
7725.002639
 23
92921.691677
 33
0.0
  0
SOLID
  5
6E
  8
0
  6
BYBLOCK
 62
     9
 10
8254.997361
 20
92925.02501
 30
0.0
 11
8254.997361
 21
92918.358344
 31
0.0
 12
8274.997361
 22
92921.691677
 32
0.0
 13
8274.997361
 23
92921.691677
 33
0.0
  0
TEXT
  5
6F
  8
0
  6
BYBLOCK
 62
    11
 10
7963.23622
 20
92904.191677
 30
0.0
 40
35.0
  1
550
  0
POINT
  5
70
  8
DEFPOINTS
  6
BYBLOCK
 62
     0
 10
7725.002639
 20
92843.588506
 30
0.0
  0
POINT
  5
71
  8
DEFPOINTS
  6
BYBLOCK
 62
     0
 10
8274.997361
 20
92843.588506
 30
0.0
  0
POINT
  5
72
  8
DEFPOINTS
  6
BYBLOCK
 62
     0
 10
8274.997361
 20
92921.691677
 30
10.0
  0
ENDBLK
  5
74
  8
0
  0
BLOCK
  8
0
  2
*D2
 70
     1
 10
0.0
 20
0.0
 30
0.0
  3
*D2
  1

  0
LINE
  5
5B
  8
0
  6
BYBLOCK
 62
     9
 10
8254.98069
 20
92849.997355
 30
0.0
 11
8365.584219
 21
92849.997355
 31
0.0
  0
LINE
  5
5C
  8
0
  6
BYBLOCK
 62
     9
 10
8010.0
 20
92699.993721
 30
0.0
 11
8365.584219
 21
92699.993721
 31
0.0
  0
LINE
  5
5D
  8
0
  6
BYBLOCK
 62
     9
 10
8364.584219
 20
92869.997355
 30
0.0
 11
8364.584219
 21
92889.997355
 31
0.0
  0
LINE
  5
5E
  8
0
  6
BYBLOCK
 62
     9
 10
8364.584219
 20
92679.993721
 30
0.0
 11
8364.584219
 21
92659.993721
 31
0.0
  0
SOLID
  5
5F
  8
0
  6
BYBLOCK
 62
     9
 10
8361.250886
 20
92869.997355
 30
0.0
 11
8367.917552
 21
92869.997355
 31
0.0
 12
8364.584219
 22
92849.997355
 32
0.0
 13
8364.584219
 23
92849.997355
 33
0.0
  0
SOLID
  5
60
  8
0
  6
BYBLOCK
 62
     9
 10
8361.250886
 20
92679.993721
 30
0.0
 11
8367.917552
 21
92679.993721
 31
0.0
 12
8364.584219
 22
92699.993721
 32
0.0
 13
8364.584219
 23
92699.993721
 33
0.0
  0
TEXT
  5
61
  8
0
  6
BYBLOCK
 62
    11
 10
8382.084219
 20
92741.731759
 30
0.0
 40
35.0
  1
150
 50
90.0
  0
POINT
  5
62
  8
DEFPOINTS
  6
BYBLOCK
 62
     0
 10
8244.98069
 20
92849.997355
 30
10.0
  0
POINT
  5
63
  8
DEFPOINTS
  6
BYBLOCK
 62
     0
 10
8000.0
 20
92699.993721
 30
0.0
  0
POINT
  5
64
  8
DEFPOINTS
  6
BYBLOCK
 62
     0
 10
8364.584219
 20
92699.993721
 30
10.0
  0
ENDBLK
  5
66
  8
0
  0
BLOCK
  8
0
  2
*D3
 70
     1
 10
0.0
 20
0.0
 30
0.0
  3
*D3
  1

  0
LINE
  5
4D
  8
0
  6
BYBLOCK
 62
     9
 10
7860.094137
 20
92814.0
 30
0.0
 11
7860.094137
 21
92879.952965
 31
0.0
  0
LINE
  5
4E
  8
0
  6
BYBLOCK
 62
     9
 10
8140.094137
 20
92814.0
 30
0.0
 11
8140.094137
 21
92879.952965
 31
0.0
  0
LINE
  5
4F
  8
0
  6
BYBLOCK
 62
     9
 10
7880.094137
 20
92878.952965
 30
0.0
 11
7953.135967
 21
92878.952965
 31
0.0
  0
LINE
  5
50
  8
0
  6
BYBLOCK
 62
     9
 10
8120.094137
 20
92878.952965
 30
0.0
 11
8047.052306
 21
92878.952965
 31
0.0
  0
SOLID
  5
51
  8
0
  6
BYBLOCK
 62
     9
 10
7880.094137
 20
92882.286298
 30
0.0
 11
7880.094137
 21
92875.619632
 31
0.0
 12
7860.094137
 22
92878.952965
 32
0.0
 13
7860.094137
 23
92878.952965
 33
0.0
  0
SOLID
  5
52
  8
0
  6
BYBLOCK
 62
     9
 10
8120.094137
 20
92882.286298
 30
0.0
 11
8120.094137
 21
92875.619632
 31
0.0
 12
8140.094137
 22
92878.952965
 32
0.0
 13
8140.094137
 23
92878.952965
 33
0.0
  0
TEXT
  5
53
  8
0
  6
BYBLOCK
 62
    11
 10
7963.774747
 20
92861.452965
 30
0.0
 40
35.0
  1
280
  0
POINT
  5
54
  8
DEFPOINTS
  6
BYBLOCK
 62
     0
 10
7860.094137
 20
92804.0
 30
10.0
  0
POINT
  5
55
  8
DEFPOINTS
  6
BYBLOCK
 62
     0
 10
8140.094137
 20
92804.0
 30
10.0
  0
POINT
  5
56
  8
DEFPOINTS
  6
BYBLOCK
 62
     0
 10
8140.094137
 20
92878.952965
 30
10.0
  0
ENDBLK
  5
58
  8
0
  0
BLOCK
  8
0
  2
*D4
 70
     1
 10
0.0
 20
0.0
 30
0.0
  3
*D4
  1

  0
LINE
  5
3F
  8
0
  6
BYBLOCK
 62
     9
 10
8010.0
 20
92549.997355
 30
0.0
 11
8412.077814
 21
92549.997355
 31
0.0
  0
LINE
  5
40
  8
0
  6
BYBLOCK
 62
     9
 10
8010.0
 20
92000.0
 30
0.0
 11
8412.077814
 21
92000.0
 31
0.0
  0
LINE
  5
41
  8
0
  6
BYBLOCK
 62
     9
 10
8411.077814
 20
92529.997355
 30
0.0
 11
8411.077814
 21
92321.512457
 31
0.0
  0
LINE
  5
42
  8
0
  6
BYBLOCK
 62
     9
 10
8411.077814
 20
92020.0
 30
0.0
 11
8411.077814
 21
92228.484898
 31
0.0
  0
SOLID
  5
43
  8
0
  6
BYBLOCK
 62
     9
 10
8407.744481
 20
92529.997355
 30
0.0
 11
8414.411147
 21
92529.997355
 31
0.0
 12
8411.077814
 22
92549.997355
 32
0.0
 13
8411.077814
 23
92549.997355
 33
0.0
  0
SOLID
  5
44
  8
0
  6
BYBLOCK
 62
     9
 10
8407.744481
 20
92020.0
 30
0.0
 11
8414.411147
 21
92020.0
 31
0.0
 12
8411.077814
 22
92000.0
 32
0.0
 13
8411.077814
 23
92000.0
 33
0.0
  0
TEXT
  5
45
  8
0
  6
BYBLOCK
 62
    11
 10
8428.577814
 20
92238.234898
 30
0.0
 40
35.0
  1
550
 50
90.0
  0
POINT
  5
46
  8
DEFPOINTS
  6
BYBLOCK
 62
     0
 10
8000.0
 20
92549.997355
 30
0.0
  0
POINT
  5
47
  8
DEFPOINTS
  6
BYBLOCK
 62
     0
 10
8000.0
 20
92000.0
 30
10.0
  0
POINT
  5
48
  8
DEFPOINTS
  6
BYBLOCK
 62
     0
 10
8411.077814
 20
92000.0
 30
10.0
  0
ENDBLK
  5
4A
  8
0
  0
BLOCK
  8
0
  2
*D5
 70
     1
 10
0.0
 20
0.0
 30
0.0
  3
*D5
  1

  0
LINE
  5
A1
  8
0
  6
BYBLOCK
 62
     9
 10
8283.521575
 20
92000.0
 30
0.0
 11
8460.711122
 21
92000.0
 31
0.0
  0
LINE
  5
A2
  8
0
  6
BYBLOCK
 62
     9
 10
8267.0
 20
92849.997355
 30
0.0
 11
8460.711122
 21
92849.997355
 31
0.0
  0
LINE
  5
A3
  8
0
  6
BYBLOCK
 62
     9
 10
8459.711122
 20
92020.0
 30
0.0
 11
8459.711122
 21
92378.484898
 31
0.0
  0
LINE
  5
A4
  8
0
  6
BYBLOCK
 62
     9
 10
8459.711122
 20
92829.997355
 30
0.0
 11
8459.711122
 21
92471.512457
 31
0.0
  0
SOLID
  5
A5
  8
0
  6
BYBLOCK
 62
     9
 10
8456.377789
 20
92020.0
 30
0.0
 11
8463.044455
 21
92020.0
 31
0.0
 12
8459.711122
 22
92000.0
 32
0.0
 13
8459.711122
 23
92000.0
 33
0.0
  0
SOLID
  5
A6
  8
0
  6
BYBLOCK
 62
     9
 10
8456.377789
 20
92829.997355
 30
0.0
 11
8463.044455
 21
92829.997355
 31
0.0
 12
8459.711122
 22
92849.997355
 32
0.0
 13
8459.711122
 23
92849.997355
 33
0.0
  0
TEXT
  5
A7
  8
0
  6
BYBLOCK
 62
    11
 10
8477.211122
 20
92388.234898
 30
0.0
 40
35.0
  1
850
 50
90.0
  0
POINT
  5
A8
  8
DEFPOINTS
  6
BYBLOCK
 62
     0
 10
8273.521575
 20
92000.0
 30
10.0
  0
POINT
  5
A9
  8
DEFPOINTS
  6
BYBLOCK
 62
     0
 10
8257.0
 20
92849.997355
 30
10.0
  0
POINT
  5
AA
  8
DEFPOINTS
  6
BYBLOCK
 62
     0
 10
8459.711122
 20
92849.997355
 30
10.0
  0
ENDBLK
  5
AC
  8
0
  0
BLOCK
  8
0
  2
*D6
 70
     1
 10
0.0
 20
0.0
 30
0.0
  3
*D6
  1

  0
LINE
  5
31
  8
0
  6
BYBLOCK
 62
     9
 10
8075.0
 20
92539.997355
 30
0.0
 11
8075.0
 21
92438.342996
 31
0.0
  0
LINE
  5
32
  8
0
  6
BYBLOCK
 62
     9
 10
7925.0
 20
92539.997355
 30
0.0
 11
7925.0
 21
92438.342996
 31
0.0
  0
LINE
  5
33
  8
0
  6
BYBLOCK
 62
     9
 10
8055.0
 20
92439.342996
 30
0.0
 11
8040.0
 21
92439.342996
 31
0.0
  0
LINE
  5
34
  8
0
  6
BYBLOCK
 62
     9
 10
7945.0
 20
92439.342996
 30
0.0
 11
7960.0
 21
92439.342996
 31
0.0
  0
TEXT
  5
35
  8
0
  6
BYBLOCK
 62
    11
 10
7966.73622
 20
92421.842996
 30
0.0
 40
35.0
  1
150
  0
SOLID
  5
36
  8
0
  6
BYBLOCK
 62
     9
 10
8055.0
 20
92442.67633
 30
0.0
 11
8055.0
 21
92436.009663
 31
0.0
 12
8075.0
 22
92439.342996
 32
0.0
 13
8075.0
 23
92439.342996
 33
0.0
  0
SOLID
  5
37
  8
0
  6
BYBLOCK
 62
     9
 10
7945.0
 20
92442.67633
 30
0.0
 11
7945.0
 21
92436.009663
 31
0.0
 12
7925.0
 22
92439.342996
 32
0.0
 13
7925.0
 23
92439.342996
 33
0.0
  0
POINT
  5
38
  8
DEFPOINTS
  6
BYBLOCK
 62
     0
 10
8075.0
 20
92549.997355
 30
0.0
  0
POINT
  5
39
  8
DEFPOINTS
  6
BYBLOCK
 62
     0
 10
7925.0
 20
92549.997355
 30
0.0
  0
POINT
  5
3A
  8
DEFPOINTS
  6
BYBLOCK
 62
     0
 10
7925.0
 20
92439.342996
 30
10.0
  0
ENDBLK
  5
3C
  8
0
  0
BLOCK
  8
0
  2
*D7
 70
     1
 10
0.0
 20
0.0
 30
0.0
  3
*D7
  1

  0
LINE
  5
22
  8
0
  6
BYBLOCK
 62
     9
 10
8010.0
 20
92549.997355
 30
0.0
 11
8412.077814
 21
92549.997355
 31
0.0
  0
LINE
  5
23
  8
0
  6
BYBLOCK
 62
     9
 10
8254.98069
 20
92849.997355
 30
0.0
 11
8412.077814
 21
92849.997355
 31
0.0
  0
LINE
  5
24
  8
0
  6
BYBLOCK
 62
     9
 10
8411.077814
 20
92569.997355
 30
0.0
 11
8411.077814
 21
92653.483576
 31
0.0
  0
LINE
  5
25
  8
0
  6
BYBLOCK
 62
     9
 10
8411.077814
 20
92829.997355
 30
0.0
 11
8411.077814
 21
92746.511135
 31
0.0
  0
SOLID
  5
26
  8
0
  6
BYBLOCK
 62
     9
 10
8407.744481
 20
92569.997355
 30
0.0
 11
8414.411147
 21
92569.997355
 31
0.0
 12
8411.077814
 22
92549.997355
 32
0.0
 13
8411.077814
 23
92549.997355
 33
0.0
  0
SOLID
  5
27
  8
0
  6
BYBLOCK
 62
     9
 10
8407.744481
 20
92829.997355
 30
0.0
 11
8414.411147
 21
92829.997355
 31
0.0
 12
8411.077814
 22
92849.997355
 32
0.0
 13
8411.077814
 23
92849.997355
 33
0.0
  0
TEXT
  5
28
  8
0
  6
BYBLOCK
 62
    11
 10
8428.577814
 20
92663.233576
 30
0.0
 40
35.0
  1
300
 50
90.0
  0
POINT
  5
29
  8
DEFPOINTS
  6
BYBLOCK
 62
     0
 10
8000.0
 20
92549.997355
 30
0.0
  0
POINT
  5
2B
  8
DEFPOINTS
  6
BYBLOCK
 62
     0
 10
8244.98069
 20
92849.997355
 30
0.0
  0
POINT
  5
2C
  8
DEFPOINTS
  6
BYBLOCK
 62
     0
 10
8411.077814
 20
92849.997355
 30
0.0
  0
ENDBLK
  5
2E
  8
0
  0
ENDSEC
  0
SECTION
  2
ENTITIES
  0
DIMENSION
  5
20
  8
TEAM-MAS
  2
*D7
 10
411.077814
 20
849.997355
 30
0.0
 11
411.077814
 21
699.997355
 31
0.0
 12
-8000.0
 22
-92000.0
 32
0.0
 13
0.0
 23
549.997355
 33
0.0
 14
244.98069
 24
849.997355
 34
0.0
 50
90.0
1001
ACAD
1000
DSTYLE
1002
{
1070
    40
1040
1.0
1002
}
  0
DIMENSION
  5
2F
  8
TEAM-MAS
  2
*D6
 10
-75.0
 20
439.342996
 30
10.0
 11
0.0
 21
439.342996
 31
0.0
 12
-8000.0
 22
-92000.0
 32
0.0
 70
   128
 13
75.0
 23
549.997355
 33
0.0
 14
-75.0
 24
549.997355
 34
0.0
1001
ACAD
1000
DSTYLE
1002
{
1070
    40
1040
1.0
1002
}
  0
DIMENSION
  5
3D
  8
TEAM-MAS
  2
*D4
 10
411.077814
 20
0.0
 30
10.0
 11
411.077814
 21
274.998678
 31
0.0
 12
-8000.0
 22
-92000.0
 32
0.0
 13
0.0
 23
549.997355
 33
0.0
 14
0.0
 24
0.0
 34
10.0
 50
90.0
1001
ACAD
1000
DSTYLE
1002
{
1070
    40
1040
1.0
1002
}
  0
DIMENSION
  5
4B
  8
TEAM-MAS
  2
*D3
 10
140.094137
 20
878.952965
 30
10.0
 11
0.094137
 21
878.952965
 31
0.0
 12
-8000.0
 22
-92000.0
 32
0.0
 13
-139.905863
 23
804.0
 33
10.0
 14
140.094137
 24
804.0
 34
10.0
1001
ACAD
1000
DSTYLE
1002
{
1070
    40
1040
1.0
1002
}
  0
DIMENSION
  5
59
  8
TEAM-MAS
  2
*D2
 10
364.584219
 20
699.993721
 30
10.0
 11
364.584219
 21
774.995538
 31
0.0
 12
-8000.0
 22
-92000.0
 32
0.0
 13
244.98069
 23
849.997355
 33
10.0
 14
0.0
 24
699.993721
 34
0.0
 50
90.0
1001
ACAD
1000
DSTYLE
1002
{
1070
    40
1040
1.0
1002
}
  0
DIMENSION
  5
67
  8
TEAM-MAS
  2
*D1
 10
274.997361
 20
921.691677
 30
10.0
 11
0.0
 21
921.691677
 31
0.0
 12
-8000.0
 22
-92000.0
 32
0.0
 13
-274.997361
 23
843.588506
 33
0.0
 14
274.997361
 24
843.588506
 34
0.0
1001
ACAD
1000
DSTYLE
1002
{
1070
    40
1040
1.0
1002
}
  0
TEXT
  5
75
  8
TEAM-TXT
 10
-127.834796
 20
797.071068
 30
0.0
 40
30.0
  1
team 211855
 41
0.8
 51
15.0
  7
TEAM
  0
POLYLINE
  5
78
  8
TEAM-BODY
 66
     1
 10
0.0
 20
0.0
 30
0.0
  0
VERTEX
  5
1A3
  8
TEAM-BODY
 10
-189.219018
 20
704.730035
 30
0.0
 42
-0.033299
  0
VERTEX
  5
1A4
  8
TEAM-BODY
 10
-179.272776
 20
705.351896
 30
0.0
 42
0.009202
  0
VERTEX
  5
1A5
  8
TEAM-BODY
 10
-150.780756
 20
705.75851
 30
0.0
 42
0.02224
  0
VERTEX
  5
1A6
  8
TEAM-BODY
 10
-119.840172
 20
707.140246
 30
0.0
 42
0.129503
  0
VERTEX
  5
1A7
  8
TEAM-BODY
 10
-112.554156
 20
709.507579
 30
0.0
  0
VERTEX
  5
1A8
  8
TEAM-BODY
 10
-95.388189
 20
720.552274
 30
0.0
 42
-0.170818
  0
VERTEX
  5
1A9
  8
TEAM-BODY
 10
-83.680723
 20
725.332612
 30
0.0
 42
-0.037503
  0
VERTEX
  5
1AA
  8
TEAM-BODY
 10
-37.157107
 20
726.931411
 30
0.0
  0
VERTEX
  5
1AB
  8
TEAM-BODY
 10
0.0
 20
726.799985
 30
0.0
  0
VERTEX
  5
1AC
  8
TEAM-BODY
 10
37.157107
 20
726.931411
 30
0.0
 42
-0.037503
  0
VERTEX
  5
1AD
  8
TEAM-BODY
 10
83.680723
 20
725.332612
 30
0.0
 42
-0.170818
  0
VERTEX
  5
1AE
  8
TEAM-BODY
 10
95.388189
 20
720.552274
 30
0.0
  0
VERTEX
  5
1AF
  8
TEAM-BODY
 10
112.554156
 20
709.507579
 30
0.0
 42
0.129503
  0
VERTEX
  5
1B0
  8
TEAM-BODY
 10
119.840172
 20
707.140246
 30
0.0
 42
0.02224
  0
VERTEX
  5
1B1
  8
TEAM-BODY
 10
150.780756
 20
705.75851
 30
0.0
 42
0.009202
  0
VERTEX
  5
1B2
  8
TEAM-BODY
 10
179.272776
 20
705.351896
 30
0.0
 42
-0.033299
  0
VERTEX
  5
1B3
  8
TEAM-BODY
 10
189.219018
 20
704.730035
 30
0.0
  0
SEQEND
  5
1B4
  8
TEAM-BODY
  0
POLYLINE
  5
7A
  8
TEAM-BODY
 66
     1
 10
0.0
 20
0.0
 30
0.0
  0
VERTEX
  5
1B5
  8
TEAM-BODY
 10
0.0
 20
849.997355
 30
0.0
  0
VERTEX
  5
1B6
  8
TEAM-BODY
 10
0.0
 20
849.997355
 30
0.0
 42
-0.001196
  0
VERTEX
  5
1B7
  8
TEAM-BODY
 10
269.276036
 20
849.703462
 30
0.0
 42
-0.406619
  0
VERTEX
  5
1B8
  8
TEAM-BODY
 10
274.997361
 20
843.588506
 30
0.0
 42
-0.038529
  0
VERTEX
  5
1B9
  8
TEAM-BODY
 10
269.224874
 20
784.361697
 30
0.0
 42
-0.364094
  0
VERTEX
  5
1BA
  8
TEAM-BODY
 10
263.315742
 20
779.400792
 30
0.0
  0
VERTEX
  5
1BB
  8
TEAM-BODY
 10
-263.315742
 20
779.400792
 30
0.0
 42
-0.364114
  0
VERTEX
  5
1BC
  8
TEAM-BODY
 10
-269.224874
 20
784.361697
 30
0.0
 42
-0.038453
  0
VERTEX
  5
1BD
  8
TEAM-BODY
 10
-274.997361
 20
843.588506
 30
0.0
 42
-0.406648
  0
VERTEX
  5
1BE
  8
TEAM-BODY
 10
-269.275999
 20
849.703426
 30
0.0
 42
-0.001197
  0
VERTEX
  5
1BF
  8
TEAM-BODY
 10
0.0
 20
849.997355
 30
0.0
 42
-0.954848
  0
SEQEND
  5
1C0
  8
TEAM-BODY
  0
CIRCLE
  5
7B
  8
TEAM-INSP
 10
0.0
 20
0.0
 30
0.0
 40
10.0
  0
POLYLINE
  5
7D
  8
TEAM-BODY
 66
     1
 10
0.0
 20
0.0
 30
0.0
  0
VERTEX
  5
1C1
  8
TEAM-BODY
 10
-246.10191
 20
779.400792
 30
0.0
  0
VERTEX
  5
1C2
  8
TEAM-BODY
 10
-239.016752
 20
714.837082
 30
0.0
 42
0.377871
  0
VERTEX
  5
1C3
  8
TEAM-BODY
 10
-218.207866
 20
695.877696
 30
0.0
  0
VERTEX
  5
1C4
  8
TEAM-BODY
 10
-195.691565
 20
694.948641
 30
0.0
 42
0.378804
  0
VERTEX
  5
1C5
  8
TEAM-BODY
 10
-190.557309
 20
699.125752
 30
0.0
 42
-0.225089
  0
VERTEX
  5
1C6
  8
TEAM-BODY
 10
-159.150996
 20
742.125706
 30
0.0
 42
-0.06921
  0
VERTEX
  5
1C7
  8
TEAM-BODY
 10
-139.543459
 20
750.04219
 30
0.0
 42
0.013485
  0
VERTEX
  5
1C8
  8
TEAM-BODY
 10
-121.268951
 20
754.424642
 30
0.0
 42
0.126965
  0
VERTEX
  5
1C9
  8
TEAM-BODY
 10
-108.914438
 20
761.105314
 30
0.0
 42
0.13667
  0
VERTEX
  5
1CA
  8
TEAM-BODY
 10
-98.877874
 20
779.400792
 30
0.0
 42
-6.088916
  0
SEQEND
  5
1CB
  8
TEAM-BODY
  0
LINE
  5
7E
  8
TEAM-AXE
 10
0.0
 20
549.997355
 30
0.0
 11
0.0
 21
569.997355
 31
0.0
  0
POINT
  5
81
  8
TEAM-MAS
 10
40.0
 20
549.997355
 30
0.0
  0
POINT
  5
82
  8
TEAM-MAS
 10
40.0
 20
549.997355
 30
0.0
  0
LINE
  5
83
  8
TEAM-AXE
 10
0.0
 20
549.997355
 30
0.0
 11
-20.0
 21
549.997355
 31
0.0
  0
LINE
  5
84
  8
TEAM-AXE
 10
0.0
 20
549.997355
 30
0.0
 11
0.0
 21
529.997355
 31
0.0
  0
CIRCLE
  5
85
  8
TEAM-KAN
 10
0.0
 20
549.997355
 30
0.0
 40
20.0
  0
LINE
  5
87
  8
TEAM-AXE
 10
0.0
 20
549.997355
 30
0.0
 11
20.0
 21
549.997355
 31
0.0
  0
LINE
  5
88
  8
TEAM-AXE
 10
-75.0
 20
549.997355
 30
0.0
 11
-85.0
 21
549.997355
 31
0.0
  0
POINT
  5
89
  8
TEAM-MAS
 10
-75.0
 20
529.997355
 30
0.0
  0
POINT
  5
8A
  8
TEAM-MAS
 10
-75.0
 20
529.997355
 30
0.0
  0
POINT
  5
8B
  8
TEAM-MAS
 10
-75.0
 20
529.997355
 30
0.0
  0
CIRCLE
  5
8C
  8
TEAM-WARM
 10
-75.0
 20
549.997355
 30
0.0
 40
10.0
  0
LINE
  5
8E
  8
TEAM-AXE
 10
-75.0
 20
549.997355
 30
0.0
 11
-75.0
 21
539.997355
 31
0.0
  0
LINE
  5
8F
  8
TEAM-AXE
 10
-75.0
 20
549.997355
 30
0.0
 11
-65.0
 21
549.997355
 31
0.0
  0
LINE
  5
90
  8
TEAM-AXE
 10
-75.0
 20
549.997355
 30
0.0
 11
-75.0
 21
559.997355
 31
0.0
  0
LINE
  5
91
  8
TEAM-AXE
 10
-127.905863
 20
790.0
 30
0.0
 11
-118.905863
 21
790.0
 31
0.0
  0
POINT
  5
92
  8
TEAM-AXE
 10
-129.905863
 20
790.0
 30
0.0
  0
LINE
  5
93
  8
TEAM-AXE
 10
-139.905863
 20
786.0
 30
0.0
 11
-139.905863
 21
795.0
 31
0.0
  0
POINT
  5
94
  8
TEAM-AXE
 10
-149.905863
 20
790.0
 30
0.0
  0
POINT
  5
95
  8
TEAM-AXE
 10
-139.905863
 20
784.0
 30
0.0
  0
POINT
  5
96
  8
TEAM-AXE
 10
-139.905863
 20
796.0
 30
0.0
  0
LINE
  5
97
  8
TEAM-AXE
 10
-131.905863
 20
790.0
 30
0.0
 11
-147.905863
 21
790.0
 31
0.0
  0
LINE
  5
98
  8
TEAM-AXE
 10
-139.905863
 20
804.0
 30
0.0
 11
-139.905863
 21
797.0
 31
0.0
  0
LINE
  5
99
  8
TEAM-AXE
 10
-151.905863
 20
790.0
 30
0.0
 11
-161.905863
 21
790.0
 31
0.0
  0
LINE
  5
9A
  8
TEAM-AXE
 10
-139.905863
 20
780.0
 30
0.0
 11
-139.905863
 21
783.0
 31
0.0
  0
POLYLINE
  5
9B
  8
TEAM-HIDE
 66
     1
 10
0.0
 20
0.0
 30
0.0
 70
     1
  0
VERTEX
  5
1CC
  8
TEAM-HIDE
 10
-134.905863
 20
780.0
 30
0.0
 42
0.414214
  0
VERTEX
  5
1CD
  8
TEAM-HIDE
 10
-124.905863
 20
790.0
 30
0.0
 42
0.414214
  0
VERTEX
  5
1CE
  8
TEAM-HIDE
 10
-134.905863
 20
800.0
 30
0.0
  0
VERTEX
  5
1CF
  8
TEAM-HIDE
 10
-144.905863
 20
800.0
 30
0.0
 42
0.414214
  0
VERTEX
  5
1D0
  8
TEAM-HIDE
 10
-154.905863
 20
790.0
 30
0.0
 42
0.414214
  0
VERTEX
  5
1D1
  8
TEAM-HIDE
 10
-144.905863
 20
780.0
 30
0.0
  0
VERTEX
  5
1D2
  8
TEAM-HIDE
 10
-139.905863
 20
780.0
 30
0.0
  0
SEQEND
  5
1D3
  8
TEAM-HIDE
  0
POLYLINE
  5
9E
  8
TEAM-BODY
 66
     1
 10
0.0
 20
0.0
 30
0.0
  0
VERTEX
  5
1D4
  8
TEAM-BODY
 10
-37.157107
 20
726.931411
 30
0.0
  0
VERTEX
  5
1D5
  8
TEAM-BODY
 10
-33.558773
 20
699.993721
 30
0.0
  0
VERTEX
  5
1D6
  8
TEAM-BODY
 10
33.558773
 20
699.993721
 30
0.0
  0
VERTEX
  5
1D7
  8
TEAM-BODY
 10
37.077971
 20
726.931132
 30
0.0
  0
SEQEND
  5
1D8
  8
TEAM-BODY
  0
DIMENSION
  5
9F
  8
TEAM-MAS
  2
*D5
 10
459.711122
 20
849.997355
 30
10.0
 11
459.711122
 21
424.998678
 31
0.0
 12
-8000.0
 22
-92000.0
 32
0.0
 13
273.521575
 23
0.0
 33
10.0
 14
257.0
 24
849.997355
 34
10.0
 50
90.0
1001
ACAD
1000
DSTYLE
1002
{
1070
    40
1040
1.0
1002
}
  0
DIMENSION
  5
AD
  8
TEAM-MAS
  2
*D0
 10
320.435979
 20
790.0
 30
0.0
 11
320.435979
 21
755.0
 31
0.0
 12
-8000.0
 22
-92000.0
 32
0.0
 70
   128
 13
244.98069
 23
849.997355
 33
0.0
 14
162.094137
 24
790.0
 34
0.0
 50
90.0
1001
ACAD
1000
DSTYLE
1002
{
1070
    40
1040
1.0
1002
}
  0
POLYLINE
  5
BC
  8
TEAM-BODY
 66
     1
 10
0.0
 20
0.0
 30
0.0
  0
VERTEX
  5
1D9
  8
TEAM-BODY
 10
246.10191
 20
779.400792
 30
0.0
  0
VERTEX
  5
1DA
  8
TEAM-BODY
 10
239.016752
 20
714.837082
 30
0.0
 42
-0.377871
  0
VERTEX
  5
1DB
  8
TEAM-BODY
 10
218.207866
 20
695.877696
 30
0.0
  0
VERTEX
  5
1DC
  8
TEAM-BODY
 10
195.691565
 20
694.948641
 30
0.0
 42
-0.378804
  0
VERTEX
  5
1DD
  8
TEAM-BODY
 10
190.557309
 20
699.125752
 30
0.0
 42
0.225089
  0
VERTEX
  5
1DE
  8
TEAM-BODY
 10
159.150996
 20
742.125706
 30
0.0
 42
0.06921
  0
VERTEX
  5
1DF
  8
TEAM-BODY
 10
139.543459
 20
750.04219
 30
0.0
 42
-0.013485
  0
VERTEX
  5
1E0
  8
TEAM-BODY
 10
121.268951
 20
754.424642
 30
0.0
 42
-0.126965
  0
VERTEX
  5
1E1
  8
TEAM-BODY
 10
108.914438
 20
761.105314
 30
0.0
 42
-0.13667
  0
VERTEX
  5
1E2
  8
TEAM-BODY
 10
98.877874
 20
779.400792
 30
0.0
 42
6.088916
  0
SEQEND
  5
1E3
  8
TEAM-BODY
  0
CIRCLE
  5
BD
  8
TEAM-COLD
 10
75.0
 20
549.997355
 30
0.0
 40
10.0
  0
LINE
  5
BF
  8
TEAM-AXE
 10
75.0
 20
549.997355
 30
0.0
 11
65.0
 21
549.997355
 31
0.0
  0
LINE
  5
C0
  8
TEAM-AXE
 10
75.0
 20
549.997355
 30
0.0
 11
85.0
 21
549.997355
 31
0.0
  0
POINT
  5
C1
  8
TEAM-MAS
 10
75.0
 20
529.997355
 30
0.0
  0
POINT
  5
C2
  8
TEAM-MAS
 10
75.0
 20
529.997355
 30
0.0
  0
POINT
  5
C3
  8
TEAM-MAS
 10
75.0
 20
529.997355
 30
0.0
  0
LINE
  5
C4
  8
TEAM-AXE
 10
75.0
 20
549.997355
 30
0.0
 11
75.0
 21
539.997355
 31
0.0
  0
LINE
  5
C5
  8
TEAM-AXE
 10
75.0
 20
549.997355
 30
0.0
 11
75.0
 21
559.997355
 31
0.0
  0
LINE
  5
C6
  8
TEAM-AXE
 10
128.094137
 20
790.0
 30
0.0
 11
119.094137
 21
790.0
 31
0.0
  0
LINE
  5
C7
  8
TEAM-AXE
 10
152.094137
 20
790.0
 30
0.0
 11
162.094137
 21
790.0
 31
0.0
  0
POINT
  5
C8
  8
TEAM-AXE
 10
150.094137
 20
790.0
 30
0.0
  0
POINT
  5
C9
  8
TEAM-AXE
 10
130.094137
 20
790.0
 30
0.0
  0
LINE
  5
CA
  8
TEAM-AXE
 10
140.094137
 20
786.0
 30
0.0
 11
140.094137
 21
795.0
 31
0.0
  0
POINT
  5
CB
  8
TEAM-AXE
 10
140.094137
 20
784.0
 30
0.0
  0
POINT
  5
CC
  8
TEAM-AXE
 10
140.094137
 20
796.0
 30
0.0
  0
LINE
  5
CD
  8
TEAM-AXE
 10
132.094137
 20
790.0
 30
0.0
 11
148.094137
 21
790.0
 31
0.0
  0
LINE
  5
CE
  8
TEAM-AXE
 10
140.094137
 20
804.0
 30
0.0
 11
140.094137
 21
797.0
 31
0.0
  0
LINE
  5
CF
  8
TEAM-AXE
 10
140.094137
 20
780.0
 30
0.0
 11
140.094137
 21
783.0
 31
0.0
  0
POLYLINE
  5
D0
  8
TEAM-HIDE
 66
     1
 10
0.0
 20
0.0
 30
0.0
 70
     1
  0
VERTEX
  5
1E4
  8
TEAM-HIDE
 10
135.094137
 20
780.0
 30
0.0
 42
-0.414214
  0
VERTEX
  5
1E5
  8
TEAM-HIDE
 10
125.094137
 20
790.0
 30
0.0
 42
-0.414214
  0
VERTEX
  5
1E6
  8
TEAM-HIDE
 10
135.094137
 20
800.0
 30
0.0
  0
VERTEX
  5
1E7
  8
TEAM-HIDE
 10
145.094137
 20
800.0
 30
0.0
 42
-0.414214
  0
VERTEX
  5
1E8
  8
TEAM-HIDE
 10
155.094137
 20
790.0
 30
0.0
 42
-0.414214
  0
VERTEX
  5
1E9
  8
TEAM-HIDE
 10
145.094137
 20
780.0
 30
0.0
  0
VERTEX
  5
1EA
  8
TEAM-HIDE
 10
140.094137
 20
780.0
 30
0.0
  0
SEQEND
  5
1EB
  8
TEAM-HIDE
  0
ENDSEC
  0
EOF
