  0
SECTION
  2
HEADER
  9
$ACADVER
  1
AC1009
  9
$INSBASE
 10
0.0
 20
0.0
 30
0.0
  9
$EXTMIN
 10
-654.247754
 20
-528.747369
 30
-0.000037
  9
$EXTMAX
 10
751.037439
 20
10.015698
 30
10.0004
  9
$LIMMIN
 10
-654.247754
 20
-528.747369
  9
$LIMMAX
 10
751.037439
 20
10.015698
  9
$ORTHOMODE
 70
     1
  9
$REGENMODE
 70
     1
  9
$FILLMODE
 70
     1
  9
$QTEXTMODE
 70
     0
  9
$MIRRTEXT
 70
     0
  9
$DRAGMODE
 70
     2
  9
$LTSCALE
 40
50.0
  9
$OSMODE
 70
     0
  9
$ATTMODE
 70
     1
  9
$TEXTSIZE
 40
200.0
  9
$TRACEWID
 40
1.0
  9
$TEXTSTYLE
  7
STANDARD
  9
$CLAYER
  8
TEAM-MAS
  9
$CELTYPE
  6
BYLAYER
  9
$CECOLOR
 62
   256
  9
$DIMSCALE
 40
0.0
  9
$DIMASZ
 40
20.0
  9
$DIMEXO
 40
10.0
  9
$DIMDLI
 40
1.0
  9
$DIMRND
 40
0.0
  9
$DIMDLE
 40
0.0
  9
$DIMEXE
 40
1.0
  9
$DIMTP
 40
0.0
  9
$DIMTM
 40
0.0
  9
$DIMTXT
 40
35.0
  9
$DIMCEN
 40
1.0
  9
$DIMTSZ
 40
0.0
  9
$DIMTOL
 70
     0
  9
$DIMLIM
 70
     0
  9
$DIMTIH
 70
     0
  9
$DIMTOH
 70
     0
  9
$DIMSE1
 70
     0
  9
$DIMSE2
 70
     0
  9
$DIMTAD
 70
     0
  9
$DIMZIN
 70
     0
  9
$DIMBLK
  1

  9
$DIMASO
 70
     1
  9
$DIMSHO
 70
     0
  9
$DIMPOST
  1

  9
$DIMAPOST
  1

  9
$DIMALT
 70
     0
  9
$DIMALTD
 70
     2
  9
$DIMALTF
 40
25.4
  9
$DIMLFAC
 40
1.0
  9
$DIMTOFL
 70
     0
  9
$DIMTVP
 40
0.0
  9
$DIMTIX
 70
     0
  9
$DIMSOXD
 70
     0
  9
$DIMSAH
 70
     0
  9
$DIMBLK1
  1

  9
$DIMBLK2
  1

  9
$DIMSTYLE
  2
TEAM
  9
$DIMCLRD
 70
     9
  9
$DIMCLRE
 70
     9
  9
$DIMCLRT
 70
    11
  9
$DIMTFAC
 40
1.0
  9
$DIMGAP
 40
7.0
  9
$LUNITS
 70
     2
  9
$LUPREC
 70
     1
  9
$SKETCHINC
 40
1.0
  9
$FILLETRAD
 40
50.0
  9
$AUNITS
 70
     0
  9
$AUPREC
 70
     0
  9
$MENU
  1
ROPLANS
  9
$ELEVATION
 40
0.0
  9
$PELEVATION
 40
0.0
  9
$THICKNESS
 40
0.0
  9
$LIMCHECK
 70
     0
  9
$BLIPMODE
 70
     1
  9
$CHAMFERA
 40
0.0
  9
$CHAMFERB
 40
0.0
  9
$SKPOLY
 70
     0
  9
$TDCREATE
 40
2450392.957851
  9
$TDUPDATE
 40
2456417.846964
  9
$TDINDWG
 40
2.189701
  9
$TDUSRTIMER
 40
2.189701
  9
$USRTIMER
 70
     1
  9
$ANGBASE
 50
0.0
  9
$ANGDIR
 70
     0
  9
$PDMODE
 70
     0
  9
$PDSIZE
 40
0.0
  9
$PLINEWID
 40
0.0
  9
$COORDS
 70
     2
  9
$SPLFRAME
 70
     0
  9
$SPLINETYPE
 70
     6
  9
$SPLINESEGS
 70
     8
  9
$ATTDIA
 70
     0
  9
$ATTREQ
 70
     0
  9
$HANDLING
 70
     1
  9
$HANDSEED
  5
D5
  9
$SURFTAB1
 70
    24
  9
$SURFTAB2
 70
    24
  9
$SURFTYPE
 70
     6
  9
$SURFU
 70
     6
  9
$SURFV
 70
     6
  9
$UCSNAME
  2

  9
$UCSORG
 10
0.0
 20
0.0
 30
0.0
  9
$UCSXDIR
 10
1.0
 20
0.0
 30
0.0
  9
$UCSYDIR
 10
0.0
 20
1.0
 30
0.0
  9
$PUCSNAME
  2

  9
$PUCSORG
 10
0.0
 20
0.0
 30
0.0
  9
$PUCSXDIR
 10
1.0
 20
0.0
 30
0.0
  9
$PUCSYDIR
 10
0.0
 20
1.0
 30
0.0
  9
$USERI1
 70
     0
  9
$USERI2
 70
     0
  9
$USERI3
 70
     0
  9
$USERI4
 70
     0
  9
$USERI5
 70
     0
  9
$USERR1
 40
0.0
  9
$USERR2
 40
0.0
  9
$USERR3
 40
0.0
  9
$USERR4
 40
0.0
  9
$USERR5
 40
0.0
  9
$WORLDVIEW
 70
     1
  9
$SHADEDGE
 70
     0
  9
$SHADEDIF
 70
    70
  9
$TILEMODE
 70
     1
  9
$MAXACTVP
 70
    16
  9
$PLIMCHECK
 70
     0
  9
$PEXTMIN
 10
-0.805942
 20
0.005011
 30
0.0
  9
$PEXTMAX
 10
20.250094
 20
11.356329
 30
0.0
  9
$PLIMMIN
 10
0.0
 20
0.0
  9
$PLIMMAX
 10
12.0
 20
9.0
  9
$UNITMODE
 70
     0
  9
$VISRETAIN
 70
     0
  9
$PLINEGEN
 70
     0
  9
$PSLTSCALE
 70
     0
  0
ENDSEC
  0
SECTION
  2
TABLES
  0
TABLE
  2
VPORT
 70
     2
  0
VPORT
  2
*ACTIVE
 70
     0
 10
0.0
 20
0.0
 11
1.0
 21
1.0
 12
48.394843
 22
-259.365835
 13
0.0
 23
0.0
 14
1.0
 24
1.0
 15
50.0
 25
50.0
 16
0.0
 26
0.0
 36
1.0
 17
0.0
 27
0.0
 37
0.0
 40
744.46515
 41
1.893861
 42
50.0
 43
0.0
 44
0.0
 50
0.0
 51
0.0
 71
     0
 72
   100
 73
     1
 74
     1
 75
     0
 76
     0
 77
     0
 78
     0
  0
ENDTAB
  0
TABLE
  2
LTYPE
 70
     2
  0
LTYPE
  2
CONTINUOUS
 70
     0
  3
Solid Line
 72
    65
 73
     0
 40
0.0
  0
LTYPE
  2
31
 70
     0
  3

 72
    65
 73
     4
 40
2.1
 49
1.5
 49
-0.3
 49
0.0
 49
-0.3
  0
ENDTAB
  0
TABLE
  2
LAYER
 70
     8
  0
LAYER
  2
0
 70
     0
 62
     7
  6
CONTINUOUS
  0
LAYER
  2
DEFPOINTS
 70
     0
 62
     7
  6
CONTINUOUS
  0
LAYER
  2
TEAM-BODY
 70
     0
 62
     2
  6
CONTINUOUS
  0
LAYER
  2
TEAM-AXE
 70
     0
 62
    10
  6
31
  0
LAYER
  2
TEAM-MAS
 70
     0
 62
     9
  6
CONTINUOUS
  0
LAYER
  2
TEAM-TXT
 70
     0
 62
    11
  6
CONTINUOUS
  0
LAYER
  2
TEAM-DET1
 70
     0
 62
     4
  6
CONTINUOUS
  0
LAYER
  2
TEAM-INSP
 70
     0
 62
     5
  6
CONTINUOUS
  0
ENDTAB
  0
TABLE
  2
STYLE
 70
     2
  0
STYLE
  2
STANDARD
 70
     0
 40
0.0
 41
1.0
 50
0.0
 71
     0
 42
200.0
  3
txt
  4

  0
STYLE
  2
TEAM
 70
     0
 40
0.0
 41
0.8
 50
15.0
 71
     0
 42
7.0
  3
ROMANS.shx
  4

  0
ENDTAB
  0
TABLE
  2
VIEW
 70
     0
  0
ENDTAB
  0
TABLE
  2
UCS
 70
     0
  0
ENDTAB
  0
TABLE
  2
APPID
 70
     1
  0
APPID
  2
ACAD
 70
     0
  0
ENDTAB
  0
TABLE
  2
DIMSTYLE
 70
     1
  0
DIMSTYLE
  2
TEAM
 70
     0
  3

  4

  5

  6

  7

 40
0.0
 41
20.0
 42
10.0
 43
1.0
 44
1.0
 45
0.0
 46
0.0
 47
0.0
 48
0.0
140
35.0
141
1.0
142
0.0
143
25.4
144
1.0
145
0.0
146
1.0
147
7.0
 71
     0
 72
     0
 73
     0
 74
     0
 75
     0
 76
     0
 77
     0
 78
     0
170
     0
171
     2
172
     0
173
     0
174
     0
175
     0
176
     9
177
     9
178
    11
  0
ENDTAB
  0
ENDSEC
  0
SECTION
  2
BLOCKS
  0
BLOCK
  8
0
  2
$MODEL_SPACE
 70
     0
 10
0.0
 20
0.0
 30
0.0
  3
$MODEL_SPACE
  1

  0
ENDBLK
  5
B9
  8
0
  0
BLOCK
 67
     1
  8
0
  2
$PAPER_SPACE
 70
     0
 10
0.0
 20
0.0
 30
0.0
  3
$PAPER_SPACE
  1

  0
ENDBLK
  5
B7
 67
     1
  8
0
  0
BLOCK
  8
0
  2
*D0
 70
     1
 10
0.0
 20
0.0
 30
0.0
  3
*D0
  1

  0
LINE
  5
31
  8
0
  6
BYBLOCK
 62
     9
 10
8659.989997
 20
16000.013558
 30
0.0
 11
8734.509657
 21
16000.013558
 31
0.0
  0
LINE
  5
32
  8
0
  6
BYBLOCK
 62
     9
 10
8640.024605
 20
15530.014552
 30
0.0
 11
8734.509657
 21
15530.014552
 31
0.0
  0
LINE
  5
33
  8
0
  6
BYBLOCK
 62
     9
 10
8733.509657
 20
15980.013558
 30
0.0
 11
8733.509657
 21
15815.764055
 31
0.0
  0
LINE
  5
34
  8
0
  6
BYBLOCK
 62
     9
 10
8733.509657
 20
15550.014552
 30
0.0
 11
8733.509657
 21
15714.264055
 31
0.0
  0
SOLID
  5
35
  8
0
  6
BYBLOCK
 62
     9
 10
8730.176324
 20
15980.013558
 30
0.0
 11
8736.842991
 21
15980.013558
 31
0.0
 12
8733.509657
 22
16000.013558
 32
0.0
 13
8733.509657
 23
16000.013558
 33
0.0
  0
SOLID
  5
36
  8
0
  6
BYBLOCK
 62
     9
 10
8730.176324
 20
15550.014552
 30
0.0
 11
8736.842991
 21
15550.014552
 31
0.0
 12
8733.509657
 22
15530.014552
 32
0.0
 13
8733.509657
 23
15530.014552
 33
0.0
  0
TEXT
  5
37
  8
0
  6
BYBLOCK
 62
    11
 10
8751.009657
 20
15721.264055
 30
0.0
 40
35.0
  1
470
 50
90.0
  0
POINT
  5
38
  8
DEFPOINTS
  6
BYBLOCK
 62
     0
 10
8649.989997
 20
16000.013558
 30
0.0
  0
POINT
  5
39
  8
DEFPOINTS
  6
BYBLOCK
 62
     0
 10
8630.024605
 20
15530.014552
 30
0.0
  0
POINT
  5
3A
  8
DEFPOINTS
  6
BYBLOCK
 62
     0
 10
8733.509657
 20
15530.014552
 30
10.0
  0
ENDBLK
  5
3C
  8
0
  0
BLOCK
  8
0
  2
*D1
 70
     1
 10
0.0
 20
0.0
 30
0.0
  3
*D1
  1

  0
LINE
  5
22
  8
0
  6
BYBLOCK
 62
     9
 10
7349.996168
 20
15540.047731
 30
0.0
 11
7349.996168
 21
15487.766769
 31
0.0
  0
LINE
  5
23
  8
0
  6
BYBLOCK
 62
     9
 10
8649.993832
 20
15540.047731
 30
0.0
 11
8649.993832
 21
15487.766769
 31
0.0
  0
LINE
  5
24
  8
0
  6
BYBLOCK
 62
     9
 10
7369.996168
 20
15488.766769
 30
0.0
 11
7940.495
 21
15488.766769
 31
0.0
  0
LINE
  5
25
  8
0
  6
BYBLOCK
 62
     9
 10
8629.993832
 20
15488.766769
 30
0.0
 11
8059.495
 21
15488.766769
 31
0.0
  0
SOLID
  5
26
  8
0
  6
BYBLOCK
 62
     9
 10
7369.996168
 20
15492.100103
 30
0.0
 11
7369.996168
 21
15485.433436
 31
0.0
 12
7349.996168
 22
15488.766769
 32
0.0
 13
7349.996168
 23
15488.766769
 33
0.0
  0
SOLID
  5
27
  8
0
  6
BYBLOCK
 62
     9
 10
8629.993832
 20
15492.100103
 30
0.0
 11
8629.993832
 21
15485.433436
 31
0.0
 12
8649.993832
 22
15488.766769
 32
0.0
 13
8649.993832
 23
15488.766769
 33
0.0
  0
TEXT
  5
28
  8
0
  6
BYBLOCK
 62
    11
 10
7947.495
 20
15471.266769
 30
0.0
 40
35.0
  1
1300
  0
POINT
  5
29
  8
DEFPOINTS
  6
BYBLOCK
 62
     0
 10
7349.996168
 20
15550.047731
 30
0.0
  0
POINT
  5
2B
  8
DEFPOINTS
  6
BYBLOCK
 62
     0
 10
8649.993832
 20
15550.047731
 30
0.0
  0
POINT
  5
2C
  8
DEFPOINTS
  6
BYBLOCK
 62
     0
 10
8649.993832
 20
15488.766769
 30
10.0
  0
ENDBLK
  5
2E
  8
0
  0
BLOCK
  8
0
  2
*D2
 70
     1
 10
0.0
 20
0.0
 30
0.0
  3
*D2
  1

  0
LINE
  5
3F
  8
0
  6
BYBLOCK
 62
     9
 10
8659.989997
 20
16000.013558
 30
0.0
 11
8689.618406
 21
16000.013558
 31
0.0
  0
LINE
  5
40
  8
0
  6
BYBLOCK
 62
     9
 10
8010.427754
 20
15785.01
 30
0.0
 11
8689.618406
 21
15785.01
 31
0.0
  0
LINE
  5
41
  8
0
  6
BYBLOCK
 62
     9
 10
8688.618406
 20
15980.013558
 30
0.0
 11
8688.618406
 21
15940.345112
 31
0.0
  0
LINE
  5
42
  8
0
  6
BYBLOCK
 62
     9
 10
8688.618406
 20
15805.01
 30
0.0
 11
8688.618406
 21
15844.678446
 31
0.0
  0
SOLID
  5
43
  8
0
  6
BYBLOCK
 62
     9
 10
8685.285073
 20
15980.013558
 30
0.0
 11
8691.951739
 21
15980.013558
 31
0.0
 12
8688.618406
 22
16000.013558
 32
0.0
 13
8688.618406
 23
16000.013558
 33
0.0
  0
SOLID
  5
44
  8
0
  6
BYBLOCK
 62
     9
 10
8685.285073
 20
15805.01
 30
0.0
 11
8691.951739
 21
15805.01
 31
0.0
 12
8688.618406
 22
15785.01
 32
0.0
 13
8688.618406
 23
15785.01
 33
0.0
  0
TEXT
  5
45
  8
0
  6
BYBLOCK
 62
    11
 10
8706.118406
 20
15851.678446
 30
0.0
 40
35.0
  1
215
 50
90.0
  0
POINT
  5
46
  8
DEFPOINTS
  6
BYBLOCK
 62
     0
 10
8649.989997
 20
16000.013558
 30
0.0
  0
POINT
  5
47
  8
DEFPOINTS
  6
BYBLOCK
 62
     0
 10
8000.427754
 20
15785.01
 30
0.0
  0
POINT
  5
48
  8
DEFPOINTS
  6
BYBLOCK
 62
     0
 10
8688.618406
 20
15785.01
 30
0.0
  0
ENDBLK
  5
4A
  8
0
  0
ENDSEC
  0
SECTION
  2
ENTITIES
  0
DIMENSION
  5
20
  8
TEAM-MAS
  2
*D1
 10
649.993832
 20
-511.233231
 30
10.0
 11
-0.005
 21
-511.233231
 31
0.0
 12
-8000.0
 22
-16000.0
 32
0.0
 13
-650.003832
 23
-449.952269
 33
0.0
 14
649.993832
 24
-449.952269
 34
0.0
1001
ACAD
1000
DSTYLE
1002
{
1070
    40
1040
1.0
1002
}
  0
DIMENSION
  5
2F
  8
TEAM-MAS
  2
*D0
 10
733.509657
 20
-469.985448
 30
10.0
 11
733.509657
 21
-234.985945
 31
0.0
 12
-8000.0
 22
-16000.0
 32
0.0
 13
649.989997
 23
0.013558
 33
0.0
 14
630.024605
 24
-469.985448
 34
0.0
 50
90.0
1001
ACAD
1000
DSTYLE
1002
{
1070
    40
1040
1.0
1002
}
  0
DIMENSION
  5
3D
  8
TEAM-MAS
  2
*D2
 10
688.618406
 20
-214.99
 30
0.0
 11
688.618406
 21
-107.488221
 31
0.0
 12
-8000.0
 22
-16000.0
 32
0.0
 13
649.989997
 23
0.013558
 33
0.0
 14
0.427754
 24
-214.99
 34
0.0
 50
90.0
1001
ACAD
1000
DSTYLE
1002
{
1070
    40
1040
1.0
1002
}
  0
POLYLINE
  5
4B
  8
TEAM-BODY
 66
     1
 10
0.0
 20
0.0
 30
0.0
  0
VERTEX
  5
BF
  8
TEAM-BODY
 10
0.0
 20
-124.82753
 30
0.0
  0
VERTEX
  5
C0
  8
TEAM-BODY
 10
488.047806
 20
-124.889629
 30
0.0
 42
-0.392348
  0
VERTEX
  5
C1
  8
TEAM-BODY
 10
520.622528
 20
-155.118619
 30
0.0
  0
VERTEX
  5
C2
  8
TEAM-BODY
 10
519.383041
 20
-406.060865
 30
0.0
 42
-0.355026
  0
VERTEX
  5
C3
  8
TEAM-BODY
 10
494.667596
 20
-436.176278
 30
0.0
 42
-0.000244
  0
VERTEX
  5
C4
  8
TEAM-BODY
 10
0.0
 20
-436.789596
 30
0.0
 42
-0.000539
  0
VERTEX
  5
C5
  8
TEAM-BODY
 10
-494.657596
 20
-436.176278
 30
0.0
 42
-0.355026
  0
VERTEX
  5
C6
  8
TEAM-BODY
 10
-519.373041
 20
-406.060865
 30
0.0
  0
VERTEX
  5
C7
  8
TEAM-BODY
 10
-520.612528
 20
-155.118619
 30
0.0
 42
-0.392348
  0
VERTEX
  5
C8
  8
TEAM-BODY
 10
-488.037806
 20
-124.889629
 30
0.0
  0
VERTEX
  5
C9
  8
TEAM-BODY
 10
0.0
 20
-124.82753
 30
0.0
  0
SEQEND
  5
CA
  8
TEAM-BODY
  0
POLYLINE
  5
4D
  8
TEAM-BODY
 66
     1
 10
0.0
 20
0.0
 30
0.0
 70
     1
  0
VERTEX
  5
CB
  8
TEAM-BODY
 10
0.0
 20
-469.985448
 30
0.0
  0
VERTEX
  5
CC
  8
TEAM-BODY
 10
-630.034605
 20
-469.985448
 30
0.0
 42
-0.413282
  0
VERTEX
  5
CD
  8
TEAM-BODY
 10
-650.003832
 20
-449.952269
 30
0.0
  0
VERTEX
  5
CE
  8
TEAM-BODY
 10
-649.999997
 20
0.013558
 30
0.0
  0
VERTEX
  5
CF
  8
TEAM-BODY
 10
0.0
 20
0.0
 30
0.0
  0
VERTEX
  5
D0
  8
TEAM-BODY
 10
649.989997
 20
0.013558
 30
0.0
  0
VERTEX
  5
D1
  8
TEAM-BODY
 10
649.993832
 20
-449.952269
 30
0.0
 42
-0.413282
  0
VERTEX
  5
D2
  8
TEAM-BODY
 10
630.024605
 20
-469.985448
 30
0.0
  0
SEQEND
  5
D3
  8
TEAM-BODY
  0
LINE
  5
4E
  8
TEAM-AXE
 10
45.212708
 20
-214.99
 30
0.0
 11
-44.787292
 21
-214.99
 31
0.0
  0
CIRCLE
  5
51
  8
TEAM-DET1
 10
0.427754
 20
-214.99
 30
0.0
 40
37.5
  0
ARC
  5
53
  8
TEAM-BODY
 10
0.427754
 20
-214.99
 30
0.0
 40
23.75
 50
180.0
 51
0.0
  0
ARC
  5
54
  8
TEAM-BODY
 10
0.427754
 20
-214.99
 30
0.0
 40
23.75
 50
0.0
 51
180.0
  0
LINE
  5
55
  8
TEAM-AXE
 10
0.427754
 20
-170.99
 30
0.0
 11
0.427754
 21
-260.99
 31
0.0
  0
CIRCLE
  5
56
  8
TEAM-DET1
 10
0.0
 20
-65.000005
 30
0.0
 40
15.0
  0
LINE
  5
57
  8
TEAM-AXE
 10
22.5
 20
-65.000005
 30
0.0
 11
-22.5
 21
-65.000005
 31
0.0
  0
LINE
  5
58
  8
TEAM-AXE
 10
0.0
 20
-42.500005
 30
0.0
 11
0.0
 21
-87.5
 31
0.0
  0
CIRCLE
  5
59
  8
TEAM-INSP
 10
0.0
 20
0.0
 30
0.0
 40
10.0
  0
TEXT
  5
5B
  8
TEAM-TXT
 10
-150.836613
 20
-403.110298
 30
0.0
 40
30.0
  1
team 211871
 41
0.8
 51
15.0
  7
TEAM
  0
ENDSEC
  0
EOF
