  0
SECTION
  2
HEADER
  9
$ACADVER
  1
AC1009
  9
$INSBASE
 10
0.0
 20
0.0
 30
0.0
  9
$EXTMIN
 10
-651.352248
 20
-10.075893
 30
-0.000037
  9
$EXTMAX
 10
861.677912
 20
978.027963
 30
10.0004
  9
$LIMMIN
 10
-651.352248
 20
-10.075893
  9
$LIMMAX
 10
861.677912
 20
978.027963
  9
$ORTHOMODE
 70
     1
  9
$REGENMODE
 70
     1
  9
$FILLMODE
 70
     1
  9
$QTEXTMODE
 70
     0
  9
$MIRRTEXT
 70
     0
  9
$DRAGMODE
 70
     2
  9
$LTSCALE
 40
50.0
  9
$OSMODE
 70
     0
  9
$ATTMODE
 70
     1
  9
$TEXTSIZE
 40
200.0
  9
$TRACEWID
 40
1.0
  9
$TEXTSTYLE
  7
STANDARD
  9
$CLAYER
  8
TEAM-MAS
  9
$CELTYPE
  6
BYLAYER
  9
$CECOLOR
 62
   256
  9
$DIMSCALE
 40
0.0
  9
$DIMASZ
 40
20.0
  9
$DIMEXO
 40
10.0
  9
$DIMDLI
 40
1.0
  9
$DIMRND
 40
0.0
  9
$DIMDLE
 40
0.0
  9
$DIMEXE
 40
1.0
  9
$DIMTP
 40
0.0
  9
$DIMTM
 40
0.0
  9
$DIMTXT
 40
35.0
  9
$DIMCEN
 40
1.0
  9
$DIMTSZ
 40
0.0
  9
$DIMTOL
 70
     0
  9
$DIMLIM
 70
     0
  9
$DIMTIH
 70
     0
  9
$DIMTOH
 70
     0
  9
$DIMSE1
 70
     0
  9
$DIMSE2
 70
     0
  9
$DIMTAD
 70
     0
  9
$DIMZIN
 70
     0
  9
$DIMBLK
  1

  9
$DIMASO
 70
     1
  9
$DIMSHO
 70
     0
  9
$DIMPOST
  1

  9
$DIMAPOST
  1

  9
$DIMALT
 70
     0
  9
$DIMALTD
 70
     2
  9
$DIMALTF
 40
25.4
  9
$DIMLFAC
 40
1.0
  9
$DIMTOFL
 70
     0
  9
$DIMTVP
 40
0.0
  9
$DIMTIX
 70
     0
  9
$DIMSOXD
 70
     0
  9
$DIMSAH
 70
     0
  9
$DIMBLK1
  1

  9
$DIMBLK2
  1

  9
$DIMSTYLE
  2
TEAM
  9
$DIMCLRD
 70
     9
  9
$DIMCLRE
 70
     9
  9
$DIMCLRT
 70
    11
  9
$DIMTFAC
 40
1.0
  9
$DIMGAP
 40
7.0
  9
$LUNITS
 70
     2
  9
$LUPREC
 70
     1
  9
$SKETCHINC
 40
1.0
  9
$FILLETRAD
 40
50.0
  9
$AUNITS
 70
     0
  9
$AUPREC
 70
     0
  9
$MENU
  1
ROPLANS
  9
$ELEVATION
 40
0.0
  9
$PELEVATION
 40
0.0
  9
$THICKNESS
 40
0.0
  9
$LIMCHECK
 70
     0
  9
$BLIPMODE
 70
     1
  9
$CHAMFERA
 40
0.0
  9
$CHAMFERB
 40
0.0
  9
$SKPOLY
 70
     0
  9
$TDCREATE
 40
2450392.957851
  9
$TDUPDATE
 40
2456417.846964
  9
$TDINDWG
 40
2.189701
  9
$TDUSRTIMER
 40
2.189701
  9
$USRTIMER
 70
     1
  9
$ANGBASE
 50
0.0
  9
$ANGDIR
 70
     0
  9
$PDMODE
 70
     0
  9
$PDSIZE
 40
0.0
  9
$PLINEWID
 40
0.0
  9
$COORDS
 70
     2
  9
$SPLFRAME
 70
     0
  9
$SPLINETYPE
 70
     6
  9
$SPLINESEGS
 70
     8
  9
$ATTDIA
 70
     0
  9
$ATTREQ
 70
     0
  9
$HANDLING
 70
     1
  9
$HANDSEED
  5
24E
  9
$SURFTAB1
 70
    24
  9
$SURFTAB2
 70
    24
  9
$SURFTYPE
 70
     6
  9
$SURFU
 70
     6
  9
$SURFV
 70
     6
  9
$UCSNAME
  2

  9
$UCSORG
 10
0.0
 20
0.0
 30
0.0
  9
$UCSXDIR
 10
1.0
 20
0.0
 30
0.0
  9
$UCSYDIR
 10
0.0
 20
1.0
 30
0.0
  9
$PUCSNAME
  2

  9
$PUCSORG
 10
0.0
 20
0.0
 30
0.0
  9
$PUCSXDIR
 10
1.0
 20
0.0
 30
0.0
  9
$PUCSYDIR
 10
0.0
 20
1.0
 30
0.0
  9
$USERI1
 70
     0
  9
$USERI2
 70
     0
  9
$USERI3
 70
     0
  9
$USERI4
 70
     0
  9
$USERI5
 70
     0
  9
$USERR1
 40
0.0
  9
$USERR2
 40
0.0
  9
$USERR3
 40
0.0
  9
$USERR4
 40
0.0
  9
$USERR5
 40
0.0
  9
$WORLDVIEW
 70
     1
  9
$SHADEDGE
 70
     0
  9
$SHADEDIF
 70
    70
  9
$TILEMODE
 70
     1
  9
$MAXACTVP
 70
    16
  9
$PLIMCHECK
 70
     0
  9
$PEXTMIN
 10
-0.805942
 20
0.005011
 30
0.0
  9
$PEXTMAX
 10
20.250094
 20
11.356329
 30
0.0
  9
$PLIMMIN
 10
0.0
 20
0.0
  9
$PLIMMAX
 10
12.0
 20
9.0
  9
$UNITMODE
 70
     0
  9
$VISRETAIN
 70
     0
  9
$PLINEGEN
 70
     0
  9
$PSLTSCALE
 70
     0
  0
ENDSEC
  0
SECTION
  2
TABLES
  0
TABLE
  2
VPORT
 70
     2
  0
VPORT
  2
*ACTIVE
 70
     0
 10
0.0
 20
0.0
 11
1.0
 21
1.0
 12
105.162832
 22
483.976035
 13
0.0
 23
0.0
 14
1.0
 24
1.0
 15
50.0
 25
50.0
 16
0.0
 26
0.0
 36
1.0
 17
0.0
 27
0.0
 37
0.0
 40
994.266665
 41
1.893861
 42
50.0
 43
0.0
 44
0.0
 50
0.0
 51
0.0
 71
     0
 72
   100
 73
     1
 74
     1
 75
     0
 76
     0
 77
     0
 78
     0
  0
ENDTAB
  0
TABLE
  2
LTYPE
 70
     3
  0
LTYPE
  2
CONTINUOUS
 70
     0
  3
Solid Line
 72
    65
 73
     0
 40
0.0
  0
LTYPE
  2
31
 70
     0
  3

 72
    65
 73
     4
 40
2.1
 49
1.5
 49
-0.3
 49
0.0
 49
-0.3
  0
LTYPE
  2
22
 70
     0
  3

 72
    65
 73
     2
 40
1.4
 49
1.2
 49
-0.2
  0
ENDTAB
  0
TABLE
  2
LAYER
 70
    11
  0
LAYER
  2
0
 70
     0
 62
     7
  6
CONTINUOUS
  0
LAYER
  2
DEFPOINTS
 70
     0
 62
     7
  6
CONTINUOUS
  0
LAYER
  2
TEAM-BODY
 70
     0
 62
     2
  6
CONTINUOUS
  0
LAYER
  2
TEAM-AXE
 70
     0
 62
    10
  6
31
  0
LAYER
  2
TEAM-MAS
 70
     0
 62
     9
  6
CONTINUOUS
  0
LAYER
  2
TEAM-TXT
 70
     0
 62
    11
  6
CONTINUOUS
  0
LAYER
  2
TEAM-COLD
 70
     0
 62
     3
  6
CONTINUOUS
  0
LAYER
  2
TEAM-HIDE
 70
     0
 62
     8
  6
22
  0
LAYER
  2
TEAM-KAN
 70
     0
 62
     6
  6
CONTINUOUS
  0
LAYER
  2
TEAM-WARM
 70
     0
 62
     1
  6
CONTINUOUS
  0
LAYER
  2
TEAM-INSP
 70
     0
 62
     5
  6
CONTINUOUS
  0
ENDTAB
  0
TABLE
  2
STYLE
 70
     2
  0
STYLE
  2
STANDARD
 70
     0
 40
0.0
 41
1.0
 50
0.0
 71
     0
 42
200.0
  3
txt
  4

  0
STYLE
  2
TEAM
 70
     0
 40
0.0
 41
0.8
 50
15.0
 71
     0
 42
7.0
  3
ROMANS.shx
  4

  0
ENDTAB
  0
TABLE
  2
VIEW
 70
     0
  0
ENDTAB
  0
TABLE
  2
UCS
 70
     0
  0
ENDTAB
  0
TABLE
  2
APPID
 70
     1
  0
APPID
  2
ACAD
 70
     0
  0
ENDTAB
  0
TABLE
  2
DIMSTYLE
 70
     1
  0
DIMSTYLE
  2
TEAM
 70
     0
  3

  4

  5

  6

  7

 40
0.0
 41
20.0
 42
10.0
 43
1.0
 44
1.0
 45
0.0
 46
0.0
 47
0.0
 48
0.0
140
35.0
141
1.0
142
0.0
143
25.4
144
1.0
145
0.0
146
1.0
147
7.0
 71
     0
 72
     0
 73
     0
 74
     0
 75
     0
 76
     0
 77
     0
 78
     0
170
     0
171
     2
172
     0
173
     0
174
     0
175
     0
176
     9
177
     9
178
    11
  0
ENDTAB
  0
ENDSEC
  0
SECTION
  2
BLOCKS
  0
BLOCK
  8
0
  2
$MODEL_SPACE
 70
     0
 10
0.0
 20
0.0
 30
0.0
  3
$MODEL_SPACE
  1

  0
ENDBLK
  5
1E9
  8
0
  0
BLOCK
 67
     1
  8
0
  2
$PAPER_SPACE
 70
     0
 10
0.0
 20
0.0
 30
0.0
  3
$PAPER_SPACE
  1

  0
ENDBLK
  5
1E7
 67
     1
  8
0
  0
BLOCK
  8
0
  2
*D0
 70
     1
 10
0.0
 20
0.0
 30
0.0
  3
*D0
  1

  0
LINE
  5
9B
  8
0
  6
BYBLOCK
 62
     9
 10
11650.094137
 20
16814.0
 30
0.0
 11
11650.094137
 21
16920.464759
 31
0.0
  0
LINE
  5
9C
  8
0
  6
BYBLOCK
 62
     9
 10
12350.094137
 20
16814.0
 30
0.0
 11
12350.094137
 21
16920.464759
 31
0.0
  0
LINE
  5
9D
  8
0
  6
BYBLOCK
 62
     9
 10
11670.094137
 20
16919.464759
 30
0.0
 11
11952.260803
 21
16919.464759
 31
0.0
  0
LINE
  5
9E
  8
0
  6
BYBLOCK
 62
     9
 10
12330.094137
 20
16919.464759
 30
0.0
 11
12047.92747
 21
16919.464759
 31
0.0
  0
SOLID
  5
9F
  8
0
  6
BYBLOCK
 62
     9
 10
11670.094137
 20
16922.798092
 30
0.0
 11
11670.094137
 21
16916.131426
 31
0.0
 12
11650.094137
 22
16919.464759
 32
0.0
 13
11650.094137
 23
16919.464759
 33
0.0
  0
SOLID
  5
A0
  8
0
  6
BYBLOCK
 62
     9
 10
12330.094137
 20
16922.798092
 30
0.0
 11
12330.094137
 21
16916.131426
 31
0.0
 12
12350.094137
 22
16919.464759
 32
0.0
 13
12350.094137
 23
16919.464759
 33
0.0
  0
TEXT
  5
A1
  8
0
  6
BYBLOCK
 62
    11
 10
11959.260803
 20
16901.964759
 30
0.0
 40
35.0
  1
700
  0
POINT
  5
A2
  8
DEFPOINTS
  6
BYBLOCK
 62
     0
 10
11650.094137
 20
16804.0
 30
0.0
  0
POINT
  5
A3
  8
DEFPOINTS
  6
BYBLOCK
 62
     0
 10
12350.094137
 20
16804.0
 30
0.0
  0
POINT
  5
A4
  8
DEFPOINTS
  6
BYBLOCK
 62
     0
 10
12350.094137
 20
16919.464759
 30
10.0
  0
ENDBLK
  5
A6
  8
0
  0
BLOCK
  8
0
  2
*D1
 70
     1
 10
0.0
 20
0.0
 30
0.0
  3
*D1
  1

  0
LINE
  5
4C
  8
0
  6
BYBLOCK
 62
     9
 10
12533.521575
 20
16000.0
 30
0.0
 11
12845.11008
 21
16000.0
 31
0.0
  0
LINE
  5
4D
  8
0
  6
BYBLOCK
 62
     9
 10
12654.017354
 20
16849.997355
 30
0.0
 11
12845.11008
 21
16849.997355
 31
0.0
  0
LINE
  5
4E
  8
0
  6
BYBLOCK
 62
     9
 10
12844.11008
 20
16020.0
 30
0.0
 11
12844.11008
 21
16374.248678
 31
0.0
  0
LINE
  5
4F
  8
0
  6
BYBLOCK
 62
     9
 10
12844.11008
 20
16829.997355
 30
0.0
 11
12844.11008
 21
16475.748678
 31
0.0
  0
SOLID
  5
50
  8
0
  6
BYBLOCK
 62
     9
 10
12840.776746
 20
16020.0
 30
0.0
 11
12847.443413
 21
16020.0
 31
0.0
 12
12844.11008
 22
16000.0
 32
0.0
 13
12844.11008
 23
16000.0
 33
0.0
  0
SOLID
  5
51
  8
0
  6
BYBLOCK
 62
     9
 10
12840.776746
 20
16829.997355
 30
0.0
 11
12847.443413
 21
16829.997355
 31
0.0
 12
12844.11008
 22
16849.997355
 32
0.0
 13
12844.11008
 23
16849.997355
 33
0.0
  0
TEXT
  5
52
  8
0
  6
BYBLOCK
 62
    11
 10
12861.61008
 20
16381.248678
 30
0.0
 40
35.0
  1
850
 50
90.0
  0
POINT
  5
53
  8
DEFPOINTS
  6
BYBLOCK
 62
     0
 10
12523.521575
 20
16000.0
 30
10.0
  0
POINT
  5
54
  8
DEFPOINTS
  6
BYBLOCK
 62
     0
 10
12644.017354
 20
16849.997355
 30
0.0
  0
POINT
  5
55
  8
DEFPOINTS
  6
BYBLOCK
 62
     0
 10
12844.11008
 20
16849.997355
 30
10.0
  0
ENDBLK
  5
57
  8
0
  0
BLOCK
  8
0
  2
*D2
 70
     1
 10
0.0
 20
0.0
 30
0.0
  3
*D2
  1

  0
LINE
  5
6D
  8
0
  6
BYBLOCK
 62
     9
 10
12075.0
 20
16549.997355
 30
0.0
 11
12075.0
 21
16473.342996
 31
0.0
  0
LINE
  5
6E
  8
0
  6
BYBLOCK
 62
     9
 10
11925.0
 20
16549.997355
 30
0.0
 11
11925.0
 21
16473.342996
 31
0.0
  0
LINE
  5
6F
  8
0
  6
BYBLOCK
 62
     9
 10
12055.0
 20
16474.342996
 30
0.0
 11
12044.916667
 21
16474.342996
 31
0.0
  0
LINE
  5
70
  8
0
  6
BYBLOCK
 62
     9
 10
11945.0
 20
16474.342996
 30
0.0
 11
11955.083333
 21
16474.342996
 31
0.0
  0
TEXT
  5
71
  8
0
  6
BYBLOCK
 62
    11
 10
11962.083333
 20
16456.842996
 30
0.0
 40
35.0
  1
150
  0
SOLID
  5
72
  8
0
  6
BYBLOCK
 62
     9
 10
12055.0
 20
16477.67633
 30
0.0
 11
12055.0
 21
16471.009663
 31
0.0
 12
12075.0
 22
16474.342996
 32
0.0
 13
12075.0
 23
16474.342996
 33
0.0
  0
SOLID
  5
73
  8
0
  6
BYBLOCK
 62
     9
 10
11945.0
 20
16477.67633
 30
0.0
 11
11945.0
 21
16471.009663
 31
0.0
 12
11925.0
 22
16474.342996
 32
0.0
 13
11925.0
 23
16474.342996
 33
0.0
  0
POINT
  5
74
  8
DEFPOINTS
  6
BYBLOCK
 62
     0
 10
12075.0
 20
16559.997355
 30
0.0
  0
POINT
  5
75
  8
DEFPOINTS
  6
BYBLOCK
 62
     0
 10
11925.0
 20
16559.997355
 30
0.0
  0
POINT
  5
76
  8
DEFPOINTS
  6
BYBLOCK
 62
     0
 10
11925.0
 20
16474.342996
 30
10.0
  0
ENDBLK
  5
78
  8
0
  0
BLOCK
  8
0
  2
*D3
 70
     1
 10
0.0
 20
0.0
 30
0.0
  3
*D3
  1

  0
LINE
  5
3E
  8
0
  6
BYBLOCK
 62
     9
 10
12641.252869
 20
16849.997355
 30
0.0
 11
12752.75481
 21
16849.997355
 31
0.0
  0
LINE
  5
3F
  8
0
  6
BYBLOCK
 62
     9
 10
12010.016023
 20
16699.993355
 30
0.0
 11
12752.75481
 21
16699.993355
 31
0.0
  0
LINE
  5
40
  8
0
  6
BYBLOCK
 62
     9
 10
12751.75481
 20
16829.997355
 30
0.0
 11
12751.75481
 21
16819.912022
 31
0.0
  0
LINE
  5
41
  8
0
  6
BYBLOCK
 62
     9
 10
12751.75481
 20
16719.993355
 30
0.0
 11
12751.75481
 21
16730.078689
 31
0.0
  0
TEXT
  5
42
  8
0
  6
BYBLOCK
 62
    11
 10
12769.25481
 20
16737.078689
 30
0.0
 40
35.0
  1
150
 50
90.0
  0
SOLID
  5
43
  8
0
  6
BYBLOCK
 62
     9
 10
12748.421477
 20
16829.997355
 30
0.0
 11
12755.088143
 21
16829.997355
 31
0.0
 12
12751.75481
 22
16849.997355
 32
0.0
 13
12751.75481
 23
16849.997355
 33
0.0
  0
SOLID
  5
44
  8
0
  6
BYBLOCK
 62
     9
 10
12748.421477
 20
16719.993355
 30
0.0
 11
12755.088143
 21
16719.993355
 31
0.0
 12
12751.75481
 22
16699.993355
 32
0.0
 13
12751.75481
 23
16699.993355
 33
0.0
  0
POINT
  5
45
  8
DEFPOINTS
  6
BYBLOCK
 62
     0
 10
12631.252869
 20
16849.997355
 30
10.0
  0
POINT
  5
46
  8
DEFPOINTS
  6
BYBLOCK
 62
     0
 10
12000.016023
 20
16699.993355
 30
0.0
  0
POINT
  5
47
  8
DEFPOINTS
  6
BYBLOCK
 62
     0
 10
12751.75481
 20
16699.993355
 30
10.0
  0
ENDBLK
  5
49
  8
0
  0
BLOCK
  8
0
  2
*D4
 70
     1
 10
0.0
 20
0.0
 30
0.0
  3
*D4
  1

  0
LINE
  5
5F
  8
0
  6
BYBLOCK
 62
     9
 10
12085.0
 20
16559.997355
 30
0.0
 11
12801.891151
 21
16559.997355
 31
0.0
  0
LINE
  5
60
  8
0
  6
BYBLOCK
 62
     9
 10
12010.0
 20
16000.0
 30
0.0
 11
12801.891151
 21
16000.0
 31
0.0
  0
LINE
  5
61
  8
0
  6
BYBLOCK
 62
     9
 10
12800.891151
 20
16539.997355
 30
0.0
 11
12800.891151
 21
16330.748678
 31
0.0
  0
LINE
  5
62
  8
0
  6
BYBLOCK
 62
     9
 10
12800.891151
 20
16020.0
 30
0.0
 11
12800.891151
 21
16229.248678
 31
0.0
  0
SOLID
  5
63
  8
0
  6
BYBLOCK
 62
     9
 10
12797.557817
 20
16539.997355
 30
0.0
 11
12804.224484
 21
16539.997355
 31
0.0
 12
12800.891151
 22
16559.997355
 32
0.0
 13
12800.891151
 23
16559.997355
 33
0.0
  0
SOLID
  5
64
  8
0
  6
BYBLOCK
 62
     9
 10
12797.557817
 20
16020.0
 30
0.0
 11
12804.224484
 21
16020.0
 31
0.0
 12
12800.891151
 22
16000.0
 32
0.0
 13
12800.891151
 23
16000.0
 33
0.0
  0
TEXT
  5
65
  8
0
  6
BYBLOCK
 62
    11
 10
12818.391151
 20
16236.248678
 30
0.0
 40
35.0
  1
560
 50
90.0
  0
POINT
  5
66
  8
DEFPOINTS
  6
BYBLOCK
 62
     0
 10
12075.0
 20
16559.997355
 30
0.0
  0
POINT
  5
67
  8
DEFPOINTS
  6
BYBLOCK
 62
     0
 10
12000.0
 20
16000.0
 30
10.0
  0
POINT
  5
68
  8
DEFPOINTS
  6
BYBLOCK
 62
     0
 10
12800.891151
 20
16000.0
 30
10.0
  0
ENDBLK
  5
6A
  8
0
  0
BLOCK
  8
0
  2
*D5
 70
     1
 10
0.0
 20
0.0
 30
0.0
  3
*D5
  1

  0
LINE
  5
A9
  8
0
  6
BYBLOCK
 62
     9
 10
11350.016023
 20
16853.870975
 30
0.0
 11
11350.016023
 21
16961.482982
 31
0.0
  0
LINE
  5
AA
  8
0
  6
BYBLOCK
 62
     9
 10
12650.016023
 20
16853.870975
 30
0.0
 11
12650.016023
 21
16961.482982
 31
0.0
  0
LINE
  5
AB
  8
0
  6
BYBLOCK
 62
     9
 10
11370.016023
 20
16960.482982
 30
0.0
 11
11940.516023
 21
16960.482982
 31
0.0
  0
LINE
  5
AC
  8
0
  6
BYBLOCK
 62
     9
 10
12630.016023
 20
16960.482982
 30
0.0
 11
12059.516023
 21
16960.482982
 31
0.0
  0
SOLID
  5
AD
  8
0
  6
BYBLOCK
 62
     9
 10
11370.016023
 20
16963.816315
 30
0.0
 11
11370.016023
 21
16957.149649
 31
0.0
 12
11350.016023
 22
16960.482982
 32
0.0
 13
11350.016023
 23
16960.482982
 33
0.0
  0
SOLID
  5
AE
  8
0
  6
BYBLOCK
 62
     9
 10
12630.016023
 20
16963.816315
 30
0.0
 11
12630.016023
 21
16957.149649
 31
0.0
 12
12650.016023
 22
16960.482982
 32
0.0
 13
12650.016023
 23
16960.482982
 33
0.0
  0
TEXT
  5
AF
  8
0
  6
BYBLOCK
 62
    11
 10
11947.516023
 20
16942.982982
 30
0.0
 40
35.0
  1
1300
  0
POINT
  5
B0
  8
DEFPOINTS
  6
BYBLOCK
 62
     0
 10
11350.016023
 20
16843.870975
 30
0.0
  0
POINT
  5
B1
  8
DEFPOINTS
  6
BYBLOCK
 62
     0
 10
12650.016023
 20
16843.870975
 30
0.0
  0
POINT
  5
B2
  8
DEFPOINTS
  6
BYBLOCK
 62
     0
 10
12650.016023
 20
16960.482982
 30
0.0
  0
ENDBLK
  5
B4
  8
0
  0
BLOCK
  8
0
  2
*D6
 70
     1
 10
0.0
 20
0.0
 30
0.0
  3
*D6
  1

  0
LINE
  5
31
  8
0
  6
BYBLOCK
 62
     9
 10
12654.017354
 20
16849.997355
 30
0.0
 11
12702.377959
 21
16849.997355
 31
0.0
  0
LINE
  5
32
  8
0
  6
BYBLOCK
 62
     9
 10
12172.094137
 20
16790.0
 30
0.0
 11
12702.377959
 21
16790.0
 31
0.0
  0
LINE
  5
33
  8
0
  6
BYBLOCK
 62
     9
 10
12701.377959
 20
16829.997355
 30
0.0
 11
12701.377959
 21
16810.0
 31
0.0
  0
TEXT
  5
34
  8
0
  6
BYBLOCK
 62
    11
 10
12718.877959
 20
16728.75
 30
0.0
 40
35.0
  1
60
 50
90.0
  0
SOLID
  5
35
  8
0
  6
BYBLOCK
 62
     9
 10
12698.044626
 20
16829.997355
 30
0.0
 11
12704.711292
 21
16829.997355
 31
0.0
 12
12701.377959
 22
16849.997355
 32
0.0
 13
12701.377959
 23
16849.997355
 33
0.0
  0
SOLID
  5
36
  8
0
  6
BYBLOCK
 62
     9
 10
12698.044626
 20
16810.0
 30
0.0
 11
12704.711292
 21
16810.0
 31
0.0
 12
12701.377959
 22
16790.0
 32
0.0
 13
12701.377959
 23
16790.0
 33
0.0
  0
POINT
  5
37
  8
DEFPOINTS
  6
BYBLOCK
 62
     0
 10
12644.017354
 20
16849.997355
 30
0.0
  0
POINT
  5
38
  8
DEFPOINTS
  6
BYBLOCK
 62
     0
 10
12162.094137
 20
16790.0
 30
0.0
  0
POINT
  5
39
  8
DEFPOINTS
  6
BYBLOCK
 62
     0
 10
12701.377959
 20
16790.0
 30
0.0
  0
ENDBLK
  5
3B
  8
0
  0
BLOCK
  8
0
  2
*D7
 70
     1
 10
0.0
 20
0.0
 30
0.0
  3
*D7
  1

  0
LINE
  5
22
  8
0
  6
BYBLOCK
 62
     9
 10
12085.0
 20
16559.997355
 30
0.0
 11
12801.891151
 21
16559.997355
 31
0.0
  0
LINE
  5
23
  8
0
  6
BYBLOCK
 62
     9
 10
12654.017354
 20
16849.997355
 30
0.0
 11
12801.891151
 21
16849.997355
 31
0.0
  0
LINE
  5
24
  8
0
  6
BYBLOCK
 62
     9
 10
12800.891151
 20
16579.997355
 30
0.0
 11
12800.891151
 21
16654.247355
 31
0.0
  0
LINE
  5
25
  8
0
  6
BYBLOCK
 62
     9
 10
12800.891151
 20
16829.997355
 30
0.0
 11
12800.891151
 21
16755.747355
 31
0.0
  0
SOLID
  5
26
  8
0
  6
BYBLOCK
 62
     9
 10
12797.557817
 20
16579.997355
 30
0.0
 11
12804.224484
 21
16579.997355
 31
0.0
 12
12800.891151
 22
16559.997355
 32
0.0
 13
12800.891151
 23
16559.997355
 33
0.0
  0
SOLID
  5
27
  8
0
  6
BYBLOCK
 62
     9
 10
12797.557817
 20
16829.997355
 30
0.0
 11
12804.224484
 21
16829.997355
 31
0.0
 12
12800.891151
 22
16849.997355
 32
0.0
 13
12800.891151
 23
16849.997355
 33
0.0
  0
TEXT
  5
28
  8
0
  6
BYBLOCK
 62
    11
 10
12818.391151
 20
16661.247355
 30
0.0
 40
35.0
  1
290
 50
90.0
  0
POINT
  5
29
  8
DEFPOINTS
  6
BYBLOCK
 62
     0
 10
12075.0
 20
16559.997355
 30
0.0
  0
POINT
  5
2B
  8
DEFPOINTS
  6
BYBLOCK
 62
     0
 10
12644.017354
 20
16849.997355
 30
0.0
  0
POINT
  5
2C
  8
DEFPOINTS
  6
BYBLOCK
 62
     0
 10
12800.891151
 20
16849.997355
 30
0.0
  0
ENDBLK
  5
2E
  8
0
  0
BLOCK
  8
0
  2
*D8
 70
     1
 10
0.0
 20
0.0
 30
0.0
  3
*D8
  1

  0
LINE
  5
C7
  8
0
  6
BYBLOCK
 62
     9
 10
12140.094137
 20
16814.0
 30
0.0
 11
12140.094137
 21
16879.003111
 31
0.0
  0
LINE
  5
C8
  8
0
  6
BYBLOCK
 62
     9
 10
11860.094137
 20
16814.0
 30
0.0
 11
11860.094137
 21
16879.003111
 31
0.0
  0
LINE
  5
C9
  8
0
  6
BYBLOCK
 62
     9
 10
12120.094137
 20
16878.003111
 30
0.0
 11
12050.844137
 21
16878.003111
 31
0.0
  0
LINE
  5
CA
  8
0
  6
BYBLOCK
 62
     9
 10
11880.094137
 20
16878.003111
 30
0.0
 11
11949.344137
 21
16878.003111
 31
0.0
  0
SOLID
  5
CB
  8
0
  6
BYBLOCK
 62
     9
 10
12120.094137
 20
16881.336444
 30
0.0
 11
12120.094137
 21
16874.669777
 31
0.0
 12
12140.094137
 22
16878.003111
 32
0.0
 13
12140.094137
 23
16878.003111
 33
0.0
  0
SOLID
  5
CC
  8
0
  6
BYBLOCK
 62
     9
 10
11880.094137
 20
16881.336444
 30
0.0
 11
11880.094137
 21
16874.669777
 31
0.0
 12
11860.094137
 22
16878.003111
 32
0.0
 13
11860.094137
 23
16878.003111
 33
0.0
  0
TEXT
  5
CD
  8
0
  6
BYBLOCK
 62
    11
 10
11956.344137
 20
16860.503111
 30
0.0
 40
35.0
  1
280
  0
POINT
  5
CE
  8
DEFPOINTS
  6
BYBLOCK
 62
     0
 10
12140.094137
 20
16804.0
 30
0.0
  0
POINT
  5
CF
  8
DEFPOINTS
  6
BYBLOCK
 62
     0
 10
11860.094137
 20
16804.0
 30
0.0
  0
POINT
  5
D0
  8
DEFPOINTS
  6
BYBLOCK
 62
     0
 10
11860.094137
 20
16878.003111
 30
0.0
  0
ENDBLK
  5
D2
  8
0
  0
ENDSEC
  0
SECTION
  2
ENTITIES
  0
DIMENSION
  5
20
  8
TEAM-MAS
  2
*D7
 10
800.891151
 20
849.997355
 30
0.0
 11
800.891151
 21
704.997355
 31
0.0
 12
-12000.0
 22
-16000.0
 32
0.0
 13
75.0
 23
559.997355
 33
0.0
 14
644.017354
 24
849.997355
 34
0.0
 50
90.0
1001
ACAD
1000
DSTYLE
1002
{
1070
    40
1040
1.0
1002
}
  0
DIMENSION
  5
2F
  8
TEAM-MAS
  2
*D6
 10
701.377959
 20
790.0
 30
0.0
 11
701.377959
 21
755.0
 31
0.0
 12
-12000.0
 22
-16000.0
 32
0.0
 70
   128
 13
644.017354
 23
849.997355
 33
0.0
 14
162.094137
 24
790.0
 34
0.0
 50
90.0
1001
ACAD
1000
DSTYLE
1002
{
1070
    40
1040
1.0
1002
}
  0
DIMENSION
  5
3C
  8
TEAM-MAS
  2
*D3
 10
751.75481
 20
699.993355
 30
10.0
 11
751.75481
 21
774.995355
 31
0.0
 12
-12000.0
 22
-16000.0
 32
0.0
 70
   128
 13
631.252869
 23
849.997355
 33
10.0
 14
0.016023
 24
699.993355
 34
0.0
 50
90.0
1001
ACAD
1000
DSTYLE
1002
{
1070
    40
1040
1.0
1002
}
  0
DIMENSION
  5
4A
  8
TEAM-MAS
  2
*D1
 10
844.11008
 20
849.997355
 30
10.0
 11
844.11008
 21
424.998678
 31
0.0
 12
-12000.0
 22
-16000.0
 32
0.0
 13
523.521575
 23
0.0
 33
10.0
 14
644.017354
 24
849.997355
 34
0.0
 50
90.0
1001
ACAD
1000
DSTYLE
1002
{
1070
    40
1040
1.0
1002
}
  0
POLYLINE
  5
58
  8
TEAM-BODY
 66
     1
 10
0.0
 20
0.0
 30
0.0
  0
VERTEX
  5
1EF
  8
TEAM-BODY
 10
-428.017359
 20
779.997355
 30
0.0
  0
VERTEX
  5
1F0
  8
TEAM-BODY
 10
-428.017359
 20
779.997355
 30
0.0
 42
-0.181379
  0
VERTEX
  5
1F1
  8
TEAM-BODY
 10
-424.191725
 20
778.406401
 30
0.0
 42
-0.167589
  0
VERTEX
  5
1F2
  8
TEAM-BODY
 10
-403.826919
 20
752.059927
 30
0.0
 42
-0.068172
  0
VERTEX
  5
1F3
  8
TEAM-BODY
 10
-399.946385
 20
736.235041
 30
0.0
  0
VERTEX
  5
1F4
  8
TEAM-BODY
 10
-395.12694
 20
696.963499
 30
0.0
 42
0.360805
  0
VERTEX
  5
1F5
  8
TEAM-BODY
 10
-376.261712
 20
679.708601
 30
0.0
  0
VERTEX
  5
1F6
  8
TEAM-BODY
 10
-350.171924
 20
678.591072
 30
0.0
 42
0.222125
  0
VERTEX
  5
1F7
  8
TEAM-BODY
 10
-346.269376
 20
680.215093
 30
0.0
  0
VERTEX
  5
1F8
  8
TEAM-BODY
 10
-333.36192
 20
693.54529
 30
0.0
 42
-0.200967
  0
VERTEX
  5
1F9
  8
TEAM-BODY
 10
-330.11062
 20
694.938576
 30
0.0
  0
VERTEX
  5
1FA
  8
TEAM-BODY
 10
-293.718246
 20
696.146341
 30
0.0
 42
0.07854
  0
VERTEX
  5
1FB
  8
TEAM-BODY
 10
-265.397698
 20
700.444915
 30
0.0
 42
0.19195
  0
VERTEX
  5
1FC
  8
TEAM-BODY
 10
-252.778016
 20
709.944084
 30
0.0
 42
-0.031893
  0
VERTEX
  5
1FD
  8
TEAM-BODY
 10
-250.049919
 20
713.676173
 30
0.0
 42
-0.126469
  0
VERTEX
  5
1FE
  8
TEAM-BODY
 10
-246.916728
 20
716.142305
 30
0.0
 42
-0.051222
  0
VERTEX
  5
1FF
  8
TEAM-BODY
 10
-241.624512
 20
717.659349
 30
0.0
 42
-0.032312
  0
VERTEX
  5
200
  8
TEAM-BODY
 10
-230.146197
 20
719.013645
 30
0.0
 42
-0.022064
  0
VERTEX
  5
201
  8
TEAM-BODY
 10
-64.146233
 20
719.690645
 30
0.0
 42
-0.004475
  0
VERTEX
  5
202
  8
TEAM-BODY
 10
-33.795811
 20
720.510179
 30
0.0
 42
-0.004608
  0
VERTEX
  5
203
  8
TEAM-BODY
 10
0.016023
 20
720.807194
 30
0.0
 42
-0.004608
  0
VERTEX
  5
204
  8
TEAM-BODY
 10
33.827856
 20
720.510179
 30
0.0
 42
0.009815
  0
VERTEX
  5
205
  8
TEAM-BODY
 10
214.178278
 20
719.690645
 30
0.0
 42
-0.003785
  0
VERTEX
  5
206
  8
TEAM-BODY
 10
230.178243
 20
719.013645
 30
0.0
 42
-0.032312
  0
VERTEX
  5
207
  8
TEAM-BODY
 10
241.656557
 20
717.659349
 30
0.0
 42
-0.051222
  0
VERTEX
  5
208
  8
TEAM-BODY
 10
246.948773
 20
716.142305
 30
0.0
 42
-0.126469
  0
VERTEX
  5
209
  8
TEAM-BODY
 10
250.081964
 20
713.676173
 30
0.0
 42
-0.031893
  0
VERTEX
  5
20A
  8
TEAM-BODY
 10
252.810061
 20
709.944084
 30
0.0
 42
0.19195
  0
VERTEX
  5
20B
  8
TEAM-BODY
 10
265.429743
 20
700.444915
 30
0.0
 42
0.07854
  0
VERTEX
  5
20C
  8
TEAM-BODY
 10
293.750291
 20
696.146341
 30
0.0
  0
VERTEX
  5
20D
  8
TEAM-BODY
 10
330.142665
 20
694.938576
 30
0.0
 42
-0.200967
  0
VERTEX
  5
20E
  8
TEAM-BODY
 10
333.393965
 20
693.54529
 30
0.0
  0
VERTEX
  5
20F
  8
TEAM-BODY
 10
346.301421
 20
680.215093
 30
0.0
 42
0.222125
  0
VERTEX
  5
210
  8
TEAM-BODY
 10
350.203969
 20
678.591072
 30
0.0
  0
VERTEX
  5
211
  8
TEAM-BODY
 10
376.293758
 20
679.708601
 30
0.0
 42
0.360805
  0
VERTEX
  5
212
  8
TEAM-BODY
 10
395.158985
 20
696.963499
 30
0.0
  0
VERTEX
  5
213
  8
TEAM-BODY
 10
399.978431
 20
736.235041
 30
0.0
 42
-0.068172
  0
VERTEX
  5
214
  8
TEAM-BODY
 10
403.858965
 20
752.059927
 30
0.0
 42
-0.138056
  0
VERTEX
  5
215
  8
TEAM-BODY
 10
424.22377
 20
778.406401
 30
0.0
 42
-0.181379
  0
VERTEX
  5
216
  8
TEAM-BODY
 10
428.049404
 20
779.997355
 30
0.0
  0
VERTEX
  5
217
  8
TEAM-BODY
 10
428.049404
 20
779.997355
 30
0.0
  0
SEQEND
  5
218
  8
TEAM-BODY
  0
TEXT
  5
5A
  8
TEAM-TXT
 10
-337.834796
 20
736.287354
 30
0.0
 40
30.0
  1
team 211871
 41
0.8
 51
15.0
  7
TEAM
  0
DIMENSION
  5
5D
  8
TEAM-MAS
  2
*D4
 10
800.891151
 20
0.0
 30
10.0
 11
800.891151
 21
279.998678
 31
0.0
 12
-12000.0
 22
-16000.0
 32
0.0
 13
75.0
 23
559.997355
 33
0.0
 14
0.0
 24
0.0
 34
10.0
 50
90.0
1001
ACAD
1000
DSTYLE
1002
{
1070
    40
1040
1.0
1002
}
  0
DIMENSION
  5
6B
  8
TEAM-MAS
  2
*D2
 10
-75.0
 20
474.342996
 30
10.0
 11
0.0
 21
474.342996
 31
0.0
 12
-12000.0
 22
-16000.0
 32
0.0
 70
   128
 13
75.0
 23
559.997355
 33
0.0
 14
-75.0
 24
559.997355
 34
0.0
1001
ACAD
1000
DSTYLE
1002
{
1070
    40
1040
1.0
1002
}
  0
CIRCLE
  5
79
  8
TEAM-WARM
 10
-75.0
 20
559.997355
 30
0.0
 40
10.0
  0
POINT
  5
7B
  8
TEAM-MAS
 10
-75.0
 20
539.997355
 30
0.0
  0
POINT
  5
7C
  8
TEAM-MAS
 10
-75.0
 20
539.997355
 30
0.0
  0
POINT
  5
7D
  8
TEAM-MAS
 10
-75.0
 20
539.997355
 30
0.0
  0
LINE
  5
7E
  8
TEAM-AXE
 10
-75.0
 20
559.997355
 30
0.0
 11
-65.0
 21
559.997355
 31
0.0
  0
LINE
  5
81
  8
TEAM-AXE
 10
-75.0
 20
559.997355
 30
0.0
 11
-75.0
 21
569.997355
 31
0.0
  0
LINE
  5
82
  8
TEAM-AXE
 10
-75.0
 20
559.997355
 30
0.0
 11
-85.0
 21
559.997355
 31
0.0
  0
LINE
  5
83
  8
TEAM-AXE
 10
-75.0
 20
559.997355
 30
0.0
 11
-75.0
 21
549.997355
 31
0.0
  0
CIRCLE
  5
84
  8
TEAM-KAN
 10
0.0
 20
559.997355
 30
0.0
 40
20.0
  0
LINE
  5
86
  8
TEAM-AXE
 10
0.0
 20
559.997355
 30
0.0
 11
0.0
 21
579.997355
 31
0.0
  0
LINE
  5
87
  8
TEAM-AXE
 10
0.0
 20
559.997355
 30
0.0
 11
-20.0
 21
559.997355
 31
0.0
  0
LINE
  5
88
  8
TEAM-AXE
 10
0.0
 20
559.997355
 30
0.0
 11
20.0
 21
559.997355
 31
0.0
  0
LINE
  5
89
  8
TEAM-AXE
 10
0.0
 20
559.997355
 30
0.0
 11
0.0
 21
539.997355
 31
0.0
  0
POLYLINE
  5
8A
  8
TEAM-BODY
 66
     1
 10
0.0
 20
0.0
 30
0.0
  0
VERTEX
  5
219
  8
TEAM-BODY
 10
-43.952883
 20
720.296431
 30
0.0
  0
VERTEX
  5
21A
  8
TEAM-BODY
 10
-43.952883
 20
720.296431
 30
0.0
 42
-0.40397
  0
VERTEX
  5
21B
  8
TEAM-BODY
 10
-38.871207
 20
715.560257
 30
0.0
  0
VERTEX
  5
21C
  8
TEAM-BODY
 10
-38.20666
 20
702.698949
 30
0.0
 42
0.398865
  0
VERTEX
  5
21D
  8
TEAM-BODY
 10
-35.354624
 20
699.993355
 30
0.0
  0
VERTEX
  5
21E
  8
TEAM-BODY
 10
35.386669
 20
699.993355
 30
0.0
 42
0.398865
  0
VERTEX
  5
21F
  8
TEAM-BODY
 10
38.238706
 20
702.698949
 30
0.0
  0
VERTEX
  5
220
  8
TEAM-BODY
 10
38.903252
 20
715.560257
 30
0.0
 42
-0.405844
  0
VERTEX
  5
221
  8
TEAM-BODY
 10
44.016448
 20
720.295498
 30
0.0
 42
49.55707
  0
SEQEND
  5
222
  8
TEAM-BODY
  0
CIRCLE
  5
8B
  8
TEAM-INSP
 10
0.0
 20
0.0
 30
0.0
 40
10.0
  0
CIRCLE
  5
8D
  8
TEAM-COLD
 10
75.0
 20
559.997355
 30
0.0
 40
10.0
  0
LINE
  5
8F
  8
TEAM-AXE
 10
75.0
 20
559.997355
 30
0.0
 11
65.0
 21
559.997355
 31
0.0
  0
POINT
  5
90
  8
TEAM-MAS
 10
75.0
 20
539.997355
 30
0.0
  0
POINT
  5
91
  8
TEAM-MAS
 10
75.0
 20
539.997355
 30
0.0
  0
POINT
  5
92
  8
TEAM-MAS
 10
75.0
 20
539.997355
 30
0.0
  0
POINT
  5
93
  8
TEAM-MAS
 10
95.0
 20
559.997355
 30
0.0
  0
POINT
  5
94
  8
TEAM-MAS
 10
95.0
 20
559.997355
 30
0.0
  0
POINT
  5
95
  8
TEAM-MAS
 10
95.0
 20
559.997355
 30
0.0
  0
LINE
  5
96
  8
TEAM-AXE
 10
75.0
 20
559.997355
 30
0.0
 11
75.0
 21
569.997355
 31
0.0
  0
LINE
  5
97
  8
TEAM-AXE
 10
75.0
 20
559.997355
 30
0.0
 11
85.0
 21
559.997355
 31
0.0
  0
LINE
  5
98
  8
TEAM-AXE
 10
75.0
 20
559.997355
 30
0.0
 11
75.0
 21
549.997355
 31
0.0
  0
DIMENSION
  5
99
  8
TEAM-MAS
  2
*D0
 10
350.094137
 20
919.464759
 30
10.0
 11
0.094137
 21
919.464759
 31
0.0
 12
-12000.0
 22
-16000.0
 32
0.0
 13
-349.905863
 23
804.0
 33
0.0
 14
350.094137
 24
804.0
 34
0.0
1001
ACAD
1000
DSTYLE
1002
{
1070
    40
1040
1.0
1002
}
  0
DIMENSION
  5
A7
  8
TEAM-MAS
  2
*D5
 10
650.016023
 20
960.482982
 30
0.0
 11
0.016023
 21
960.482982
 31
0.0
 12
-12000.0
 22
-16000.0
 32
0.0
 13
-649.983977
 23
843.870975
 33
0.0
 14
650.016023
 24
843.870975
 34
0.0
1001
ACAD
1000
DSTYLE
1002
{
1070
    40
1040
1.0
1002
}
  0
POLYLINE
  5
B5
  8
TEAM-BODY
 66
     1
 10
0.0
 20
0.0
 30
0.0
  0
VERTEX
  5
223
  8
TEAM-BODY
 10
-643.985309
 20
849.997355
 30
0.0
  0
VERTEX
  5
224
  8
TEAM-BODY
 10
644.017354
 20
849.997355
 30
0.0
 42
-0.420397
  0
VERTEX
  5
225
  8
TEAM-BODY
 10
650.016023
 20
843.870975
 30
0.0
 42
-0.038817
  0
VERTEX
  5
226
  8
TEAM-BODY
 10
644.101815
 20
784.120631
 30
0.0
 42
-0.363482
  0
VERTEX
  5
227
  8
TEAM-BODY
 10
639.179279
 20
779.997355
 30
0.0
  0
VERTEX
  5
228
  8
TEAM-BODY
 10
-639.147234
 20
779.997355
 30
0.0
 42
-0.363482
  0
VERTEX
  5
229
  8
TEAM-BODY
 10
-644.06977
 20
784.120631
 30
0.0
 42
-0.038817
  0
VERTEX
  5
22A
  8
TEAM-BODY
 10
-649.983977
 20
843.870975
 30
0.0
 42
-0.420397
  0
VERTEX
  5
22B
  8
TEAM-BODY
 10
-643.985309
 20
849.997355
 30
0.0
 42
-0.634013
  0
SEQEND
  5
22C
  8
TEAM-BODY
  0
POLYLINE
  5
B6
  8
TEAM-HIDE
 66
     1
 10
0.0
 20
0.0
 30
0.0
 70
     1
  0
VERTEX
  5
22D
  8
TEAM-HIDE
 10
-134.905863
 20
780.0
 30
0.0
 42
0.414214
  0
VERTEX
  5
22E
  8
TEAM-HIDE
 10
-124.905863
 20
790.0
 30
0.0
 42
0.414214
  0
VERTEX
  5
22F
  8
TEAM-HIDE
 10
-134.905863
 20
800.0
 30
0.0
  0
VERTEX
  5
230
  8
TEAM-HIDE
 10
-144.905863
 20
800.0
 30
0.0
 42
0.414214
  0
VERTEX
  5
231
  8
TEAM-HIDE
 10
-154.905863
 20
790.0
 30
0.0
 42
0.414214
  0
VERTEX
  5
232
  8
TEAM-HIDE
 10
-144.905863
 20
780.0
 30
0.0
  0
VERTEX
  5
233
  8
TEAM-HIDE
 10
-139.905863
 20
780.0
 30
0.0
  0
SEQEND
  5
234
  8
TEAM-HIDE
  0
LINE
  5
B9
  8
TEAM-AXE
 10
-151.905863
 20
790.0
 30
0.0
 11
-161.905863
 21
790.0
 31
0.0
  0
LINE
  5
BA
  8
TEAM-AXE
 10
-349.905863
 20
775.0
 30
0.0
 11
-349.905863
 21
783.0
 31
0.0
  0
LINE
  5
BB
  8
TEAM-AXE
 10
-361.905863
 20
790.0
 30
0.0
 11
-371.905863
 21
790.0
 31
0.0
  0
LINE
  5
BC
  8
TEAM-AXE
 10
-349.905863
 20
804.0
 30
0.0
 11
-349.905863
 21
797.0
 31
0.0
  0
LINE
  5
BD
  8
TEAM-AXE
 10
-341.905863
 20
790.0
 30
0.0
 11
-357.905863
 21
790.0
 31
0.0
  0
POINT
  5
BE
  8
TEAM-AXE
 10
-349.905863
 20
796.0
 30
0.0
  0
POINT
  5
BF
  8
TEAM-AXE
 10
-349.905863
 20
784.0
 30
0.0
  0
POINT
  5
C0
  8
TEAM-AXE
 10
-359.905863
 20
790.0
 30
0.0
  0
LINE
  5
C1
  8
TEAM-AXE
 10
-349.905863
 20
786.0
 30
0.0
 11
-349.905863
 21
795.0
 31
0.0
  0
POINT
  5
C2
  8
TEAM-AXE
 10
-339.905863
 20
790.0
 30
0.0
  0
LINE
  5
C3
  8
TEAM-AXE
 10
-337.905863
 20
790.0
 30
0.0
 11
-328.905863
 21
790.0
 31
0.0
  0
POLYLINE
  5
C4
  8
TEAM-HIDE
 66
     1
 10
0.0
 20
0.0
 30
0.0
 70
     1
  0
VERTEX
  5
235
  8
TEAM-HIDE
 10
-344.905863
 20
780.0
 30
0.0
 42
0.414214
  0
VERTEX
  5
236
  8
TEAM-HIDE
 10
-334.905863
 20
790.0
 30
0.0
 42
0.414214
  0
VERTEX
  5
237
  8
TEAM-HIDE
 10
-344.905863
 20
800.0
 30
0.0
  0
VERTEX
  5
238
  8
TEAM-HIDE
 10
-354.905863
 20
800.0
 30
0.0
 42
0.414214
  0
VERTEX
  5
239
  8
TEAM-HIDE
 10
-364.905863
 20
790.0
 30
0.0
 42
0.414214
  0
VERTEX
  5
23A
  8
TEAM-HIDE
 10
-354.905863
 20
780.0
 30
0.0
  0
VERTEX
  5
23B
  8
TEAM-HIDE
 10
-349.905863
 20
780.0
 30
0.0
  0
SEQEND
  5
23C
  8
TEAM-HIDE
  0
DIMENSION
  5
C5
  8
TEAM-MAS
  2
*D8
 10
-139.905863
 20
878.003111
 30
0.0
 11
0.094137
 21
878.003111
 31
0.0
 12
-12000.0
 22
-16000.0
 32
0.0
 13
140.094137
 23
804.0
 33
0.0
 14
-139.905863
 24
804.0
 34
0.0
1001
ACAD
1000
DSTYLE
1002
{
1070
    40
1040
1.0
1002
}
  0
LINE
  5
D3
  8
TEAM-AXE
 10
-139.905863
 20
775.0
 30
0.0
 11
-139.905863
 21
783.0
 31
0.0
  0
LINE
  5
D4
  8
TEAM-AXE
 10
-139.905863
 20
804.0
 30
0.0
 11
-139.905863
 21
797.0
 31
0.0
  0
LINE
  5
D5
  8
TEAM-AXE
 10
-131.905863
 20
790.0
 30
0.0
 11
-147.905863
 21
790.0
 31
0.0
  0
POINT
  5
D6
  8
TEAM-AXE
 10
-139.905863
 20
796.0
 30
0.0
  0
POINT
  5
D7
  8
TEAM-AXE
 10
-139.905863
 20
784.0
 30
0.0
  0
POINT
  5
D8
  8
TEAM-AXE
 10
-149.905863
 20
790.0
 30
0.0
  0
LINE
  5
D9
  8
TEAM-AXE
 10
-139.905863
 20
786.0
 30
0.0
 11
-139.905863
 21
795.0
 31
0.0
  0
POINT
  5
DA
  8
TEAM-AXE
 10
-129.905863
 20
790.0
 30
0.0
  0
LINE
  5
DB
  8
TEAM-AXE
 10
-127.905863
 20
790.0
 30
0.0
 11
-118.905863
 21
790.0
 31
0.0
  0
LINE
  5
DC
  8
TEAM-AXE
 10
140.094137
 20
775.0
 30
0.0
 11
140.094137
 21
783.0
 31
0.0
  0
LINE
  5
DD
  8
TEAM-AXE
 10
140.094137
 20
804.0
 30
0.0
 11
140.094137
 21
797.0
 31
0.0
  0
LINE
  5
DE
  8
TEAM-AXE
 10
132.094137
 20
790.0
 30
0.0
 11
148.094137
 21
790.0
 31
0.0
  0
POINT
  5
DF
  8
TEAM-AXE
 10
140.094137
 20
796.0
 30
0.0
  0
POINT
  5
E0
  8
TEAM-AXE
 10
140.094137
 20
784.0
 30
0.0
  0
LINE
  5
E1
  8
TEAM-AXE
 10
140.094137
 20
786.0
 30
0.0
 11
140.094137
 21
795.0
 31
0.0
  0
POINT
  5
E2
  8
TEAM-AXE
 10
130.094137
 20
790.0
 30
0.0
  0
POINT
  5
E3
  8
TEAM-AXE
 10
150.094137
 20
790.0
 30
0.0
  0
LINE
  5
E4
  8
TEAM-AXE
 10
152.094137
 20
790.0
 30
0.0
 11
162.094137
 21
790.0
 31
0.0
  0
LINE
  5
E5
  8
TEAM-AXE
 10
128.094137
 20
790.0
 30
0.0
 11
119.094137
 21
790.0
 31
0.0
  0
POLYLINE
  5
E6
  8
TEAM-HIDE
 66
     1
 10
0.0
 20
0.0
 30
0.0
 70
     1
  0
VERTEX
  5
23D
  8
TEAM-HIDE
 10
135.094137
 20
780.0
 30
0.0
 42
-0.414214
  0
VERTEX
  5
23E
  8
TEAM-HIDE
 10
125.094137
 20
790.0
 30
0.0
 42
-0.414214
  0
VERTEX
  5
23F
  8
TEAM-HIDE
 10
135.094137
 20
800.0
 30
0.0
  0
VERTEX
  5
240
  8
TEAM-HIDE
 10
145.094137
 20
800.0
 30
0.0
 42
-0.414214
  0
VERTEX
  5
241
  8
TEAM-HIDE
 10
155.094137
 20
790.0
 30
0.0
 42
-0.414214
  0
VERTEX
  5
242
  8
TEAM-HIDE
 10
145.094137
 20
780.0
 30
0.0
  0
VERTEX
  5
243
  8
TEAM-HIDE
 10
140.094137
 20
780.0
 30
0.0
  0
SEQEND
  5
244
  8
TEAM-HIDE
  0
LINE
  5
E7
  8
TEAM-AXE
 10
350.094137
 20
775.0
 30
0.0
 11
350.094137
 21
783.0
 31
0.0
  0
LINE
  5
E8
  8
TEAM-AXE
 10
350.094137
 20
804.0
 30
0.0
 11
350.094137
 21
797.0
 31
0.0
  0
LINE
  5
E9
  8
TEAM-AXE
 10
342.094137
 20
790.0
 30
0.0
 11
358.094137
 21
790.0
 31
0.0
  0
POINT
  5
EA
  8
TEAM-AXE
 10
350.094137
 20
796.0
 30
0.0
  0
POINT
  5
EB
  8
TEAM-AXE
 10
350.094137
 20
784.0
 30
0.0
  0
LINE
  5
EC
  8
TEAM-AXE
 10
350.094137
 20
786.0
 30
0.0
 11
350.094137
 21
795.0
 31
0.0
  0
POINT
  5
ED
  8
TEAM-AXE
 10
340.094137
 20
790.0
 30
0.0
  0
POINT
  5
EE
  8
TEAM-AXE
 10
360.094137
 20
790.0
 30
0.0
  0
LINE
  5
EF
  8
TEAM-AXE
 10
362.094137
 20
790.0
 30
0.0
 11
372.094137
 21
790.0
 31
0.0
  0
LINE
  5
F0
  8
TEAM-AXE
 10
338.094137
 20
790.0
 30
0.0
 11
329.094137
 21
790.0
 31
0.0
  0
POLYLINE
  5
F1
  8
TEAM-HIDE
 66
     1
 10
0.0
 20
0.0
 30
0.0
 70
     1
  0
VERTEX
  5
245
  8
TEAM-HIDE
 10
345.094137
 20
780.0
 30
0.0
 42
-0.414214
  0
VERTEX
  5
246
  8
TEAM-HIDE
 10
335.094137
 20
790.0
 30
0.0
 42
-0.414214
  0
VERTEX
  5
247
  8
TEAM-HIDE
 10
345.094137
 20
800.0
 30
0.0
  0
VERTEX
  5
248
  8
TEAM-HIDE
 10
355.094137
 20
800.0
 30
0.0
 42
-0.414214
  0
VERTEX
  5
249
  8
TEAM-HIDE
 10
365.094137
 20
790.0
 30
0.0
 42
-0.414214
  0
VERTEX
  5
24A
  8
TEAM-HIDE
 10
355.094137
 20
780.0
 30
0.0
  0
VERTEX
  5
24B
  8
TEAM-HIDE
 10
350.094137
 20
780.0
 30
0.0
  0
SEQEND
  5
24C
  8
TEAM-HIDE
  0
ENDSEC
  0
EOF
