  0
SECTION
  2
HEADER
  9
$ACADVER
  1
AC1009
  9
$INSBASE
 10
0.0
 20
0.0
 30
0.0
  9
$EXTMIN
 10
-360.636066
 20
-630.145609
 30
-0.000001
  9
$EXTMAX
 10
413.106208
 20
307.130827
 30
0.000005
  9
$LIMMIN
 10
-360.636066
 20
-630.145609
  9
$LIMMAX
 10
413.106208
 20
307.130827
  9
$ORTHOMODE
 70
     1
  9
$REGENMODE
 70
     1
  9
$FILLMODE
 70
     1
  9
$QTEXTMODE
 70
     0
  9
$MIRRTEXT
 70
     0
  9
$DRAGMODE
 70
     2
  9
$LTSCALE
 40
50.0
  9
$OSMODE
 70
     0
  9
$ATTMODE
 70
     1
  9
$TEXTSIZE
 40
200.0
  9
$TRACEWID
 40
1.0
  9
$TEXTSTYLE
  7
STANDARD
  9
$CLAYER
  8
TEAM-MAS
  9
$CELTYPE
  6
BYLAYER
  9
$CECOLOR
 62
   256
  9
$DIMSCALE
 40
0.0
  9
$DIMASZ
 40
20.0
  9
$DIMEXO
 40
10.0
  9
$DIMDLI
 40
1.0
  9
$DIMRND
 40
0.0
  9
$DIMDLE
 40
0.0
  9
$DIMEXE
 40
1.0
  9
$DIMTP
 40
0.0
  9
$DIMTM
 40
0.0
  9
$DIMTXT
 40
35.0
  9
$DIMCEN
 40
1.0
  9
$DIMTSZ
 40
0.0
  9
$DIMTOL
 70
     0
  9
$DIMLIM
 70
     0
  9
$DIMTIH
 70
     0
  9
$DIMTOH
 70
     0
  9
$DIMSE1
 70
     0
  9
$DIMSE2
 70
     0
  9
$DIMTAD
 70
     0
  9
$DIMZIN
 70
     0
  9
$DIMBLK
  1

  9
$DIMASO
 70
     1
  9
$DIMSHO
 70
     0
  9
$DIMPOST
  1

  9
$DIMAPOST
  1

  9
$DIMALT
 70
     0
  9
$DIMALTD
 70
     2
  9
$DIMALTF
 40
25.4
  9
$DIMLFAC
 40
1.0
  9
$DIMTOFL
 70
     0
  9
$DIMTVP
 40
0.0
  9
$DIMTIX
 70
     0
  9
$DIMSOXD
 70
     0
  9
$DIMSAH
 70
     0
  9
$DIMBLK1
  1

  9
$DIMBLK2
  1

  9
$DIMSTYLE
  2
TEAM
  9
$DIMCLRD
 70
     9
  9
$DIMCLRE
 70
     9
  9
$DIMCLRT
 70
    11
  9
$DIMTFAC
 40
1.0
  9
$DIMGAP
 40
7.0
  9
$LUNITS
 70
     2
  9
$LUPREC
 70
     1
  9
$SKETCHINC
 40
1.0
  9
$FILLETRAD
 40
50.0
  9
$AUNITS
 70
     0
  9
$AUPREC
 70
     0
  9
$MENU
  1
ROPLANS
  9
$ELEVATION
 40
0.0
  9
$PELEVATION
 40
0.0
  9
$THICKNESS
 40
0.0
  9
$LIMCHECK
 70
     0
  9
$BLIPMODE
 70
     1
  9
$CHAMFERA
 40
0.0
  9
$CHAMFERB
 40
0.0
  9
$SKPOLY
 70
     0
  9
$TDCREATE
 40
2450392.957851
  9
$TDUPDATE
 40
2456365.738391
  9
$TDINDWG
 40
2.036506
  9
$TDUSRTIMER
 40
2.036506
  9
$USRTIMER
 70
     1
  9
$ANGBASE
 50
0.0
  9
$ANGDIR
 70
     0
  9
$PDMODE
 70
     0
  9
$PDSIZE
 40
0.0
  9
$PLINEWID
 40
0.0
  9
$COORDS
 70
     2
  9
$SPLFRAME
 70
     0
  9
$SPLINETYPE
 70
     6
  9
$SPLINESEGS
 70
     8
  9
$ATTDIA
 70
     0
  9
$ATTREQ
 70
     0
  9
$HANDLING
 70
     1
  9
$HANDSEED
  5
11F
  9
$SURFTAB1
 70
    24
  9
$SURFTAB2
 70
    24
  9
$SURFTYPE
 70
     6
  9
$SURFU
 70
     6
  9
$SURFV
 70
     6
  9
$UCSNAME
  2

  9
$UCSORG
 10
0.0
 20
0.0
 30
0.0
  9
$UCSXDIR
 10
1.0
 20
0.0
 30
0.0
  9
$UCSYDIR
 10
0.0
 20
1.0
 30
0.0
  9
$PUCSNAME
  2

  9
$PUCSORG
 10
0.0
 20
0.0
 30
0.0
  9
$PUCSXDIR
 10
1.0
 20
0.0
 30
0.0
  9
$PUCSYDIR
 10
0.0
 20
1.0
 30
0.0
  9
$USERI1
 70
     0
  9
$USERI2
 70
     0
  9
$USERI3
 70
     0
  9
$USERI4
 70
     0
  9
$USERI5
 70
     0
  9
$USERR1
 40
0.0
  9
$USERR2
 40
0.0
  9
$USERR3
 40
0.0
  9
$USERR4
 40
0.0
  9
$USERR5
 40
0.0
  9
$WORLDVIEW
 70
     1
  9
$SHADEDGE
 70
     0
  9
$SHADEDIF
 70
    70
  9
$TILEMODE
 70
     1
  9
$MAXACTVP
 70
    16
  9
$PLIMCHECK
 70
     0
  9
$PEXTMIN
 10
-0.805942
 20
0.005011
 30
0.0
  9
$PEXTMAX
 10
20.250094
 20
11.356329
 30
0.0
  9
$PLIMMIN
 10
0.0
 20
0.0
  9
$PLIMMAX
 10
12.0
 20
9.0
  9
$UNITMODE
 70
     0
  9
$VISRETAIN
 70
     0
  9
$PLINEGEN
 70
     0
  9
$PSLTSCALE
 70
     0
  0
ENDSEC
  0
SECTION
  2
TABLES
  0
TABLE
  2
VPORT
 70
     2
  0
VPORT
  2
*ACTIVE
 70
     0
 10
0.0
 20
0.0
 11
1.0
 21
1.0
 12
26.235071
 22
-161.507391
 13
0.0
 23
0.0
 14
1.0
 24
1.0
 15
50.0
 25
50.0
 16
0.0
 26
0.0
 36
1.0
 17
0.0
 27
0.0
 37
0.0
 40
943.122235
 41
1.859521
 42
50.0
 43
0.0
 44
0.0
 50
0.0
 51
0.0
 71
     0
 72
   100
 73
     1
 74
     1
 75
     0
 76
     0
 77
     0
 78
     0
  0
ENDTAB
  0
TABLE
  2
LTYPE
 70
     3
  0
LTYPE
  2
CONTINUOUS
 70
     0
  3
Solid Line
 72
    65
 73
     0
 40
0.0
  0
LTYPE
  2
31
 70
     0
  3

 72
    65
 73
     4
 40
2.1
 49
1.5
 49
-0.3
 49
0.0
 49
-0.3
  0
LTYPE
  2
22
 70
     0
  3

 72
    65
 73
     2
 40
1.4
 49
1.2
 49
-0.2
  0
ENDTAB
  0
TABLE
  2
LAYER
 70
    11
  0
LAYER
  2
0
 70
     0
 62
     7
  6
CONTINUOUS
  0
LAYER
  2
DEFPOINTS
 70
     0
 62
     7
  6
CONTINUOUS
  0
LAYER
  2
TEAM-BODY
 70
     0
 62
     2
  6
CONTINUOUS
  0
LAYER
  2
TEAM-AXE
 70
     0
 62
    10
  6
31
  0
LAYER
  2
TEAM-MAS
 70
     0
 62
     9
  6
CONTINUOUS
  0
LAYER
  2
TEAM-TXT
 70
     0
 62
    11
  6
CONTINUOUS
  0
LAYER
  2
TEAM-DET1
 70
     0
 62
     4
  6
CONTINUOUS
  0
LAYER
  2
TEAM-HIDE
 70
     0
 62
     8
  6
22
  0
LAYER
  2
TEAM-KAN
 70
     0
 62
     6
  6
CONTINUOUS
  0
LAYER
  2
TEAM-DET3
 70
     0
 62
    14
  6
CONTINUOUS
  0
LAYER
  2
TEAM-INSP
 70
     0
 62
     5
  6
CONTINUOUS
  0
ENDTAB
  0
TABLE
  2
STYLE
 70
     2
  0
STYLE
  2
STANDARD
 70
     0
 40
0.0
 41
1.0
 50
0.0
 71
     0
 42
200.0
  3
txt
  4

  0
STYLE
  2
TEAM
 70
     0
 40
0.0
 41
0.8
 50
15.0
 71
     0
 42
7.0
  3
ROMANS.shx
  4

  0
ENDTAB
  0
TABLE
  2
VIEW
 70
     0
  0
ENDTAB
  0
TABLE
  2
UCS
 70
     0
  0
ENDTAB
  0
TABLE
  2
APPID
 70
     1
  0
APPID
  2
ACAD
 70
     0
  0
ENDTAB
  0
TABLE
  2
DIMSTYLE
 70
     1
  0
DIMSTYLE
  2
TEAM
 70
     0
  3

  4

  5

  6

  7

 40
0.0
 41
20.0
 42
10.0
 43
1.0
 44
1.0
 45
0.0
 46
0.0
 47
0.0
 48
0.0
140
35.0
141
1.0
142
0.0
143
25.4
144
1.0
145
0.0
146
1.0
147
7.0
 71
     0
 72
     0
 73
     0
 74
     0
 75
     0
 76
     0
 77
     0
 78
     0
170
     0
171
     2
172
     0
173
     0
174
     0
175
     0
176
     9
177
     9
178
    11
  0
ENDTAB
  0
ENDSEC
  0
SECTION
  2
BLOCKS
  0
BLOCK
  8
0
  2
$MODEL_SPACE
 70
     0
 10
0.0
 20
0.0
 30
0.0
  3
$MODEL_SPACE
  1

  0
ENDBLK
  5
118
  8
0
  0
BLOCK
 67
     1
  8
0
  2
$PAPER_SPACE
 70
     0
 10
0.0
 20
0.0
 30
0.0
  3
$PAPER_SPACE
  1

  0
ENDBLK
  5
116
 67
     1
  8
0
  0
BLOCK
  8
0
  2
*D0
 70
     1
 10
0.0
 20
0.0
 30
0.0
  3
*D0
  1

  0
LINE
  5
31
  8
0
  6
BYBLOCK
 62
     9
 10
3955.0
 20
-215.0
 30
0.0
 11
3684.89117
 21
-215.0
 31
0.0
  0
LINE
  5
32
  8
0
  6
BYBLOCK
 62
     9
 10
3924.0
 20
-265.0
 30
0.0
 11
3684.89117
 21
-265.0
 31
0.0
  0
LINE
  5
33
  8
0
  6
BYBLOCK
 62
     9
 10
3685.89117
 20
-195.0
 30
0.0
 11
3685.89117
 21
-175.0
 31
0.0
  0
LINE
  5
34
  8
0
  6
BYBLOCK
 62
     9
 10
3685.89117
 20
-285.0
 30
0.0
 11
3685.89117
 21
-305.0
 31
0.0
  0
TEXT
  5
35
  8
0
  6
BYBLOCK
 62
    11
 10
3674.39117
 20
-266.25
 30
0.0
 40
35.0
  1
50
 50
90.0
  0
LINE
  5
36
  8
0
  6
BYBLOCK
 62
     9
 10
3685.89117
 20
-215.0
 30
0.0
 11
3685.89117
 21
-265.0
 31
0.0
  0
SOLID
  5
37
  8
0
  6
BYBLOCK
 62
     9
 10
3682.557836
 20
-195.0
 30
0.0
 11
3689.224503
 21
-195.0
 31
0.0
 12
3685.89117
 22
-215.0
 32
0.0
 13
3685.89117
 23
-215.0
 33
0.0
  0
SOLID
  5
38
  8
0
  6
BYBLOCK
 62
     9
 10
3682.557836
 20
-285.0
 30
0.0
 11
3689.224503
 21
-285.0
 31
0.0
 12
3685.89117
 22
-265.0
 32
0.0
 13
3685.89117
 23
-265.0
 33
0.0
  0
POINT
  5
39
  8
DEFPOINTS
  6
BYBLOCK
 62
     0
 10
3965.0
 20
-215.0
 30
0.0
  0
POINT
  5
3A
  8
DEFPOINTS
  6
BYBLOCK
 62
     0
 10
3934.0
 20
-265.0
 30
0.0
  0
POINT
  5
3B
  8
DEFPOINTS
  6
BYBLOCK
 62
     0
 10
3685.89117
 20
-265.0
 30
0.0
  0
ENDBLK
  5
3D
  8
0
  0
BLOCK
  8
0
  2
*D1
 70
     1
 10
0.0
 20
0.0
 30
0.0
  3
*D1
  1

  0
LINE
  5
98
  8
0
  6
BYBLOCK
 62
     9
 10
3940.0
 20
-281.0
 30
0.0
 11
3940.0
 21
-567.112919
 31
0.0
  0
LINE
  5
99
  8
0
  6
BYBLOCK
 62
     9
 10
4060.0
 20
-281.0
 30
0.0
 11
4060.0
 21
-567.112919
 31
0.0
  0
LINE
  5
9A
  8
0
  6
BYBLOCK
 62
     9
 10
3960.0
 20
-566.112919
 30
0.0
 11
3967.0
 21
-566.112919
 31
0.0
  0
LINE
  5
9B
  8
0
  6
BYBLOCK
 62
     9
 10
4040.0
 20
-566.112919
 30
0.0
 11
4033.0
 21
-566.112919
 31
0.0
  0
TEXT
  5
9C
  8
0
  6
BYBLOCK
 62
    11
 10
3962.083333
 20
-583.612919
 30
0.0
 40
35.0
  1
120
  0
SOLID
  5
9D
  8
0
  6
BYBLOCK
 62
     9
 10
3960.0
 20
-562.779585
 30
0.0
 11
3960.0
 21
-569.446252
 31
0.0
 12
3940.0
 22
-566.112919
 32
0.0
 13
3940.0
 23
-566.112919
 33
0.0
  0
SOLID
  5
9E
  8
0
  6
BYBLOCK
 62
     9
 10
4040.0
 20
-562.779585
 30
0.0
 11
4040.0
 21
-569.446252
 31
0.0
 12
4060.0
 22
-566.112919
 32
0.0
 13
4060.0
 23
-566.112919
 33
0.0
  0
POINT
  5
9F
  8
DEFPOINTS
  6
BYBLOCK
 62
     0
 10
3940.0
 20
-271.0
 30
0.0
  0
POINT
  5
A0
  8
DEFPOINTS
  6
BYBLOCK
 62
     0
 10
4060.0
 20
-271.0
 30
0.0
  0
POINT
  5
A1
  8
DEFPOINTS
  6
BYBLOCK
 62
     0
 10
4060.0
 20
-566.112919
 30
0.0
  0
ENDBLK
  5
A3
  8
0
  0
BLOCK
  8
0
  2
*D2
 70
     1
 10
0.0
 20
0.0
 30
0.0
  3
*D2
  1

  0
LINE
  5
22
  8
0
  6
BYBLOCK
 62
     9
 10
3735.0
 20
-275.0
 30
0.0
 11
3735.0
 21
-613.623739
 31
0.0
  0
LINE
  5
23
  8
0
  6
BYBLOCK
 62
     9
 10
4265.0
 20
-275.0
 30
0.0
 11
4265.0
 21
-613.623739
 31
0.0
  0
LINE
  5
24
  8
0
  6
BYBLOCK
 62
     9
 10
3755.0
 20
-612.623739
 30
0.0
 11
3949.25
 21
-612.623739
 31
0.0
  0
LINE
  5
25
  8
0
  6
BYBLOCK
 62
     9
 10
4245.0
 20
-612.623739
 30
0.0
 11
4050.75
 21
-612.623739
 31
0.0
  0
SOLID
  5
26
  8
0
  6
BYBLOCK
 62
     9
 10
3755.0
 20
-609.290405
 30
0.0
 11
3755.0
 21
-615.957072
 31
0.0
 12
3735.0
 22
-612.623739
 32
0.0
 13
3735.0
 23
-612.623739
 33
0.0
  0
SOLID
  5
27
  8
0
  6
BYBLOCK
 62
     9
 10
4245.0
 20
-609.290405
 30
0.0
 11
4245.0
 21
-615.957072
 31
0.0
 12
4265.0
 22
-612.623739
 32
0.0
 13
4265.0
 23
-612.623739
 33
0.0
  0
TEXT
  5
28
  8
0
  6
BYBLOCK
 62
    11
 10
3956.25
 20
-630.123739
 30
0.0
 40
35.0
  1
530
  0
POINT
  5
29
  8
DEFPOINTS
  6
BYBLOCK
 62
     0
 10
3735.0
 20
-265.0
 30
0.0
  0
POINT
  5
2B
  8
DEFPOINTS
  6
BYBLOCK
 62
     0
 10
4265.0
 20
-265.0
 30
0.0
  0
POINT
  5
2C
  8
DEFPOINTS
  6
BYBLOCK
 62
     0
 10
4265.0
 20
-612.623739
 30
0.0
  0
ENDBLK
  5
2E
  8
0
  0
BLOCK
  8
0
  2
*D3
 70
     1
 10
0.0
 20
0.0
 30
0.0
  3
*D3
  1

  0
LINE
  5
8A
  8
0
  6
BYBLOCK
 62
     9
 10
4045.0
 20
-79.998533
 30
0.0
 11
4297.815721
 21
-79.998533
 31
0.0
  0
LINE
  5
8B
  8
0
  6
BYBLOCK
 62
     9
 10
4010.0
 20
-215.0
 30
0.0
 11
4297.815721
 21
-215.0
 31
0.0
  0
LINE
  5
8C
  8
0
  6
BYBLOCK
 62
     9
 10
4296.815721
 20
-99.998533
 30
0.0
 11
4296.815721
 21
-106.998533
 31
0.0
  0
LINE
  5
8D
  8
0
  6
BYBLOCK
 62
     9
 10
4296.815721
 20
-195.0
 30
0.0
 11
4296.815721
 21
-188.0
 31
0.0
  0
TEXT
  5
8E
  8
0
  6
BYBLOCK
 62
    11
 10
4314.315721
 20
-188.3326
 30
0.0
 40
35.0
  1
135
 50
90.0
  0
SOLID
  5
8F
  8
0
  6
BYBLOCK
 62
     9
 10
4293.482388
 20
-99.998533
 30
0.0
 11
4300.149055
 21
-99.998533
 31
0.0
 12
4296.815721
 22
-79.998533
 32
0.0
 13
4296.815721
 23
-79.998533
 33
0.0
  0
SOLID
  5
90
  8
0
  6
BYBLOCK
 62
     9
 10
4293.482388
 20
-195.0
 30
0.0
 11
4300.149055
 21
-195.0
 31
0.0
 12
4296.815721
 22
-215.0
 32
0.0
 13
4296.815721
 23
-215.0
 33
0.0
  0
POINT
  5
91
  8
DEFPOINTS
  6
BYBLOCK
 62
     0
 10
4035.0
 20
-79.998533
 30
0.0
  0
POINT
  5
92
  8
DEFPOINTS
  6
BYBLOCK
 62
     0
 10
4000.0
 20
-215.0
 30
0.0
  0
POINT
  5
93
  8
DEFPOINTS
  6
BYBLOCK
 62
     0
 10
4296.815721
 20
-215.0
 30
0.0
  0
ENDBLK
  5
95
  8
0
  0
BLOCK
  8
0
  2
*D4
 70
     1
 10
0.0
 20
0.0
 30
0.0
  3
*D4
  1

  0
LINE
  5
7C
  8
0
  6
BYBLOCK
 62
     9
 10
4010.0
 20
0.0
 30
0.0
 11
4350.56869
 21
0.0
 31
0.0
  0
LINE
  5
7D
  8
0
  6
BYBLOCK
 62
     9
 10
4010.0
 20
-215.0
 30
0.0
 11
4350.56869
 21
-215.0
 31
0.0
  0
LINE
  5
7E
  8
0
  6
BYBLOCK
 62
     9
 10
4349.56869
 20
-20.0
 30
0.0
 11
4349.56869
 21
-59.666667
 31
0.0
  0
LINE
  5
7F
  8
0
  6
BYBLOCK
 62
     9
 10
4349.56869
 20
-195.0
 30
0.0
 11
4349.56869
 21
-155.333333
 31
0.0
  0
SOLID
  5
80
  8
0
  6
BYBLOCK
 62
     9
 10
4346.235357
 20
-20.0
 30
0.0
 11
4352.902023
 21
-20.0
 31
0.0
 12
4349.56869
 22
0.0
 32
0.0
 13
4349.56869
 23
0.0
 33
0.0
  0
SOLID
  5
81
  8
0
  6
BYBLOCK
 62
     9
 10
4346.235357
 20
-195.0
 30
0.0
 11
4352.902023
 21
-195.0
 31
0.0
 12
4349.56869
 22
-215.0
 32
0.0
 13
4349.56869
 23
-215.0
 33
0.0
  0
TEXT
  5
82
  8
0
  6
BYBLOCK
 62
    11
 10
4367.06869
 20
-148.333333
 30
0.0
 40
35.0
  1
215
 50
90.0
  0
POINT
  5
83
  8
DEFPOINTS
  6
BYBLOCK
 62
     0
 10
4000.0
 20
0.0
 30
0.0
  0
POINT
  5
84
  8
DEFPOINTS
  6
BYBLOCK
 62
     0
 10
4000.0
 20
-215.0
 30
0.0
  0
POINT
  5
85
  8
DEFPOINTS
  6
BYBLOCK
 62
     0
 10
4349.56869
 20
-215.0
 30
0.0
  0
ENDBLK
  5
87
  8
0
  0
BLOCK
  8
0
  2
*D5
 70
     1
 10
0.0
 20
0.0
 30
0.0
  3
*D5
  1

  0
LINE
  5
6E
  8
0
  6
BYBLOCK
 62
     9
 10
4010.0
 20
0.0
 30
0.0
 11
4396.604543
 21
0.0
 31
0.0
  0
LINE
  5
6F
  8
0
  6
BYBLOCK
 62
     9
 10
4010.0
 20
-530.0
 30
0.0
 11
4396.604543
 21
-530.0
 31
0.0
  0
LINE
  5
70
  8
0
  6
BYBLOCK
 62
     9
 10
4395.604543
 20
-20.0
 30
0.0
 11
4395.604543
 21
-214.25
 31
0.0
  0
LINE
  5
71
  8
0
  6
BYBLOCK
 62
     9
 10
4395.604543
 20
-510.0
 30
0.0
 11
4395.604543
 21
-315.75
 31
0.0
  0
SOLID
  5
72
  8
0
  6
BYBLOCK
 62
     9
 10
4392.27121
 20
-20.0
 30
0.0
 11
4398.937877
 21
-20.0
 31
0.0
 12
4395.604543
 22
0.0
 32
0.0
 13
4395.604543
 23
0.0
 33
0.0
  0
SOLID
  5
73
  8
0
  6
BYBLOCK
 62
     9
 10
4392.27121
 20
-510.0
 30
0.0
 11
4398.937877
 21
-510.0
 31
0.0
 12
4395.604543
 22
-530.0
 32
0.0
 13
4395.604543
 23
-530.0
 33
0.0
  0
TEXT
  5
74
  8
0
  6
BYBLOCK
 62
    11
 10
4413.104543
 20
-308.75
 30
0.0
 40
35.0
  1
530
 50
90.0
  0
POINT
  5
75
  8
DEFPOINTS
  6
BYBLOCK
 62
     0
 10
4000.0
 20
0.0
 30
0.0
  0
POINT
  5
76
  8
DEFPOINTS
  6
BYBLOCK
 62
     0
 10
4000.0
 20
-530.0
 30
0.0
  0
POINT
  5
77
  8
DEFPOINTS
  6
BYBLOCK
 62
     0
 10
4395.604543
 20
-530.0
 30
0.0
  0
ENDBLK
  5
79
  8
0
  0
BLOCK
  8
0
  2
*D6
 70
     1
 10
0.0
 20
0.0
 30
0.0
  3
*D6
  1

  0
LINE
  5
60
  8
0
  6
BYBLOCK
 62
     9
 10
4010.0
 20
0.0
 30
0.0
 11
4396.604543
 21
0.0
 31
0.0
  0
LINE
  5
61
  8
0
  6
BYBLOCK
 62
     9
 10
4310.0
 20
300.0
 30
0.0
 11
4396.604543
 21
300.0
 31
0.0
  0
LINE
  5
62
  8
0
  6
BYBLOCK
 62
     9
 10
4395.604543
 20
20.0
 30
0.0
 11
4395.604543
 21
70.083333
 31
0.0
  0
LINE
  5
63
  8
0
  6
BYBLOCK
 62
     9
 10
4395.604543
 20
280.0
 30
0.0
 11
4395.604543
 21
229.916667
 31
0.0
  0
SOLID
  5
64
  8
0
  6
BYBLOCK
 62
     9
 10
4392.27121
 20
20.0
 30
0.0
 11
4398.937877
 21
20.0
 31
0.0
 12
4395.604543
 22
0.0
 32
0.0
 13
4395.604543
 23
0.0
 33
0.0
  0
SOLID
  5
65
  8
0
  6
BYBLOCK
 62
     9
 10
4392.27121
 20
280.0
 30
0.0
 11
4398.937877
 21
280.0
 31
0.0
 12
4395.604543
 22
300.0
 32
0.0
 13
4395.604543
 23
300.0
 33
0.0
  0
TEXT
  5
66
  8
0
  6
BYBLOCK
 62
    11
 10
4413.104543
 20
77.083333
 30
0.0
 40
35.0
  1
>=300
 50
90.0
  0
POINT
  5
67
  8
DEFPOINTS
  6
BYBLOCK
 62
     0
 10
4000.0
 20
0.0
 30
0.0
  0
POINT
  5
68
  8
DEFPOINTS
  6
BYBLOCK
 62
     0
 10
4300.0
 20
300.0
 30
0.0
  0
POINT
  5
69
  8
DEFPOINTS
  6
BYBLOCK
 62
     0
 10
4395.604543
 20
300.0
 30
0.0
  0
ENDBLK
  5
6B
  8
0
  0
ENDSEC
  0
SECTION
  2
ENTITIES
  0
DIMENSION
  5
20
  8
TEAM-MAS
  2
*D2
 10
265.0
 20
-612.623739
 30
0.0
 11
0.0
 21
-612.623739
 31
0.0
 12
-4000.0
 22
0.0
 32
0.0
 13
-265.0
 23
-265.0
 33
0.0
 14
265.0
 24
-265.0
 34
0.0
1001
ACAD
1000
DSTYLE
1002
{
1070
    40
1040
1.0
1002
}
  0
DIMENSION
  5
2F
  8
TEAM-MAS
  2
*D0
 10
-314.10883
 20
-265.0
 30
0.0
 11
-343.10883
 21
-240.0
 31
0.0
 12
-4000.0
 22
0.0
 32
0.0
 13
-35.0
 23
-215.0
 33
0.0
 14
-66.0
 24
-265.0
 34
0.0
 50
90.0
1001
ACAD
1000
DSTYLE
1002
{
1070
    40
1040
1.0
1002
}
  0
LINE
  5
3E
  8
TEAM-DET3
 10
300.0
 20
300.0
 30
0.0
 11
-300.0
 21
300.0
 31
0.0
  0
LINE
  5
40
  8
TEAM-DET3
 10
-80.0
 20
300.0
 30
0.0
 11
-72.928932
 21
307.071068
 31
0.0
  0
TEXT
  5
41
  8
TEAM-TXT
 10
-91.544186
 20
-134.211619
 30
0.0
 40
24.999999
  1
team 212045
 41
0.8
 51
15.0
  7
TEAM
  0
CIRCLE
  5
44
  8
TEAM-BODY
 10
0.0
 20
-265.0
 30
0.0
 40
265.0
  0
CIRCLE
  5
46
  8
TEAM-BODY
 10
0.0
 20
-265.0
 30
0.0
 40
255.0
  0
CIRCLE
  5
47
  8
TEAM-BODY
 10
0.0
 20
-309.93698
 30
0.0
 40
175.0
  0
LINE
  5
48
  8
TEAM-DET3
 10
-300.0
 20
300.0
 30
0.0
 11
-292.928932
 21
307.071068
 31
0.0
  0
LINE
  5
49
  8
TEAM-DET3
 10
-290.0
 20
300.0
 30
0.0
 11
-282.928932
 21
307.071068
 31
0.0
  0
LINE
  5
4A
  8
TEAM-DET3
 10
-280.0
 20
300.0
 30
0.0
 11
-272.928932
 21
307.071068
 31
0.0
  0
LINE
  5
4B
  8
TEAM-DET3
 10
-270.0
 20
300.0
 30
0.0
 11
-262.928932
 21
307.071068
 31
0.0
  0
LINE
  5
4C
  8
TEAM-DET3
 10
-260.0
 20
300.0
 30
0.0
 11
-252.928932
 21
307.071068
 31
0.0
  0
LINE
  5
4D
  8
TEAM-DET3
 10
-250.0
 20
300.0
 30
0.0
 11
-242.928932
 21
307.071068
 31
0.0
  0
LINE
  5
4E
  8
TEAM-DET3
 10
-240.0
 20
300.0
 30
0.0
 11
-232.928932
 21
307.071068
 31
0.0
  0
LINE
  5
4F
  8
TEAM-DET3
 10
-230.0
 20
300.0
 30
0.0
 11
-222.928932
 21
307.071068
 31
0.0
  0
LINE
  5
50
  8
TEAM-DET3
 10
-220.0
 20
300.0
 30
0.0
 11
-212.928932
 21
307.071068
 31
0.0
  0
LINE
  5
51
  8
TEAM-DET3
 10
-210.0
 20
300.0
 30
0.0
 11
-202.928932
 21
307.071068
 31
0.0
  0
LINE
  5
52
  8
TEAM-DET3
 10
-200.0
 20
300.0
 30
0.0
 11
-192.928932
 21
307.071068
 31
0.0
  0
LINE
  5
53
  8
TEAM-DET3
 10
-190.0
 20
300.0
 30
0.0
 11
-182.928932
 21
307.071068
 31
0.0
  0
LINE
  5
54
  8
TEAM-DET3
 10
-180.0
 20
300.0
 30
0.0
 11
-172.928932
 21
307.071068
 31
0.0
  0
LINE
  5
55
  8
TEAM-DET3
 10
-170.0
 20
300.0
 30
0.0
 11
-162.928932
 21
307.071068
 31
0.0
  0
LINE
  5
56
  8
TEAM-DET3
 10
-160.0
 20
300.0
 30
0.0
 11
-152.928932
 21
307.071068
 31
0.0
  0
LINE
  5
57
  8
TEAM-DET3
 10
-150.0
 20
300.0
 30
0.0
 11
-142.928932
 21
307.071068
 31
0.0
  0
LINE
  5
58
  8
TEAM-DET3
 10
-140.0
 20
300.0
 30
0.0
 11
-132.928932
 21
307.071068
 31
0.0
  0
LINE
  5
59
  8
TEAM-DET3
 10
-130.0
 20
300.0
 30
0.0
 11
-122.928932
 21
307.071068
 31
0.0
  0
LINE
  5
5A
  8
TEAM-DET3
 10
-120.0
 20
300.0
 30
0.0
 11
-112.928932
 21
307.071068
 31
0.0
  0
LINE
  5
5B
  8
TEAM-DET3
 10
-110.0
 20
300.0
 30
0.0
 11
-102.928932
 21
307.071068
 31
0.0
  0
LINE
  5
5C
  8
TEAM-DET3
 10
-100.0
 20
300.0
 30
0.0
 11
-92.928932
 21
307.071068
 31
0.0
  0
LINE
  5
5D
  8
TEAM-DET3
 10
-90.0
 20
300.0
 30
0.0
 11
-82.928932
 21
307.071068
 31
0.0
  0
DIMENSION
  5
5E
  8
TEAM-MAS
  2
*D6
 10
395.604543
 20
300.0
 30
0.0
 11
395.604543
 21
150.0
 31
0.0
 12
-4000.0
 22
0.0
 32
0.0
  1
>=<>
 13
0.0
 23
0.0
 33
0.0
 14
300.0
 24
300.0
 34
0.0
 50
90.0
1001
ACAD
1000
DSTYLE
1002
{
1070
    40
1040
1.0
1002
}
  0
DIMENSION
  5
6C
  8
TEAM-MAS
  2
*D5
 10
395.604543
 20
-530.0
 30
0.0
 11
395.604543
 21
-265.0
 31
0.0
 12
-4000.0
 22
0.0
 32
0.0
 13
0.0
 23
0.0
 33
0.0
 14
0.0
 24
-530.0
 34
0.0
 50
90.0
  0
DIMENSION
  5
7A
  8
TEAM-MAS
  2
*D4
 10
349.56869
 20
-215.0
 30
0.0
 11
349.56869
 21
-107.5
 31
0.0
 12
-4000.0
 22
0.0
 32
0.0
 13
0.0
 23
0.0
 33
0.0
 14
0.0
 24
-215.0
 34
0.0
 50
270.0
1001
ACAD
1000
DSTYLE
1002
{
1070
    40
1040
1.0
1002
}
  0
DIMENSION
  5
88
  8
TEAM-MAS
  2
*D3
 10
296.815721
 20
-215.0
 30
0.0
 11
296.815721
 21
-147.499266
 31
0.0
 12
-4000.0
 22
0.0
 32
0.0
 70
   128
 13
35.0
 23
-79.998533
 33
0.0
 14
0.0
 24
-215.0
 34
0.0
 50
90.0
1001
ACAD
1000
DSTYLE
1002
{
1070
    40
1040
1.0
1002
}
  0
DIMENSION
  5
96
  8
TEAM-MAS
  2
*D1
 10
60.0
 20
-566.112919
 30
0.0
 11
0.0
 21
-566.112919
 31
0.0
 12
-4000.0
 22
0.0
 32
0.0
 70
   128
 13
-60.0
 23
-271.0
 33
0.0
 14
60.0
 24
-271.0
 34
0.0
1001
ACAD
1000
DSTYLE
1002
{
1070
    40
1040
1.0
1002
}
  0
LINE
  5
A4
  8
TEAM-DET3
 10
-70.0
 20
300.0
 30
0.0
 11
-62.928932
 21
307.071068
 31
0.0
  0
LINE
  5
A5
  8
TEAM-DET3
 10
-60.0
 20
300.0
 30
0.0
 11
-52.928932
 21
307.071068
 31
0.0
  0
LINE
  5
A6
  8
TEAM-DET3
 10
-50.0
 20
300.0
 30
0.0
 11
-42.928932
 21
307.071068
 31
0.0
  0
LINE
  5
A7
  8
TEAM-DET3
 10
-40.0
 20
300.0
 30
0.0
 11
-32.928932
 21
307.071068
 31
0.0
  0
LINE
  5
A8
  8
TEAM-DET3
 10
-30.0
 20
300.0
 30
0.0
 11
-22.928932
 21
307.071068
 31
0.0
  0
LINE
  5
A9
  8
TEAM-DET3
 10
-20.0
 20
300.0
 30
0.0
 11
-12.928932
 21
307.071068
 31
0.0
  0
LINE
  5
AA
  8
TEAM-DET3
 10
-10.0
 20
300.0
 30
0.0
 11
-2.928932
 21
307.071068
 31
0.0
  0
LINE
  5
AB
  8
TEAM-DET3
 10
0.0
 20
300.0
 30
0.0
 11
7.071068
 21
307.071068
 31
0.0
  0
LINE
  5
AC
  8
TEAM-DET3
 10
10.0
 20
300.0
 30
0.0
 11
17.071068
 21
307.071068
 31
0.0
  0
LINE
  5
AD
  8
TEAM-DET3
 10
20.0
 20
300.0
 30
0.0
 11
27.071068
 21
307.071068
 31
0.0
  0
LINE
  5
AE
  8
TEAM-DET3
 10
30.0
 20
300.0
 30
0.0
 11
37.071068
 21
307.071068
 31
0.0
  0
LINE
  5
AF
  8
TEAM-DET3
 10
40.0
 20
300.0
 30
0.0
 11
47.071068
 21
307.071068
 31
0.0
  0
LINE
  5
B0
  8
TEAM-DET3
 10
50.0
 20
300.0
 30
0.0
 11
57.071068
 21
307.071068
 31
0.0
  0
LINE
  5
B1
  8
TEAM-DET3
 10
60.0
 20
300.0
 30
0.0
 11
67.071068
 21
307.071068
 31
0.0
  0
LINE
  5
B2
  8
TEAM-DET3
 10
70.0
 20
300.0
 30
0.0
 11
77.071068
 21
307.071068
 31
0.0
  0
LINE
  5
B3
  8
TEAM-DET3
 10
80.0
 20
300.0
 30
0.0
 11
87.071068
 21
307.071068
 31
0.0
  0
LINE
  5
B4
  8
TEAM-DET3
 10
90.0
 20
300.0
 30
0.0
 11
97.071068
 21
307.071068
 31
0.0
  0
LINE
  5
B5
  8
TEAM-DET3
 10
100.0
 20
300.0
 30
0.0
 11
107.071068
 21
307.071068
 31
0.0
  0
LINE
  5
B6
  8
TEAM-DET3
 10
110.0
 20
300.0
 30
0.0
 11
117.071068
 21
307.071068
 31
0.0
  0
LINE
  5
B7
  8
TEAM-DET3
 10
120.0
 20
300.0
 30
0.0
 11
127.071068
 21
307.071068
 31
0.0
  0
LINE
  5
B8
  8
TEAM-DET3
 10
130.0
 20
300.0
 30
0.0
 11
137.071068
 21
307.071068
 31
0.0
  0
LINE
  5
B9
  8
TEAM-DET3
 10
140.0
 20
300.0
 30
0.0
 11
147.071068
 21
307.071068
 31
0.0
  0
LINE
  5
BA
  8
TEAM-DET3
 10
150.0
 20
300.0
 30
0.0
 11
157.071068
 21
307.071068
 31
0.0
  0
LINE
  5
BB
  8
TEAM-DET3
 10
160.0
 20
300.0
 30
0.0
 11
167.071068
 21
307.071068
 31
0.0
  0
LINE
  5
BC
  8
TEAM-DET3
 10
170.0
 20
300.0
 30
0.0
 11
177.071068
 21
307.071068
 31
0.0
  0
LINE
  5
BD
  8
TEAM-DET3
 10
180.0
 20
300.0
 30
0.0
 11
187.071068
 21
307.071068
 31
0.0
  0
LINE
  5
BE
  8
TEAM-DET3
 10
190.0
 20
300.0
 30
0.0
 11
197.071068
 21
307.071068
 31
0.0
  0
LINE
  5
BF
  8
TEAM-DET3
 10
200.0
 20
300.0
 30
0.0
 11
207.071068
 21
307.071068
 31
0.0
  0
LINE
  5
C0
  8
TEAM-DET3
 10
210.0
 20
300.0
 30
0.0
 11
217.071068
 21
307.071068
 31
0.0
  0
LINE
  5
C1
  8
TEAM-DET3
 10
220.0
 20
300.0
 30
0.0
 11
227.071068
 21
307.071068
 31
0.0
  0
LINE
  5
C2
  8
TEAM-DET3
 10
230.0
 20
300.0
 30
0.0
 11
237.071068
 21
307.071068
 31
0.0
  0
LINE
  5
C3
  8
TEAM-DET3
 10
240.0
 20
300.0
 30
0.0
 11
247.071068
 21
307.071068
 31
0.0
  0
LINE
  5
C4
  8
TEAM-DET3
 10
250.0
 20
300.0
 30
0.0
 11
257.071068
 21
307.071068
 31
0.0
  0
LINE
  5
C5
  8
TEAM-DET3
 10
260.0
 20
300.0
 30
0.0
 11
267.071068
 21
307.071068
 31
0.0
  0
LINE
  5
C6
  8
TEAM-DET3
 10
270.0
 20
300.0
 30
0.0
 11
277.071068
 21
307.071068
 31
0.0
  0
LINE
  5
C7
  8
TEAM-DET3
 10
280.0
 20
300.0
 30
0.0
 11
287.071068
 21
307.071068
 31
0.0
  0
LINE
  5
C8
  8
TEAM-DET3
 10
290.0
 20
300.0
 30
0.0
 11
297.071068
 21
307.071068
 31
0.0
  0
LINE
  5
C9
  8
TEAM-DET3
 10
300.0
 20
300.0
 30
0.0
 11
307.071068
 21
307.071068
 31
0.0
  0
CIRCLE
  5
CA
  8
TEAM-DET1
 10
0.0
 20
-215.0
 30
0.0
 40
45.0
  0
CIRCLE
  5
CC
  8
TEAM-KAN
 10
0.0
 20
-215.0
 30
0.0
 40
30.0
  0
LINE
  5
CE
  8
TEAM-AXE
 10
-35.0
 20
-215.0
 30
0.0
 11
35.0
 21
-215.0
 31
0.0
  0
LINE
  5
D1
  8
TEAM-AXE
 10
0.0
 20
-250.0
 30
0.0
 11
0.0
 21
-180.0
 31
0.0
  0
CIRCLE
  5
D2
  8
TEAM-DET1
 10
0.0
 20
-79.998533
 30
0.0
 40
20.0
  0
LINE
  5
D3
  8
TEAM-AXE
 10
-35.0
 20
-79.998533
 30
0.0
 11
35.0
 21
-79.998533
 31
0.0
  0
LINE
  5
D4
  8
TEAM-AXE
 10
0.0
 20
-114.998533
 30
0.0
 11
0.0
 21
-44.998533
 31
0.0
  0
CIRCLE
  5
D5
  8
TEAM-INSP
 10
0.0
 20
0.0
 30
0.0
 40
10.0
  0
LINE
  5
D7
  8
TEAM-AXE
 10
54.0
 20
-265.0
 30
0.0
 11
66.0
 21
-265.0
 31
0.0
  0
LINE
  5
D8
  8
TEAM-AXE
 10
60.0
 20
-259.0
 30
0.0
 11
60.0
 21
-271.0
 31
0.0
  0
CIRCLE
  5
D9
  8
TEAM-HIDE
 10
60.0
 20
-265.0
 30
0.0
 40
5.0
  0
CIRCLE
  5
DC
  8
TEAM-HIDE
 10
-60.0
 20
-265.0
 30
0.0
 40
5.0
  0
LINE
  5
DD
  8
TEAM-AXE
 10
-60.0
 20
-259.0
 30
0.0
 11
-60.0
 21
-271.0
 31
0.0
  0
LINE
  5
DE
  8
TEAM-AXE
 10
-66.0
 20
-265.0
 30
0.0
 11
-54.0
 21
-265.0
 31
0.0
  0
ENDSEC
  0
EOF
