  0
SECTION
  2
HEADER
  9
$ACADVER
  1
AC1009
  9
$INSBASE
 10
0.0
 20
0.0
 30
0.0
  9
$EXTMIN
 10
-303.303248
 20
-56.79556
 30
-0.000001
  9
$EXTMAX
 10
372.165934
 20
956.570502
 30
0.000005
  9
$LIMMIN
 10
-303.303248
 20
-56.79556
  9
$LIMMAX
 10
372.165934
 20
956.570502
  9
$ORTHOMODE
 70
     1
  9
$REGENMODE
 70
     1
  9
$FILLMODE
 70
     1
  9
$QTEXTMODE
 70
     0
  9
$MIRRTEXT
 70
     0
  9
$DRAGMODE
 70
     2
  9
$LTSCALE
 40
50.0
  9
$OSMODE
 70
     0
  9
$ATTMODE
 70
     1
  9
$TEXTSIZE
 40
200.0
  9
$TRACEWID
 40
1.0
  9
$TEXTSTYLE
  7
STANDARD
  9
$CLAYER
  8
TEAM-MAS
  9
$CELTYPE
  6
BYLAYER
  9
$CECOLOR
 62
   256
  9
$DIMSCALE
 40
0.0
  9
$DIMASZ
 40
20.0
  9
$DIMEXO
 40
10.0
  9
$DIMDLI
 40
1.0
  9
$DIMRND
 40
0.0
  9
$DIMDLE
 40
0.0
  9
$DIMEXE
 40
1.0
  9
$DIMTP
 40
0.0
  9
$DIMTM
 40
0.0
  9
$DIMTXT
 40
35.0
  9
$DIMCEN
 40
1.0
  9
$DIMTSZ
 40
0.0
  9
$DIMTOL
 70
     0
  9
$DIMLIM
 70
     0
  9
$DIMTIH
 70
     0
  9
$DIMTOH
 70
     0
  9
$DIMSE1
 70
     0
  9
$DIMSE2
 70
     0
  9
$DIMTAD
 70
     0
  9
$DIMZIN
 70
     0
  9
$DIMBLK
  1

  9
$DIMASO
 70
     1
  9
$DIMSHO
 70
     0
  9
$DIMPOST
  1

  9
$DIMAPOST
  1

  9
$DIMALT
 70
     0
  9
$DIMALTD
 70
     2
  9
$DIMALTF
 40
25.4
  9
$DIMLFAC
 40
1.0
  9
$DIMTOFL
 70
     0
  9
$DIMTVP
 40
0.0
  9
$DIMTIX
 70
     0
  9
$DIMSOXD
 70
     0
  9
$DIMSAH
 70
     0
  9
$DIMBLK1
  1

  9
$DIMBLK2
  1

  9
$DIMSTYLE
  2
TEAM
  9
$DIMCLRD
 70
     9
  9
$DIMCLRE
 70
     9
  9
$DIMCLRT
 70
    11
  9
$DIMTFAC
 40
1.0
  9
$DIMGAP
 40
7.0
  9
$LUNITS
 70
     2
  9
$LUPREC
 70
     1
  9
$SKETCHINC
 40
1.0
  9
$FILLETRAD
 40
50.0
  9
$AUNITS
 70
     0
  9
$AUPREC
 70
     0
  9
$MENU
  1
ROPLANS
  9
$ELEVATION
 40
0.0
  9
$PELEVATION
 40
0.0
  9
$THICKNESS
 40
0.0
  9
$LIMCHECK
 70
     0
  9
$BLIPMODE
 70
     1
  9
$CHAMFERA
 40
0.0
  9
$CHAMFERB
 40
0.0
  9
$SKPOLY
 70
     0
  9
$TDCREATE
 40
2450392.957851
  9
$TDUPDATE
 40
2456365.738391
  9
$TDINDWG
 40
2.036506
  9
$TDUSRTIMER
 40
2.036506
  9
$USRTIMER
 70
     1
  9
$ANGBASE
 50
0.0
  9
$ANGDIR
 70
     0
  9
$PDMODE
 70
     0
  9
$PDSIZE
 40
0.0
  9
$PLINEWID
 40
0.0
  9
$COORDS
 70
     2
  9
$SPLFRAME
 70
     0
  9
$SPLINETYPE
 70
     6
  9
$SPLINESEGS
 70
     8
  9
$ATTDIA
 70
     0
  9
$ATTREQ
 70
     0
  9
$HANDLING
 70
     1
  9
$HANDSEED
  5
B6
  9
$SURFTAB1
 70
    24
  9
$SURFTAB2
 70
    24
  9
$SURFTYPE
 70
     6
  9
$SURFU
 70
     6
  9
$SURFV
 70
     6
  9
$UCSNAME
  2

  9
$UCSORG
 10
0.0
 20
0.0
 30
0.0
  9
$UCSXDIR
 10
1.0
 20
0.0
 30
0.0
  9
$UCSYDIR
 10
0.0
 20
1.0
 30
0.0
  9
$PUCSNAME
  2

  9
$PUCSORG
 10
0.0
 20
0.0
 30
0.0
  9
$PUCSXDIR
 10
1.0
 20
0.0
 30
0.0
  9
$PUCSYDIR
 10
0.0
 20
1.0
 30
0.0
  9
$USERI1
 70
     0
  9
$USERI2
 70
     0
  9
$USERI3
 70
     0
  9
$USERI4
 70
     0
  9
$USERI5
 70
     0
  9
$USERR1
 40
0.0
  9
$USERR2
 40
0.0
  9
$USERR3
 40
0.0
  9
$USERR4
 40
0.0
  9
$USERR5
 40
0.0
  9
$WORLDVIEW
 70
     1
  9
$SHADEDGE
 70
     0
  9
$SHADEDIF
 70
    70
  9
$TILEMODE
 70
     1
  9
$MAXACTVP
 70
    16
  9
$PLIMCHECK
 70
     0
  9
$PEXTMIN
 10
-0.805942
 20
0.005011
 30
0.0
  9
$PEXTMAX
 10
20.250094
 20
11.356329
 30
0.0
  9
$PLIMMIN
 10
0.0
 20
0.0
  9
$PLIMMAX
 10
12.0
 20
9.0
  9
$UNITMODE
 70
     0
  9
$VISRETAIN
 70
     0
  9
$PLINEGEN
 70
     0
  9
$PSLTSCALE
 70
     0
  0
ENDSEC
  0
SECTION
  2
TABLES
  0
TABLE
  2
VPORT
 70
     2
  0
VPORT
  2
*ACTIVE
 70
     0
 10
0.0
 20
0.0
 11
1.0
 21
1.0
 12
34.431343
 22
449.887471
 13
0.0
 23
0.0
 14
1.0
 24
1.0
 15
50.0
 25
50.0
 16
0.0
 26
0.0
 36
1.0
 17
0.0
 27
0.0
 37
0.0
 40
1019.686432
 41
1.859521
 42
50.0
 43
0.0
 44
0.0
 50
0.0
 51
0.0
 71
     0
 72
   100
 73
     1
 74
     1
 75
     0
 76
     0
 77
     0
 78
     0
  0
ENDTAB
  0
TABLE
  2
LTYPE
 70
     3
  0
LTYPE
  2
CONTINUOUS
 70
     0
  3
Solid Line
 72
    65
 73
     0
 40
0.0
  0
LTYPE
  2
31
 70
     0
  3

 72
    65
 73
     4
 40
2.1
 49
1.5
 49
-0.3
 49
0.0
 49
-0.3
  0
LTYPE
  2
22
 70
     0
  3

 72
    65
 73
     2
 40
1.4
 49
1.2
 49
-0.2
  0
ENDTAB
  0
TABLE
  2
LAYER
 70
     9
  0
LAYER
  2
0
 70
     0
 62
     7
  6
CONTINUOUS
  0
LAYER
  2
DEFPOINTS
 70
     0
 62
     7
  6
CONTINUOUS
  0
LAYER
  2
TEAM-BODY
 70
     0
 62
     2
  6
CONTINUOUS
  0
LAYER
  2
TEAM-AXE
 70
     0
 62
    10
  6
31
  0
LAYER
  2
TEAM-MAS
 70
     0
 62
     9
  6
CONTINUOUS
  0
LAYER
  2
TEAM-TXT
 70
     0
 62
    11
  6
CONTINUOUS
  0
LAYER
  2
TEAM-HIDE
 70
     0
 62
     8
  6
22
  0
LAYER
  2
TEAM-DET3
 70
     0
 62
    14
  6
CONTINUOUS
  0
LAYER
  2
TEAM-INSP
 70
     0
 62
     5
  6
CONTINUOUS
  0
ENDTAB
  0
TABLE
  2
STYLE
 70
     2
  0
STYLE
  2
STANDARD
 70
     0
 40
0.0
 41
1.0
 50
0.0
 71
     0
 42
200.0
  3
txt
  4

  0
STYLE
  2
TEAM
 70
     0
 40
0.0
 41
0.8
 50
15.0
 71
     0
 42
7.0
  3
ROMANS.shx
  4

  0
ENDTAB
  0
TABLE
  2
VIEW
 70
     0
  0
ENDTAB
  0
TABLE
  2
UCS
 70
     0
  0
ENDTAB
  0
TABLE
  2
APPID
 70
     1
  0
APPID
  2
ACAD
 70
     0
  0
ENDTAB
  0
TABLE
  2
DIMSTYLE
 70
     1
  0
DIMSTYLE
  2
TEAM
 70
     0
  3

  4

  5

  6

  7

 40
0.0
 41
20.0
 42
10.0
 43
1.0
 44
1.0
 45
0.0
 46
0.0
 47
0.0
 48
0.0
140
35.0
141
1.0
142
0.0
143
25.4
144
1.0
145
0.0
146
1.0
147
7.0
 71
     0
 72
     0
 73
     0
 74
     0
 75
     0
 76
     0
 77
     0
 78
     0
170
     0
171
     2
172
     0
173
     0
174
     0
175
     0
176
     9
177
     9
178
    11
  0
ENDTAB
  0
ENDSEC
  0
SECTION
  2
BLOCKS
  0
BLOCK
  8
0
  2
$MODEL_SPACE
 70
     0
 10
0.0
 20
0.0
 30
0.0
  3
$MODEL_SPACE
  1

  0
ENDBLK
  5
AF
  8
0
  0
BLOCK
 67
     1
  8
0
  2
$PAPER_SPACE
 70
     0
 10
0.0
 20
0.0
 30
0.0
  3
$PAPER_SPACE
  1

  0
ENDBLK
  5
AD
 67
     1
  8
0
  0
BLOCK
  8
0
  2
*D0
 70
     1
 10
0.0
 20
0.0
 30
0.0
  3
*D0
  1

  0
LINE
  5
4D
  8
0
  6
BYBLOCK
 62
     9
 10
8261.673514
 20
900.0
 30
0.0
 11
8355.665301
 21
900.0
 31
0.0
  0
LINE
  5
4E
  8
0
  6
BYBLOCK
 62
     9
 10
8010.0
 20
0.0
 30
0.0
 11
8355.665301
 21
0.0
 31
0.0
  0
LINE
  5
4F
  8
0
  6
BYBLOCK
 62
     9
 10
8354.665301
 20
880.0
 30
0.0
 11
8354.665301
 21
497.833333
 31
0.0
  0
LINE
  5
50
  8
0
  6
BYBLOCK
 62
     9
 10
8354.665301
 20
20.0
 30
0.0
 11
8354.665301
 21
402.166667
 31
0.0
  0
SOLID
  5
51
  8
0
  6
BYBLOCK
 62
     9
 10
8351.331967
 20
880.0
 30
0.0
 11
8357.998634
 21
880.0
 31
0.0
 12
8354.665301
 22
900.0
 32
0.0
 13
8354.665301
 23
900.0
 33
0.0
  0
SOLID
  5
52
  8
0
  6
BYBLOCK
 62
     9
 10
8351.331967
 20
20.0
 30
0.0
 11
8357.998634
 21
20.0
 31
0.0
 12
8354.665301
 22
0.0
 32
0.0
 13
8354.665301
 23
0.0
 33
0.0
  0
TEXT
  5
53
  8
0
  6
BYBLOCK
 62
    11
 10
8372.165301
 20
409.166667
 30
0.0
 40
35.0
  1
900
 50
90.0
  0
POINT
  5
54
  8
DEFPOINTS
  6
BYBLOCK
 62
     0
 10
8251.673514
 20
900.0
 30
0.0
  0
POINT
  5
55
  8
DEFPOINTS
  6
BYBLOCK
 62
     0
 10
8000.0
 20
0.0
 30
0.0
  0
POINT
  5
56
  8
DEFPOINTS
  6
BYBLOCK
 62
     0
 10
8354.665301
 20
0.0
 30
0.0
  0
ENDBLK
  5
58
  8
0
  0
BLOCK
  8
0
  2
*D1
 70
     1
 10
0.0
 20
0.0
 30
0.0
  3
*D1
  1

  0
LINE
  5
3F
  8
0
  6
BYBLOCK
 62
     9
 10
7735.0
 20
748.960598
 30
0.0
 11
7735.0
 21
939.998522
 31
0.0
  0
LINE
  5
40
  8
0
  6
BYBLOCK
 62
     9
 10
8265.0
 20
748.960598
 30
0.0
 11
8265.0
 21
939.998522
 31
0.0
  0
LINE
  5
41
  8
0
  6
BYBLOCK
 62
     9
 10
7755.0
 20
938.998522
 30
0.0
 11
7949.25
 21
938.998522
 31
0.0
  0
LINE
  5
42
  8
0
  6
BYBLOCK
 62
     9
 10
8245.0
 20
938.998522
 30
0.0
 11
8050.75
 21
938.998522
 31
0.0
  0
SOLID
  5
43
  8
0
  6
BYBLOCK
 62
     9
 10
7755.0
 20
942.331856
 30
0.0
 11
7755.0
 21
935.665189
 31
0.0
 12
7735.0
 22
938.998522
 32
0.0
 13
7735.0
 23
938.998522
 33
0.0
  0
SOLID
  5
44
  8
0
  6
BYBLOCK
 62
     9
 10
8245.0
 20
942.331856
 30
0.0
 11
8245.0
 21
935.665189
 31
0.0
 12
8265.0
 22
938.998522
 32
0.0
 13
8265.0
 23
938.998522
 33
0.0
  0
TEXT
  5
45
  8
0
  6
BYBLOCK
 62
    11
 10
7956.25
 20
921.498522
 30
0.0
 40
35.0
  1
530
  0
POINT
  5
46
  8
DEFPOINTS
  6
BYBLOCK
 62
     0
 10
7735.0
 20
738.960598
 30
0.0
  0
POINT
  5
47
  8
DEFPOINTS
  6
BYBLOCK
 62
     0
 10
8265.0
 20
738.960598
 30
0.0
  0
POINT
  5
48
  8
DEFPOINTS
  6
BYBLOCK
 62
     0
 10
8265.0
 20
938.998522
 30
0.0
  0
ENDBLK
  5
4A
  8
0
  0
BLOCK
  8
0
  2
*D2
 70
     1
 10
0.0
 20
0.0
 30
0.0
  3
*D2
  1

  0
LINE
  5
31
  8
0
  6
BYBLOCK
 62
     9
 10
8261.673514
 20
900.0
 30
0.0
 11
8314.415463
 21
900.0
 31
0.0
  0
LINE
  5
32
  8
0
  6
BYBLOCK
 62
     9
 10
8044.999992
 20
715.0
 30
0.0
 11
8314.415463
 21
715.0
 31
0.0
  0
LINE
  5
33
  8
0
  6
BYBLOCK
 62
     9
 10
8313.415463
 20
880.0
 30
0.0
 11
8313.415463
 21
855.333333
 31
0.0
  0
LINE
  5
34
  8
0
  6
BYBLOCK
 62
     9
 10
8313.415463
 20
735.0
 30
0.0
 11
8313.415463
 21
759.666667
 31
0.0
  0
SOLID
  5
35
  8
0
  6
BYBLOCK
 62
     9
 10
8310.082129
 20
880.0
 30
0.0
 11
8316.748796
 21
880.0
 31
0.0
 12
8313.415463
 22
900.0
 32
0.0
 13
8313.415463
 23
900.0
 33
0.0
  0
SOLID
  5
36
  8
0
  6
BYBLOCK
 62
     9
 10
8310.082129
 20
735.0
 30
0.0
 11
8316.748796
 21
735.0
 31
0.0
 12
8313.415463
 22
715.0
 32
0.0
 13
8313.415463
 23
715.0
 33
0.0
  0
TEXT
  5
37
  8
0
  6
BYBLOCK
 62
    11
 10
8330.915463
 20
766.666667
 30
0.0
 40
35.0
  1
185
 50
90.0
  0
POINT
  5
38
  8
DEFPOINTS
  6
BYBLOCK
 62
     0
 10
8251.673514
 20
900.0
 30
0.0
  0
POINT
  5
39
  8
DEFPOINTS
  6
BYBLOCK
 62
     0
 10
8034.999992
 20
715.0
 30
0.0
  0
POINT
  5
3A
  8
DEFPOINTS
  6
BYBLOCK
 62
     0
 10
8313.415463
 20
715.0
 30
0.0
  0
ENDBLK
  5
3C
  8
0
  0
BLOCK
  8
0
  2
*D3
 70
     1
 10
0.0
 20
0.0
 30
0.0
  3
*D3
  1

  0
LINE
  5
22
  8
0
  6
BYBLOCK
 62
     9
 10
7865.0
 20
-10.0
 30
0.0
 11
7865.0
 21
-40.288049
 31
0.0
  0
LINE
  5
23
  8
0
  6
BYBLOCK
 62
     9
 10
8135.0
 20
-10.0
 30
0.0
 11
8135.0
 21
-40.288049
 31
0.0
  0
LINE
  5
24
  8
0
  6
BYBLOCK
 62
     9
 10
7885.0
 20
-39.288049
 30
0.0
 11
7949.25
 21
-39.288049
 31
0.0
  0
LINE
  5
25
  8
0
  6
BYBLOCK
 62
     9
 10
8115.0
 20
-39.288049
 30
0.0
 11
8050.75
 21
-39.288049
 31
0.0
  0
SOLID
  5
26
  8
0
  6
BYBLOCK
 62
     9
 10
7885.0
 20
-35.954716
 30
0.0
 11
7885.0
 21
-42.621383
 31
0.0
 12
7865.0
 22
-39.288049
 32
0.0
 13
7865.0
 23
-39.288049
 33
0.0
  0
SOLID
  5
27
  8
0
  6
BYBLOCK
 62
     9
 10
8115.0
 20
-35.954716
 30
0.0
 11
8115.0
 21
-42.621383
 31
0.0
 12
8135.0
 22
-39.288049
 32
0.0
 13
8135.0
 23
-39.288049
 33
0.0
  0
TEXT
  5
28
  8
0
  6
BYBLOCK
 62
    11
 10
7956.25
 20
-56.788049
 30
0.0
 40
35.0
  1
270
  0
POINT
  5
29
  8
DEFPOINTS
  6
BYBLOCK
 62
     0
 10
7865.0
 20
0.0
 30
0.0
  0
POINT
  5
2B
  8
DEFPOINTS
  6
BYBLOCK
 62
     0
 10
8135.0
 20
0.0
 30
0.0
  0
POINT
  5
2C
  8
DEFPOINTS
  6
BYBLOCK
 62
     0
 10
8135.0
 20
-39.288049
 30
0.0
  0
ENDBLK
  5
2E
  8
0
  0
ENDSEC
  0
SECTION
  2
ENTITIES
  0
DIMENSION
  5
20
  8
TEAM-MAS
  2
*D3
 10
135.0
 20
-39.288049
 30
0.0
 11
0.0
 21
-39.288049
 31
0.0
 12
-8000.0
 22
0.0
 32
0.0
 13
-135.0
 23
0.0
 33
0.0
 14
135.0
 24
0.0
 34
0.0
1001
ACAD
1000
DSTYLE
1002
{
1070
    40
1040
1.0
1002
}
  0
DIMENSION
  5
2F
  8
TEAM-MAS
  2
*D2
 10
313.415463
 20
715.0
 30
0.0
 11
313.415463
 21
807.5
 31
0.0
 12
-8000.0
 22
0.0
 32
0.0
 13
251.673514
 23
900.0
 33
0.0
 14
34.999992
 24
715.0
 34
0.0
 50
90.0
1001
ACAD
1000
DSTYLE
1002
{
1070
    40
1040
1.0
1002
}
  0
DIMENSION
  5
3D
  8
TEAM-MAS
  2
*D1
 10
265.0
 20
938.998522
 30
0.0
 11
0.0
 21
938.998522
 31
0.0
 12
-8000.0
 22
0.0
 32
0.0
 13
-265.0
 23
738.960598
 33
0.0
 14
265.0
 24
738.960598
 34
0.0
1001
ACAD
1000
DSTYLE
1002
{
1070
    40
1040
1.0
1002
}
  0
DIMENSION
  5
4B
  8
TEAM-MAS
  2
*D0
 10
354.665301
 20
0.0
 30
0.0
 11
354.665301
 21
450.0
 31
0.0
 12
-8000.0
 22
0.0
 32
0.0
 13
251.673514
 23
900.0
 33
0.0
 14
0.0
 24
0.0
 34
0.0
 50
90.0
1001
ACAD
1000
DSTYLE
1002
{
1070
    40
1040
1.0
1002
}
  0
LINE
  5
59
  8
TEAM-DET3
 10
147.558921
 20
1.0
 30
0.0
 11
0.0
 21
1.0
 31
0.0
  0
LINE
  5
5B
  8
TEAM-DET3
 10
0.0
 20
1.0
 30
0.0
 11
-147.558921
 21
1.0
 31
0.0
  0
LINE
  5
5C
  8
TEAM-DET3
 10
139.0
 20
45.527864
 30
0.0
 11
139.0
 21
0.0
 31
0.0
  0
CIRCLE
  5
5D
  8
TEAM-DET3
 10
135.0
 20
50.0
 30
0.0
 40
6.0
  0
LINE
  5
5E
  8
TEAM-DET3
 10
131.0
 20
45.527864
 30
0.0
 11
131.0
 21
0.0
 31
0.0
  0
CIRCLE
  5
5F
  8
TEAM-DET3
 10
-135.0
 20
50.0
 30
0.0
 40
6.0
  0
LINE
  5
60
  8
TEAM-DET3
 10
-139.0
 20
45.527864
 30
0.0
 11
-139.0
 21
0.0
 31
0.0
  0
LINE
  5
61
  8
TEAM-DET3
 10
-131.0
 20
45.527864
 30
0.0
 11
-131.0
 21
0.0
 31
0.0
  0
LINE
  5
62
  8
TEAM-AXE
 10
135.0
 20
56.0
 30
0.0
 11
135.0
 21
0.0
 31
0.0
  0
LINE
  5
65
  8
TEAM-AXE
 10
-135.0
 20
56.0
 30
0.0
 11
-135.0
 21
0.0
 31
0.0
  0
LINE
  5
66
  8
TEAM-AXE
 10
129.0
 20
50.0
 30
0.0
 11
141.0
 21
50.0
 31
0.0
  0
LINE
  5
67
  8
TEAM-AXE
 10
-141.0
 20
50.0
 30
0.0
 11
-129.0
 21
50.0
 31
0.0
  0
LINE
  5
68
  8
TEAM-HIDE
 10
0.0
 20
715.0
 30
0.0
 11
34.999992
 21
715.0
 31
0.0
  0
LINE
  5
6B
  8
TEAM-HIDE
 10
36.141225
 20
735.542221
 30
0.0
 11
34.999992
 21
715.0
 31
0.0
  0
LINE
  5
6C
  8
TEAM-HIDE
 10
0.0
 20
715.0
 30
0.0
 11
-34.999992
 21
715.0
 31
0.0
  0
LINE
  5
6D
  8
TEAM-HIDE
 10
-36.141225
 20
735.542221
 30
0.0
 11
-34.999992
 21
715.0
 31
0.0
  0
LINE
  5
6E
  8
TEAM-AXE
 10
0.0
 20
744.381753
 30
0.0
 11
0.0
 21
704.115588
 31
0.0
  0
TEXT
  5
6F
  8
TEAM-TXT
 10
-239.990439
 20
761.45538
 30
0.0
 40
30.0
  1
team 212045
 41
0.8
 51
15.0
  7
TEAM
  0
CIRCLE
  5
72
  8
TEAM-INSP
 10
0.0
 20
0.0
 30
0.0
 40
10.0
  0
LINE
  5
74
  8
TEAM-BODY
 10
0.0
 20
0.0
 30
0.0
 11
-147.231195
 21
0.0
 31
0.0
  0
LINE
  5
76
  8
TEAM-BODY
 10
-259.841134
 20
900.0
 30
0.0
 11
0.0
 21
900.0
 31
0.0
  0
ARC
  5
77
  8
TEAM-BODY
 10
2105.891762
 20
738.960598
 30
0.0
 40
2371.207672
 50
176.105788
 51
198.158027
  0
LINE
  5
78
  8
TEAM-BODY
 10
259.841134
 20
900.0
 30
0.0
 11
0.0
 21
900.0
 31
0.0
  0
ARC
  5
79
  8
TEAM-BODY
 10
-2105.891762
 20
738.960598
 30
0.0
 40
2371.207672
 50
341.841973
 51
3.894212
  0
LINE
  5
7A
  8
TEAM-BODY
 10
0.0
 20
0.0
 30
0.0
 11
147.231195
 21
0.0
 31
0.0
  0
ENDSEC
  0
EOF
