  0
SECTION
  2
HEADER
  9
$ACADVER
  1
AC1009
  9
$INSBASE
 10
0.0
 20
0.0
 30
0.0
  9
$EXTMIN
 10
-301.093718
 20
-10.060266
 30
-0.000037
  9
$EXTMAX
 10
536.989287
 20
969.513476
 30
10.0004
  9
$LIMMIN
 10
-301.093718
 20
-10.060266
  9
$LIMMAX
 10
536.989287
 20
969.513476
  9
$ORTHOMODE
 70
     1
  9
$REGENMODE
 70
     1
  9
$FILLMODE
 70
     1
  9
$QTEXTMODE
 70
     0
  9
$MIRRTEXT
 70
     0
  9
$DRAGMODE
 70
     2
  9
$LTSCALE
 40
50.0
  9
$OSMODE
 70
     0
  9
$ATTMODE
 70
     1
  9
$TEXTSIZE
 40
200.0
  9
$TRACEWID
 40
1.0
  9
$TEXTSTYLE
  7
STANDARD
  9
$CLAYER
  8
TEAM-MAS
  9
$CELTYPE
  6
BYLAYER
  9
$CECOLOR
 62
   256
  9
$DIMSCALE
 40
0.0
  9
$DIMASZ
 40
20.0
  9
$DIMEXO
 40
10.0
  9
$DIMDLI
 40
1.0
  9
$DIMRND
 40
0.0
  9
$DIMDLE
 40
0.0
  9
$DIMEXE
 40
1.0
  9
$DIMTP
 40
0.0
  9
$DIMTM
 40
0.0
  9
$DIMTXT
 40
35.0
  9
$DIMCEN
 40
1.0
  9
$DIMTSZ
 40
0.0
  9
$DIMTOL
 70
     0
  9
$DIMLIM
 70
     0
  9
$DIMTIH
 70
     0
  9
$DIMTOH
 70
     0
  9
$DIMSE1
 70
     0
  9
$DIMSE2
 70
     0
  9
$DIMTAD
 70
     0
  9
$DIMZIN
 70
     0
  9
$DIMBLK
  1

  9
$DIMASO
 70
     1
  9
$DIMSHO
 70
     0
  9
$DIMPOST
  1

  9
$DIMAPOST
  1

  9
$DIMALT
 70
     0
  9
$DIMALTD
 70
     2
  9
$DIMALTF
 40
25.4
  9
$DIMLFAC
 40
1.0
  9
$DIMTOFL
 70
     0
  9
$DIMTVP
 40
0.0
  9
$DIMTIX
 70
     0
  9
$DIMSOXD
 70
     0
  9
$DIMSAH
 70
     0
  9
$DIMBLK1
  1

  9
$DIMBLK2
  1

  9
$DIMSTYLE
  2
TEAM
  9
$DIMCLRD
 70
     9
  9
$DIMCLRE
 70
     9
  9
$DIMCLRT
 70
    11
  9
$DIMTFAC
 40
1.0
  9
$DIMGAP
 40
7.0
  9
$LUNITS
 70
     2
  9
$LUPREC
 70
     1
  9
$SKETCHINC
 40
1.0
  9
$FILLETRAD
 40
50.0
  9
$AUNITS
 70
     0
  9
$AUPREC
 70
     0
  9
$MENU
  1
ROPLANS
  9
$ELEVATION
 40
0.0
  9
$PELEVATION
 40
0.0
  9
$THICKNESS
 40
0.0
  9
$LIMCHECK
 70
     0
  9
$BLIPMODE
 70
     1
  9
$CHAMFERA
 40
0.0
  9
$CHAMFERB
 40
0.0
  9
$SKPOLY
 70
     0
  9
$TDCREATE
 40
2450392.957851
  9
$TDUPDATE
 40
2456280.422984
  9
$TDINDWG
 40
2.166821
  9
$TDUSRTIMER
 40
2.166821
  9
$USRTIMER
 70
     1
  9
$ANGBASE
 50
0.0
  9
$ANGDIR
 70
     0
  9
$PDMODE
 70
     0
  9
$PDSIZE
 40
0.0
  9
$PLINEWID
 40
0.0
  9
$COORDS
 70
     2
  9
$SPLFRAME
 70
     0
  9
$SPLINETYPE
 70
     6
  9
$SPLINESEGS
 70
     8
  9
$ATTDIA
 70
     0
  9
$ATTREQ
 70
     0
  9
$HANDLING
 70
     1
  9
$HANDSEED
  5
1BE
  9
$SURFTAB1
 70
    24
  9
$SURFTAB2
 70
    24
  9
$SURFTYPE
 70
     6
  9
$SURFU
 70
     6
  9
$SURFV
 70
     6
  9
$UCSNAME
  2

  9
$UCSORG
 10
0.0
 20
0.0
 30
0.0
  9
$UCSXDIR
 10
1.0
 20
0.0
 30
0.0
  9
$UCSYDIR
 10
0.0
 20
1.0
 30
0.0
  9
$PUCSNAME
  2

  9
$PUCSORG
 10
0.0
 20
0.0
 30
0.0
  9
$PUCSXDIR
 10
1.0
 20
0.0
 30
0.0
  9
$PUCSYDIR
 10
0.0
 20
1.0
 30
0.0
  9
$USERI1
 70
     0
  9
$USERI2
 70
     0
  9
$USERI3
 70
     0
  9
$USERI4
 70
     0
  9
$USERI5
 70
     0
  9
$USERR1
 40
0.0
  9
$USERR2
 40
0.0
  9
$USERR3
 40
0.0
  9
$USERR4
 40
0.0
  9
$USERR5
 40
0.0
  9
$WORLDVIEW
 70
     1
  9
$SHADEDGE
 70
     0
  9
$SHADEDIF
 70
    70
  9
$TILEMODE
 70
     1
  9
$MAXACTVP
 70
    16
  9
$PLIMCHECK
 70
     0
  9
$PEXTMIN
 10
-0.805942
 20
0.005011
 30
0.0
  9
$PEXTMAX
 10
20.250094
 20
11.356329
 30
0.0
  9
$PLIMMIN
 10
0.0
 20
0.0
  9
$PLIMMAX
 10
12.0
 20
9.0
  9
$UNITMODE
 70
     0
  9
$VISRETAIN
 70
     0
  9
$PLINEGEN
 70
     0
  9
$PSLTSCALE
 70
     0
  0
ENDSEC
  0
SECTION
  2
TABLES
  0
TABLE
  2
VPORT
 70
     2
  0
VPORT
  2
*ACTIVE
 70
     0
 10
0.0
 20
0.0
 11
1.0
 21
1.0
 12
117.947785
 22
479.726605
 13
0.0
 23
0.0
 14
1.0
 24
1.0
 15
50.0
 25
50.0
 16
0.0
 26
0.0
 36
1.0
 17
0.0
 27
0.0
 37
0.0
 40
985.741048
 41
1.911765
 42
50.0
 43
0.0
 44
0.0
 50
0.0
 51
0.0
 71
     0
 72
   100
 73
     1
 74
     1
 75
     0
 76
     0
 77
     0
 78
     0
  0
ENDTAB
  0
TABLE
  2
LTYPE
 70
     4
  0
LTYPE
  2
CONTINUOUS
 70
     0
  3
Solid Line
 72
    65
 73
     0
 40
0.0
  0
LTYPE
  2
31
 70
     0
  3

 72
    65
 73
     4
 40
2.1
 49
1.5
 49
-0.3
 49
0.0
 49
-0.3
  0
LTYPE
  2
22
 70
     0
  3

 72
    65
 73
     2
 40
1.4
 49
1.2
 49
-0.2
  0
LTYPE
  2
STRICHLINIE
 70
     0
  3
Strichlinie __ __ __ __ __ __ __ __ __ __ __ __
 72
    65
 73
     2
 40
0.75
 49
0.5
 49
-0.25
  0
ENDTAB
  0
TABLE
  2
LAYER
 70
    12
  0
LAYER
  2
0
 70
     0
 62
     7
  6
CONTINUOUS
  0
LAYER
  2
DEFPOINTS
 70
     0
 62
     7
  6
CONTINUOUS
  0
LAYER
  2
TEAM-BODY
 70
     0
 62
     2
  6
CONTINUOUS
  0
LAYER
  2
TEAM-AXE
 70
     0
 62
    10
  6
31
  0
LAYER
  2
TEAM-MAS
 70
     0
 62
     9
  6
CONTINUOUS
  0
LAYER
  2
TEAM-TXT
 70
     0
 62
    11
  6
CONTINUOUS
  0
LAYER
  2
TEAM-COLD
 70
     0
 62
     3
  6
CONTINUOUS
  0
LAYER
  2
TEAM-HIDE
 70
     0
 62
     8
  6
22
  0
LAYER
  2
TEAM-KAN
 70
     0
 62
     6
  6
CONTINUOUS
  0
LAYER
  2
TEAM-WARM
 70
     0
 62
     1
  6
CONTINUOUS
  0
LAYER
  2
TEAM-INSP
 70
     0
 62
     5
  6
CONTINUOUS
  0
LAYER
  2
TEAM-HAUBE
 70
     0
 62
     4
  6
STRICHLINIE
  0
ENDTAB
  0
TABLE
  2
STYLE
 70
     2
  0
STYLE
  2
STANDARD
 70
     0
 40
0.0
 41
1.0
 50
0.0
 71
     0
 42
200.0
  3
txt
  4

  0
STYLE
  2
TEAM
 70
     0
 40
0.0
 41
0.8
 50
15.0
 71
     0
 42
7.0
  3
ROMANS.shx
  4

  0
ENDTAB
  0
TABLE
  2
VIEW
 70
     0
  0
ENDTAB
  0
TABLE
  2
UCS
 70
     0
  0
ENDTAB
  0
TABLE
  2
APPID
 70
     1
  0
APPID
  2
ACAD
 70
     0
  0
ENDTAB
  0
TABLE
  2
DIMSTYLE
 70
     1
  0
DIMSTYLE
  2
TEAM
 70
     0
  3

  4

  5

  6

  7

 40
0.0
 41
20.0
 42
10.0
 43
1.0
 44
1.0
 45
0.0
 46
0.0
 47
0.0
 48
0.0
140
35.0
141
1.0
142
0.0
143
25.4
144
1.0
145
0.0
146
1.0
147
7.0
 71
     0
 72
     0
 73
     0
 74
     0
 75
     0
 76
     0
 77
     0
 78
     0
170
     0
171
     2
172
     0
173
     0
174
     0
175
     0
176
     9
177
     9
178
    11
  0
ENDTAB
  0
ENDSEC
  0
SECTION
  2
BLOCKS
  0
BLOCK
  8
0
  2
$MODEL_SPACE
 70
     0
 10
0.0
 20
0.0
 30
0.0
  3
$MODEL_SPACE
  1

  0
ENDBLK
  5
18B
  8
0
  0
BLOCK
 67
     1
  8
0
  2
$PAPER_SPACE
 70
     0
 10
0.0
 20
0.0
 30
0.0
  3
$PAPER_SPACE
  1

  0
ENDBLK
  5
189
 67
     1
  8
0
  0
BLOCK
  8
0
  2
*D0
 70
     1
 10
0.0
 20
0.0
 30
0.0
  3
*D0
  1

  0
LINE
  5
77
  8
0
  6
BYBLOCK
 62
     9
 10
-139.905863
 20
84814.0
 30
0.0
 11
-139.905863
 21
84910.240199
 31
0.0
  0
LINE
  5
78
  8
0
  6
BYBLOCK
 62
     9
 10
140.094137
 20
84814.0
 30
0.0
 11
140.094137
 21
84910.240199
 31
0.0
  0
LINE
  5
79
  8
0
  6
BYBLOCK
 62
     9
 10
-119.905863
 20
84909.240199
 30
0.0
 11
-50.655863
 21
84909.240199
 31
0.0
  0
LINE
  5
7A
  8
0
  6
BYBLOCK
 62
     9
 10
120.094137
 20
84909.240199
 30
0.0
 11
50.844137
 21
84909.240199
 31
0.0
  0
SOLID
  5
7B
  8
0
  6
BYBLOCK
 62
     9
 10
-119.905863
 20
84912.573532
 30
0.0
 11
-119.905863
 21
84905.906866
 31
0.0
 12
-139.905863
 22
84909.240199
 32
0.0
 13
-139.905863
 23
84909.240199
 33
0.0
  0
SOLID
  5
7C
  8
0
  6
BYBLOCK
 62
     9
 10
120.094137
 20
84912.573532
 30
0.0
 11
120.094137
 21
84905.906866
 31
0.0
 12
140.094137
 22
84909.240199
 32
0.0
 13
140.094137
 23
84909.240199
 33
0.0
  0
TEXT
  5
7D
  8
0
  6
BYBLOCK
 62
    11
 10
-43.655863
 20
84891.740199
 30
0.0
 40
35.0
  1
280
  0
POINT
  5
7E
  8
DEFPOINTS
  6
BYBLOCK
 62
     0
 10
-139.905863
 20
84804.0
 30
10.0
  0
POINT
  5
7F
  8
DEFPOINTS
  6
BYBLOCK
 62
     0
 10
140.094137
 20
84804.0
 30
10.0
  0
POINT
  5
80
  8
DEFPOINTS
  6
BYBLOCK
 62
     0
 10
140.094137
 20
84909.240199
 30
10.0
  0
ENDBLK
  5
82
  8
0
  0
BLOCK
  8
0
  2
*D1
 70
     1
 10
0.0
 20
0.0
 30
0.0
  3
*D1
  1

  0
LINE
  5
69
  8
0
  6
BYBLOCK
 62
     9
 10
10.0
 20
84559.997355
 30
0.0
 11
427.846561
 21
84559.997355
 31
0.0
  0
LINE
  5
6A
  8
0
  6
BYBLOCK
 62
     9
 10
10.0
 20
84000.0
 30
0.0
 11
427.846561
 21
84000.0
 31
0.0
  0
LINE
  5
6B
  8
0
  6
BYBLOCK
 62
     9
 10
426.846561
 20
84539.997355
 30
0.0
 11
426.846561
 21
84330.748678
 31
0.0
  0
LINE
  5
6C
  8
0
  6
BYBLOCK
 62
     9
 10
426.846561
 20
84020.0
 30
0.0
 11
426.846561
 21
84229.248678
 31
0.0
  0
SOLID
  5
6D
  8
0
  6
BYBLOCK
 62
     9
 10
423.513227
 20
84539.997355
 30
0.0
 11
430.179894
 21
84539.997355
 31
0.0
 12
426.846561
 22
84559.997355
 32
0.0
 13
426.846561
 23
84559.997355
 33
0.0
  0
SOLID
  5
6E
  8
0
  6
BYBLOCK
 62
     9
 10
423.513227
 20
84020.0
 30
0.0
 11
430.179894
 21
84020.0
 31
0.0
 12
426.846561
 22
84000.0
 32
0.0
 13
426.846561
 23
84000.0
 33
0.0
  0
TEXT
  5
6F
  8
0
  6
BYBLOCK
 62
    11
 10
444.346561
 20
84236.248678
 30
0.0
 40
35.0
  1
560
 50
90.0
  0
POINT
  5
70
  8
DEFPOINTS
  6
BYBLOCK
 62
     0
 10
0.0
 20
84559.997355
 30
0.0
  0
POINT
  5
71
  8
DEFPOINTS
  6
BYBLOCK
 62
     0
 10
0.0
 20
84000.0
 30
10.0
  0
POINT
  5
72
  8
DEFPOINTS
  6
BYBLOCK
 62
     0
 10
426.846561
 20
84000.0
 30
10.0
  0
ENDBLK
  5
74
  8
0
  0
BLOCK
  8
0
  2
*D2
 70
     1
 10
0.0
 20
0.0
 30
0.0
  3
*D2
  1

  0
LINE
  5
5B
  8
0
  6
BYBLOCK
 62
     9
 10
10.0
 20
84000.0
 30
0.0
 11
474.020836
 21
84000.0
 31
0.0
  0
LINE
  5
5C
  8
0
  6
BYBLOCK
 62
     9
 10
50.0
 20
84609.997355
 30
0.0
 11
474.020836
 21
84609.997355
 31
0.0
  0
LINE
  5
5D
  8
0
  6
BYBLOCK
 62
     9
 10
473.020836
 20
84020.0
 30
0.0
 11
473.020836
 21
84260.082011
 31
0.0
  0
LINE
  5
5E
  8
0
  6
BYBLOCK
 62
     9
 10
473.020836
 20
84589.997355
 30
0.0
 11
473.020836
 21
84349.915344
 31
0.0
  0
SOLID
  5
5F
  8
0
  6
BYBLOCK
 62
     9
 10
469.687502
 20
84020.0
 30
0.0
 11
476.354169
 21
84020.0
 31
0.0
 12
473.020836
 22
84000.0
 32
0.0
 13
473.020836
 23
84000.0
 33
0.0
  0
SOLID
  5
60
  8
0
  6
BYBLOCK
 62
     9
 10
469.687502
 20
84589.997355
 30
0.0
 11
476.354169
 21
84589.997355
 31
0.0
 12
473.020836
 22
84609.997355
 32
0.0
 13
473.020836
 23
84609.997355
 33
0.0
  0
TEXT
  5
61
  8
0
  6
BYBLOCK
 62
    11
 10
490.520836
 20
84267.082011
 30
0.0
 40
35.0
  1
610
 50
90.0
  0
POINT
  5
62
  8
DEFPOINTS
  6
BYBLOCK
 62
     0
 10
0.0
 20
84000.0
 30
10.0
  0
POINT
  5
63
  8
DEFPOINTS
  6
BYBLOCK
 62
     0
 10
40.0
 20
84609.997355
 30
0.0
  0
POINT
  5
64
  8
DEFPOINTS
  6
BYBLOCK
 62
     0
 10
473.020836
 20
84609.997355
 30
10.0
  0
ENDBLK
  5
66
  8
0
  0
BLOCK
  8
0
  2
*D3
 70
     1
 10
0.0
 20
0.0
 30
0.0
  3
*D3
  1

  0
LINE
  5
4D
  8
0
  6
BYBLOCK
 62
     9
 10
302.558741
 20
84849.997355
 30
0.0
 11
383.248117
 21
84849.997355
 31
0.0
  0
LINE
  5
4E
  8
0
  6
BYBLOCK
 62
     9
 10
47.483977
 20
84689.997355
 30
0.0
 11
383.248117
 21
84689.997355
 31
0.0
  0
LINE
  5
4F
  8
0
  6
BYBLOCK
 62
     9
 10
382.248117
 20
84829.997355
 30
0.0
 11
382.248117
 21
84814.914022
 31
0.0
  0
LINE
  5
50
  8
0
  6
BYBLOCK
 62
     9
 10
382.248117
 20
84709.997355
 30
0.0
 11
382.248117
 21
84725.080689
 31
0.0
  0
SOLID
  5
51
  8
0
  6
BYBLOCK
 62
     9
 10
378.914784
 20
84829.997355
 30
0.0
 11
385.581451
 21
84829.997355
 31
0.0
 12
382.248117
 22
84849.997355
 32
0.0
 13
382.248117
 23
84849.997355
 33
0.0
  0
SOLID
  5
52
  8
0
  6
BYBLOCK
 62
     9
 10
378.914784
 20
84709.997355
 30
0.0
 11
385.581451
 21
84709.997355
 31
0.0
 12
382.248117
 22
84689.997355
 32
0.0
 13
382.248117
 23
84689.997355
 33
0.0
  0
TEXT
  5
53
  8
0
  6
BYBLOCK
 62
    11
 10
399.748117
 20
84732.080689
 30
0.0
 40
35.0
  1
160
 50
90.0
  0
POINT
  5
54
  8
DEFPOINTS
  6
BYBLOCK
 62
     0
 10
292.558741
 20
84849.997355
 30
10.0
  0
POINT
  5
55
  8
DEFPOINTS
  6
BYBLOCK
 62
     0
 10
37.483977
 20
84689.997355
 30
0.0
  0
POINT
  5
56
  8
DEFPOINTS
  6
BYBLOCK
 62
     0
 10
382.248117
 20
84689.997355
 30
10.0
  0
ENDBLK
  5
58
  8
0
  0
BLOCK
  8
0
  2
*D4
 70
     1
 10
0.0
 20
0.0
 30
0.0
  3
*D4
  1

  0
LINE
  5
A0
  8
0
  6
BYBLOCK
 62
     9
 10
10.0
 20
84559.997355
 30
0.0
 11
427.846561
 21
84559.997355
 31
0.0
  0
LINE
  5
A1
  8
0
  6
BYBLOCK
 62
     9
 10
304.983977
 20
84849.997355
 30
0.0
 11
427.846561
 21
84849.997355
 31
0.0
  0
LINE
  5
A2
  8
0
  6
BYBLOCK
 62
     9
 10
426.846561
 20
84579.997355
 30
0.0
 11
426.846561
 21
84654.247355
 31
0.0
  0
LINE
  5
A3
  8
0
  6
BYBLOCK
 62
     9
 10
426.846561
 20
84829.997355
 30
0.0
 11
426.846561
 21
84755.747355
 31
0.0
  0
SOLID
  5
A4
  8
0
  6
BYBLOCK
 62
     9
 10
423.513227
 20
84579.997355
 30
0.0
 11
430.179894
 21
84579.997355
 31
0.0
 12
426.846561
 22
84559.997355
 32
0.0
 13
426.846561
 23
84559.997355
 33
0.0
  0
SOLID
  5
A5
  8
0
  6
BYBLOCK
 62
     9
 10
423.513227
 20
84829.997355
 30
0.0
 11
430.179894
 21
84829.997355
 31
0.0
 12
426.846561
 22
84849.997355
 32
0.0
 13
426.846561
 23
84849.997355
 33
0.0
  0
TEXT
  5
A6
  8
0
  6
BYBLOCK
 62
    11
 10
444.346561
 20
84661.247355
 30
0.0
 40
35.0
  1
290
 50
90.0
  0
POINT
  5
A7
  8
DEFPOINTS
  6
BYBLOCK
 62
     0
 10
0.0
 20
84559.997355
 30
0.0
  0
POINT
  5
A8
  8
DEFPOINTS
  6
BYBLOCK
 62
     0
 10
294.983977
 20
84849.997355
 30
0.0
  0
POINT
  5
A9
  8
DEFPOINTS
  6
BYBLOCK
 62
     0
 10
426.846561
 20
84849.997355
 30
0.0
  0
ENDBLK
  5
AB
  8
0
  0
BLOCK
  8
0
  2
*D5
 70
     1
 10
0.0
 20
0.0
 30
0.0
  3
*D5
  1

  0
LINE
  5
92
  8
0
  6
BYBLOCK
 62
     9
 10
50.0
 20
84609.997355
 30
0.0
 11
474.020836
 21
84609.997355
 31
0.0
  0
LINE
  5
93
  8
0
  6
BYBLOCK
 62
     9
 10
304.983977
 20
84849.997355
 30
0.0
 11
474.020836
 21
84849.997355
 31
0.0
  0
LINE
  5
94
  8
0
  6
BYBLOCK
 62
     9
 10
473.020836
 20
84629.997355
 30
0.0
 11
473.020836
 21
84679.247355
 31
0.0
  0
LINE
  5
95
  8
0
  6
BYBLOCK
 62
     9
 10
473.020836
 20
84829.997355
 30
0.0
 11
473.020836
 21
84780.747355
 31
0.0
  0
SOLID
  5
96
  8
0
  6
BYBLOCK
 62
     9
 10
469.687502
 20
84629.997355
 30
0.0
 11
476.354169
 21
84629.997355
 31
0.0
 12
473.020836
 22
84609.997355
 32
0.0
 13
473.020836
 23
84609.997355
 33
0.0
  0
SOLID
  5
97
  8
0
  6
BYBLOCK
 62
     9
 10
469.687502
 20
84829.997355
 30
0.0
 11
476.354169
 21
84829.997355
 31
0.0
 12
473.020836
 22
84849.997355
 32
0.0
 13
473.020836
 23
84849.997355
 33
0.0
  0
TEXT
  5
98
  8
0
  6
BYBLOCK
 62
    11
 10
490.520836
 20
84686.247355
 30
0.0
 40
35.0
  1
240
 50
90.0
  0
POINT
  5
99
  8
DEFPOINTS
  6
BYBLOCK
 62
     0
 10
40.0
 20
84609.997355
 30
0.0
  0
POINT
  5
9A
  8
DEFPOINTS
  6
BYBLOCK
 62
     0
 10
294.983977
 20
84849.997355
 30
0.0
  0
POINT
  5
9B
  8
DEFPOINTS
  6
BYBLOCK
 62
     0
 10
473.020836
 20
84849.997355
 30
0.0
  0
ENDBLK
  5
9D
  8
0
  0
BLOCK
  8
0
  2
*D6
 70
     1
 10
0.0
 20
0.0
 30
0.0
  3
*D6
  1

  0
LINE
  5
3F
  8
0
  6
BYBLOCK
 62
     9
 10
-300.016023
 20
84839.997355
 30
0.0
 11
-300.016023
 21
84952.978911
 31
0.0
  0
LINE
  5
40
  8
0
  6
BYBLOCK
 62
     9
 10
299.983977
 20
84839.997355
 30
0.0
 11
299.983977
 21
84952.978911
 31
0.0
  0
LINE
  5
41
  8
0
  6
BYBLOCK
 62
     9
 10
-280.016023
 20
84951.978911
 30
0.0
 11
-47.849356
 21
84951.978911
 31
0.0
  0
LINE
  5
42
  8
0
  6
BYBLOCK
 62
     9
 10
279.983977
 20
84951.978911
 30
0.0
 11
47.817311
 21
84951.978911
 31
0.0
  0
SOLID
  5
43
  8
0
  6
BYBLOCK
 62
     9
 10
-280.016023
 20
84955.312244
 30
0.0
 11
-280.016023
 21
84948.645578
 31
0.0
 12
-300.016023
 22
84951.978911
 32
0.0
 13
-300.016023
 23
84951.978911
 33
0.0
  0
SOLID
  5
44
  8
0
  6
BYBLOCK
 62
     9
 10
279.983977
 20
84955.312244
 30
0.0
 11
279.983977
 21
84948.645578
 31
0.0
 12
299.983977
 22
84951.978911
 32
0.0
 13
299.983977
 23
84951.978911
 33
0.0
  0
TEXT
  5
45
  8
0
  6
BYBLOCK
 62
    11
 10
-40.849356
 20
84934.478911
 30
0.0
 40
35.0
  1
600
  0
POINT
  5
46
  8
DEFPOINTS
  6
BYBLOCK
 62
     0
 10
-300.016023
 20
84829.997355
 30
0.0
  0
POINT
  5
47
  8
DEFPOINTS
  6
BYBLOCK
 62
     0
 10
299.983977
 20
84829.997355
 30
0.0
  0
POINT
  5
48
  8
DEFPOINTS
  6
BYBLOCK
 62
     0
 10
299.983977
 20
84951.978911
 30
10.0
  0
ENDBLK
  5
4A
  8
0
  0
BLOCK
  8
0
  2
*D7
 70
     1
 10
0.0
 20
0.0
 30
0.0
  3
*D7
  1

  0
LINE
  5
31
  8
0
  6
BYBLOCK
 62
     9
 10
40.0
 20
84599.997355
 30
0.0
 11
40.0
 21
84478.748776
 31
0.0
  0
LINE
  5
32
  8
0
  6
BYBLOCK
 62
     9
 10
-40.0
 20
84599.997355
 30
0.0
 11
-40.0
 21
84478.748776
 31
0.0
  0
LINE
  5
33
  8
0
  6
BYBLOCK
 62
     9
 10
20.0
 20
84479.748776
 30
0.0
 11
13.0
 21
84479.748776
 31
0.0
  0
LINE
  5
34
  8
0
  6
BYBLOCK
 62
     9
 10
-20.0
 20
84479.748776
 30
0.0
 11
-13.0
 21
84479.748776
 31
0.0
  0
TEXT
  5
35
  8
0
  6
BYBLOCK
 62
    11
 10
-26.25
 20
84462.248776
 30
0.0
 40
35.0
  1
80
  0
SOLID
  5
36
  8
0
  6
BYBLOCK
 62
     9
 10
20.0
 20
84483.082109
 30
0.0
 11
20.0
 21
84476.415443
 31
0.0
 12
40.0
 22
84479.748776
 32
0.0
 13
40.0
 23
84479.748776
 33
0.0
  0
SOLID
  5
37
  8
0
  6
BYBLOCK
 62
     9
 10
-20.0
 20
84483.082109
 30
0.0
 11
-20.0
 21
84476.415443
 31
0.0
 12
-40.0
 22
84479.748776
 32
0.0
 13
-40.0
 23
84479.748776
 33
0.0
  0
POINT
  5
38
  8
DEFPOINTS
  6
BYBLOCK
 62
     0
 10
40.0
 20
84609.997355
 30
0.0
  0
POINT
  5
39
  8
DEFPOINTS
  6
BYBLOCK
 62
     0
 10
-40.0
 20
84609.997355
 30
0.0
  0
POINT
  5
3A
  8
DEFPOINTS
  6
BYBLOCK
 62
     0
 10
-40.0
 20
84479.748776
 30
10.0
  0
ENDBLK
  5
3C
  8
0
  0
BLOCK
  8
0
  2
*D8
 70
     1
 10
0.0
 20
0.0
 30
0.0
  3
*D8
  1

  0
LINE
  5
22
  8
0
  6
BYBLOCK
 62
     9
 10
308.521575
 20
84000.0
 30
0.0
 11
520.48259
 21
84000.0
 31
0.0
  0
LINE
  5
23
  8
0
  6
BYBLOCK
 62
     9
 10
304.983977
 20
84849.997355
 30
0.0
 11
520.48259
 21
84849.997355
 31
0.0
  0
LINE
  5
24
  8
0
  6
BYBLOCK
 62
     9
 10
519.48259
 20
84020.0
 30
0.0
 11
519.48259
 21
84374.248678
 31
0.0
  0
LINE
  5
25
  8
0
  6
BYBLOCK
 62
     9
 10
519.48259
 20
84829.997355
 30
0.0
 11
519.48259
 21
84475.748678
 31
0.0
  0
SOLID
  5
26
  8
0
  6
BYBLOCK
 62
     9
 10
516.149257
 20
84020.0
 30
0.0
 11
522.815923
 21
84020.0
 31
0.0
 12
519.48259
 22
84000.0
 32
0.0
 13
519.48259
 23
84000.0
 33
0.0
  0
SOLID
  5
27
  8
0
  6
BYBLOCK
 62
     9
 10
516.149257
 20
84829.997355
 30
0.0
 11
522.815923
 21
84829.997355
 31
0.0
 12
519.48259
 22
84849.997355
 32
0.0
 13
519.48259
 23
84849.997355
 33
0.0
  0
TEXT
  5
28
  8
0
  6
BYBLOCK
 62
    11
 10
536.98259
 20
84381.248678
 30
0.0
 40
35.0
  1
850
 50
90.0
  0
POINT
  5
29
  8
DEFPOINTS
  6
BYBLOCK
 62
     0
 10
298.521575
 20
84000.0
 30
10.0
  0
POINT
  5
2B
  8
DEFPOINTS
  6
BYBLOCK
 62
     0
 10
294.983977
 20
84849.997355
 30
0.0
  0
POINT
  5
2C
  8
DEFPOINTS
  6
BYBLOCK
 62
     0
 10
519.48259
 20
84849.997355
 30
10.0
  0
ENDBLK
  5
2E
  8
0
  0
BLOCK
  8
0
  2
*D9
 70
     1
 10
0.0
 20
0.0
 30
0.0
  3
*D9
  1

  0
LINE
  5
85
  8
0
  6
BYBLOCK
 62
     9
 10
304.983977
 20
84849.997355
 30
0.0
 11
335.189737
 21
84849.997355
 31
0.0
  0
LINE
  5
86
  8
0
  6
BYBLOCK
 62
     9
 10
172.094137
 20
84790.0
 30
0.0
 11
335.189737
 21
84790.0
 31
0.0
  0
LINE
  5
87
  8
0
  6
BYBLOCK
 62
     9
 10
334.189737
 20
84829.997355
 30
0.0
 11
334.189737
 21
84810.0
 31
0.0
  0
TEXT
  5
88
  8
0
  6
BYBLOCK
 62
    11
 10
351.689737
 20
84728.75
 30
0.0
 40
35.0
  1
60
 50
90.0
  0
SOLID
  5
89
  8
0
  6
BYBLOCK
 62
     9
 10
330.856403
 20
84829.997355
 30
0.0
 11
337.52307
 21
84829.997355
 31
0.0
 12
334.189737
 22
84849.997355
 32
0.0
 13
334.189737
 23
84849.997355
 33
0.0
  0
SOLID
  5
8A
  8
0
  6
BYBLOCK
 62
     9
 10
330.856403
 20
84810.0
 30
0.0
 11
337.52307
 21
84810.0
 31
0.0
 12
334.189737
 22
84790.0
 32
0.0
 13
334.189737
 23
84790.0
 33
0.0
  0
POINT
  5
8B
  8
DEFPOINTS
  6
BYBLOCK
 62
     0
 10
294.983977
 20
84849.997355
 30
0.0
  0
POINT
  5
8C
  8
DEFPOINTS
  6
BYBLOCK
 62
     0
 10
162.094137
 20
84790.0
 30
0.0
  0
POINT
  5
8D
  8
DEFPOINTS
  6
BYBLOCK
 62
     0
 10
334.189737
 20
84790.0
 30
0.0
  0
ENDBLK
  5
8F
  8
0
  0
ENDSEC
  0
SECTION
  2
ENTITIES
  0
DIMENSION
  5
20
  8
TEAM-MAS
  2
*D8
 10
519.48259
 20
849.997355
 30
10.0
 11
519.48259
 21
424.998678
 31
0.0
 12
0.0
 22
-84000.0
 32
0.0
 13
298.521575
 23
0.0
 33
10.0
 14
294.983977
 24
849.997355
 34
0.0
 50
90.0
1001
ACAD
1000
DSTYLE
1002
{
1070
    40
1040
1.0
1002
}
  0
DIMENSION
  5
2F
  8
TEAM-MAS
  2
*D7
 10
-40.0
 20
479.748776
 30
10.0
 11
0.0
 21
479.748776
 31
0.0
 12
0.0
 22
-84000.0
 32
0.0
 70
   128
 13
40.0
 23
609.997355
 33
0.0
 14
-40.0
 24
609.997355
 34
0.0
1001
ACAD
1000
DSTYLE
1002
{
1070
    40
1040
1.0
1002
}
  0
DIMENSION
  5
3D
  8
TEAM-MAS
  2
*D6
 10
299.983977
 20
951.978911
 30
10.0
 11
-0.016023
 21
951.978911
 31
0.0
 12
0.0
 22
-84000.0
 32
0.0
 13
-300.016023
 23
829.997355
 33
0.0
 14
299.983977
 24
829.997355
 34
0.0
1001
ACAD
1000
DSTYLE
1002
{
1070
    40
1040
1.0
1002
}
  0
DIMENSION
  5
4B
  8
TEAM-MAS
  2
*D3
 10
382.248117
 20
689.997355
 30
10.0
 11
382.248117
 21
769.997355
 31
0.0
 12
0.0
 22
-84000.0
 32
0.0
 13
292.558741
 23
849.997355
 33
10.0
 14
37.483977
 24
689.997355
 34
0.0
 50
90.0
1001
ACAD
1000
DSTYLE
1002
{
1070
    40
1040
1.0
1002
}
  0
DIMENSION
  5
59
  8
TEAM-MAS
  2
*D2
 10
473.020836
 20
609.997355
 30
10.0
 11
473.020836
 21
304.998678
 31
0.0
 12
0.0
 22
-84000.0
 32
0.0
 13
0.0
 23
0.0
 33
10.0
 14
40.0
 24
609.997355
 34
0.0
 50
90.0
1001
ACAD
1000
DSTYLE
1002
{
1070
    40
1040
1.0
1002
}
  0
DIMENSION
  5
67
  8
TEAM-MAS
  2
*D1
 10
426.846561
 20
0.0
 30
10.0
 11
426.846561
 21
279.998678
 31
0.0
 12
0.0
 22
-84000.0
 32
0.0
 13
0.0
 23
559.997355
 33
0.0
 14
0.0
 24
0.0
 34
10.0
 50
90.0
1001
ACAD
1000
DSTYLE
1002
{
1070
    40
1040
1.0
1002
}
  0
DIMENSION
  5
75
  8
TEAM-MAS
  2
*D0
 10
140.094137
 20
909.240199
 30
10.0
 11
0.094137
 21
909.240199
 31
0.0
 12
0.0
 22
-84000.0
 32
0.0
 13
-139.905863
 23
804.0
 33
10.0
 14
140.094137
 24
804.0
 34
10.0
1001
ACAD
1000
DSTYLE
1002
{
1070
    40
1040
1.0
1002
}
  0
DIMENSION
  5
83
  8
TEAM-MAS
  2
*D9
 10
334.189737
 20
790.0
 30
0.0
 11
334.189737
 21
755.0
 31
0.0
 12
0.0
 22
-84000.0
 32
0.0
 70
   128
 13
294.983977
 23
849.997355
 33
0.0
 14
162.094137
 24
790.0
 34
0.0
 50
90.0
1001
ACAD
1000
DSTYLE
1002
{
1070
    40
1040
1.0
1002
}
  0
DIMENSION
  5
90
  8
TEAM-MAS
  2
*D5
 10
473.020836
 20
849.997355
 30
0.0
 11
473.020836
 21
729.997355
 31
0.0
 12
0.0
 22
-84000.0
 32
0.0
 13
40.0
 23
609.997355
 33
0.0
 14
294.983977
 24
849.997355
 34
0.0
 50
90.0
1001
ACAD
1000
DSTYLE
1002
{
1070
    40
1040
1.0
1002
}
  0
DIMENSION
  5
9E
  8
TEAM-MAS
  2
*D4
 10
426.846561
 20
849.997355
 30
0.0
 11
426.846561
 21
704.997355
 31
0.0
 12
0.0
 22
-84000.0
 32
0.0
 13
0.0
 23
559.997355
 33
0.0
 14
294.983977
 24
849.997355
 34
0.0
 50
90.0
1001
ACAD
1000
DSTYLE
1002
{
1070
    40
1040
1.0
1002
}
  0
LINE
  5
AC
  8
TEAM-AXE
 10
140.094137
 20
775.0
 30
0.0
 11
140.094137
 21
783.0
 31
0.0
  0
LINE
  5
AF
  8
TEAM-AXE
 10
132.094137
 20
790.0
 30
0.0
 11
148.094137
 21
790.0
 31
0.0
  0
POINT
  5
B0
  8
TEAM-AXE
 10
140.094137
 20
784.0
 30
0.0
  0
LINE
  5
B1
  8
TEAM-AXE
 10
140.094137
 20
786.0
 30
0.0
 11
140.094137
 21
795.0
 31
0.0
  0
POINT
  5
B2
  8
TEAM-AXE
 10
130.094137
 20
790.0
 30
0.0
  0
POINT
  5
B3
  8
TEAM-AXE
 10
150.094137
 20
790.0
 30
0.0
  0
LINE
  5
B4
  8
TEAM-AXE
 10
152.094137
 20
790.0
 30
0.0
 11
162.094137
 21
790.0
 31
0.0
  0
LINE
  5
B5
  8
TEAM-AXE
 10
128.094137
 20
790.0
 30
0.0
 11
119.094137
 21
790.0
 31
0.0
  0
LINE
  5
B6
  8
TEAM-AXE
 10
140.094137
 20
804.0
 30
0.0
 11
140.094137
 21
797.0
 31
0.0
  0
POINT
  5
B7
  8
TEAM-AXE
 10
140.094137
 20
796.0
 30
0.0
  0
POLYLINE
  5
B8
  8
TEAM-HIDE
 66
     1
 10
0.0
 20
0.0
 30
0.0
 70
     1
  0
VERTEX
  5
191
  8
TEAM-HIDE
 10
135.094137
 20
780.0
 30
0.0
 42
-0.414214
  0
VERTEX
  5
192
  8
TEAM-HIDE
 10
125.094137
 20
790.0
 30
0.0
 42
-0.414214
  0
VERTEX
  5
193
  8
TEAM-HIDE
 10
135.094137
 20
800.0
 30
0.0
  0
VERTEX
  5
194
  8
TEAM-HIDE
 10
145.094137
 20
800.0
 30
0.0
 42
-0.414214
  0
VERTEX
  5
195
  8
TEAM-HIDE
 10
155.094137
 20
790.0
 30
0.0
 42
-0.414214
  0
VERTEX
  5
196
  8
TEAM-HIDE
 10
145.094137
 20
780.0
 30
0.0
  0
VERTEX
  5
197
  8
TEAM-HIDE
 10
140.094137
 20
780.0
 30
0.0
  0
SEQEND
  5
198
  8
TEAM-HIDE
  0
POINT
  5
BB
  8
TEAM-MAS
 10
60.0
 20
609.997355
 30
0.0
  0
POINT
  5
BC
  8
TEAM-MAS
 10
60.0
 20
609.997355
 30
0.0
  0
POINT
  5
BD
  8
TEAM-MAS
 10
60.0
 20
609.997355
 30
0.0
  0
CIRCLE
  5
BE
  8
TEAM-INSP
 10
0.0
 20
0.0
 30
0.0
 40
10.0
  0
LINE
  5
C0
  8
TEAM-BODY
 10
-37.516023
 20
689.997355
 30
0.0
 11
37.483977
 21
689.997355
 31
0.0
  0
LINE
  5
C2
  8
TEAM-BODY
 10
-37.516023
 20
702.997355
 30
0.0
 11
-37.516023
 21
689.997355
 31
0.0
  0
ARC
  5
C3
  8
TEAM-BODY
 10
-44.516023
 20
702.997355
 30
0.0
 40
7.0
 50
360.0
 51
90.0
  0
LINE
  5
C4
  8
TEAM-BODY
 10
37.483977
 20
702.997355
 30
0.0
 11
37.483977
 21
689.997355
 31
0.0
  0
ARC
  5
C5
  8
TEAM-BODY
 10
44.483977
 20
702.997355
 30
0.0
 40
7.0
 50
90.0
 51
180.0
  0
LINE
  5
C6
  8
TEAM-AXE
 10
-139.905863
 20
775.0
 30
0.0
 11
-139.905863
 21
783.0
 31
0.0
  0
LINE
  5
C7
  8
TEAM-AXE
 10
-151.905863
 20
790.0
 30
0.0
 11
-161.905863
 21
790.0
 31
0.0
  0
LINE
  5
C8
  8
TEAM-AXE
 10
-131.905863
 20
790.0
 30
0.0
 11
-147.905863
 21
790.0
 31
0.0
  0
POINT
  5
C9
  8
TEAM-AXE
 10
-139.905863
 20
784.0
 30
0.0
  0
POINT
  5
CA
  8
TEAM-AXE
 10
-149.905863
 20
790.0
 30
0.0
  0
LINE
  5
CB
  8
TEAM-AXE
 10
-139.905863
 20
786.0
 30
0.0
 11
-139.905863
 21
795.0
 31
0.0
  0
POINT
  5
CC
  8
TEAM-AXE
 10
-129.905863
 20
790.0
 30
0.0
  0
LINE
  5
CD
  8
TEAM-AXE
 10
-127.905863
 20
790.0
 30
0.0
 11
-118.905863
 21
790.0
 31
0.0
  0
LINE
  5
CE
  8
TEAM-AXE
 10
-139.905863
 20
804.0
 30
0.0
 11
-139.905863
 21
797.0
 31
0.0
  0
POINT
  5
CF
  8
TEAM-AXE
 10
-139.905863
 20
796.0
 30
0.0
  0
POLYLINE
  5
D0
  8
TEAM-HIDE
 66
     1
 10
0.0
 20
0.0
 30
0.0
 70
     1
  0
VERTEX
  5
199
  8
TEAM-HIDE
 10
-134.905863
 20
780.0
 30
0.0
 42
0.414214
  0
VERTEX
  5
19A
  8
TEAM-HIDE
 10
-124.905863
 20
790.0
 30
0.0
 42
0.414214
  0
VERTEX
  5
19B
  8
TEAM-HIDE
 10
-134.905863
 20
800.0
 30
0.0
  0
VERTEX
  5
19C
  8
TEAM-HIDE
 10
-144.905863
 20
800.0
 30
0.0
 42
0.414214
  0
VERTEX
  5
19D
  8
TEAM-HIDE
 10
-154.905863
 20
790.0
 30
0.0
 42
0.414214
  0
VERTEX
  5
19E
  8
TEAM-HIDE
 10
-144.905863
 20
780.0
 30
0.0
  0
VERTEX
  5
19F
  8
TEAM-HIDE
 10
-139.905863
 20
780.0
 30
0.0
  0
SEQEND
  5
1A0
  8
TEAM-HIDE
  0
POINT
  5
D1
  8
TEAM-MAS
 10
40.0
 20
589.997355
 30
0.0
  0
POINT
  5
D2
  8
TEAM-MAS
 10
40.0
 20
589.997355
 30
0.0
  0
CIRCLE
  5
D3
  8
TEAM-COLD
 10
40.0
 20
609.997355
 30
0.0
 40
10.0
  0
LINE
  5
D5
  8
TEAM-AXE
 10
40.0
 20
609.997355
 30
0.0
 11
30.0
 21
609.997355
 31
0.0
  0
LINE
  5
D6
  8
TEAM-AXE
 10
40.0
 20
609.997355
 30
0.0
 11
50.0
 21
609.997355
 31
0.0
  0
POINT
  5
D7
  8
TEAM-MAS
 10
40.0
 20
589.997355
 30
0.0
  0
POINT
  5
D8
  8
TEAM-MAS
 10
40.0
 20
589.997355
 30
0.0
  0
POINT
  5
D9
  8
TEAM-MAS
 10
40.0
 20
589.997355
 30
0.0
  0
LINE
  5
DA
  8
TEAM-AXE
 10
40.0
 20
609.997355
 30
0.0
 11
40.0
 21
599.997355
 31
0.0
  0
LINE
  5
DB
  8
TEAM-AXE
 10
40.0
 20
609.997355
 30
0.0
 11
40.0
 21
619.997355
 31
0.0
  0
LINE
  5
DC
  8
TEAM-AXE
 10
-40.0
 20
609.997355
 30
0.0
 11
-50.0
 21
609.997355
 31
0.0
  0
POINT
  5
DD
  8
TEAM-MAS
 10
-40.0
 20
589.997355
 30
0.0
  0
POINT
  5
DE
  8
TEAM-MAS
 10
-40.0
 20
589.997355
 30
0.0
  0
POINT
  5
DF
  8
TEAM-MAS
 10
-40.0
 20
589.997355
 30
0.0
  0
CIRCLE
  5
E0
  8
TEAM-WARM
 10
-40.0
 20
609.997355
 30
0.0
 40
10.0
  0
LINE
  5
E2
  8
TEAM-AXE
 10
-40.0
 20
609.997355
 30
0.0
 11
-40.0
 21
599.997355
 31
0.0
  0
LINE
  5
E3
  8
TEAM-AXE
 10
-40.0
 20
609.997355
 30
0.0
 11
-30.0
 21
609.997355
 31
0.0
  0
LINE
  5
E4
  8
TEAM-AXE
 10
-40.0
 20
609.997355
 30
0.0
 11
-40.0
 21
619.997355
 31
0.0
  0
LINE
  5
E5
  8
TEAM-AXE
 10
0.0
 20
559.997355
 30
0.0
 11
20.0
 21
559.997355
 31
0.0
  0
CIRCLE
  5
E6
  8
TEAM-KAN
 10
0.0
 20
559.997355
 30
0.0
 40
20.0
  0
LINE
  5
E8
  8
TEAM-AXE
 10
0.0
 20
559.997355
 30
0.0
 11
0.0
 21
539.997355
 31
0.0
  0
LINE
  5
E9
  8
TEAM-AXE
 10
0.0
 20
559.997355
 30
0.0
 11
-20.0
 21
559.997355
 31
0.0
  0
LINE
  5
EA
  8
TEAM-AXE
 10
0.0
 20
559.997355
 30
0.0
 11
0.0
 21
579.997355
 31
0.0
  0
LINE
  5
EB
  8
TEAM-AXE
 10
-0.016023
 20
716.169812
 30
0.0
 11
-0.016023
 21
685.758164
 31
0.0
  0
POLYLINE
  5
EC
  8
TEAM-BODY
 66
     1
 10
0.0
 20
0.0
 30
0.0
 70
     1
  0
VERTEX
  5
1A1
  8
TEAM-BODY
 10
281.471301
 20
797.720551
 30
0.0
 42
-0.414214
  0
VERTEX
  5
1A2
  8
TEAM-BODY
 10
294.983977
 20
809.997355
 30
0.0
 42
0.414214
  0
VERTEX
  5
1A3
  8
TEAM-BODY
 10
299.983977
 20
814.997355
 30
0.0
  0
VERTEX
  5
1A4
  8
TEAM-BODY
 10
299.983977
 20
844.997355
 30
0.0
 42
0.414214
  0
VERTEX
  5
1A5
  8
TEAM-BODY
 10
294.983977
 20
849.997355
 30
0.0
 42
-0.414214
  0
VERTEX
  5
1A6
  8
TEAM-BODY
 10
289.983977
 20
854.997355
 30
0.0
  0
VERTEX
  5
1A7
  8
TEAM-BODY
 10
289.983977
 20
877.997355
 30
0.0
 42
0.414214
  0
VERTEX
  5
1A8
  8
TEAM-BODY
 10
282.983977
 20
884.997355
 30
0.0
  0
VERTEX
  5
1A9
  8
TEAM-BODY
 10
-283.016023
 20
884.997355
 30
0.0
 42
0.414214
  0
VERTEX
  5
1AA
  8
TEAM-BODY
 10
-290.016023
 20
877.997355
 30
0.0
  0
VERTEX
  5
1AB
  8
TEAM-BODY
 10
-290.016023
 20
854.997355
 30
0.0
 42
-0.414214
  0
VERTEX
  5
1AC
  8
TEAM-BODY
 10
-295.016023
 20
849.997355
 30
0.0
 42
0.414214
  0
VERTEX
  5
1AD
  8
TEAM-BODY
 10
-300.016023
 20
844.997355
 30
0.0
  0
VERTEX
  5
1AE
  8
TEAM-BODY
 10
-300.016023
 20
814.997355
 30
0.0
 42
0.414214
  0
VERTEX
  5
1AF
  8
TEAM-BODY
 10
-295.016023
 20
809.997355
 30
0.0
 42
-0.414214
  0
VERTEX
  5
1B0
  8
TEAM-BODY
 10
-281.503346
 20
797.720551
 30
0.0
 42
0.175284
  0
VERTEX
  5
1B1
  8
TEAM-BODY
 10
-232.955471
 20
715.115057
 30
0.0
 42
0.216162
  0
VERTEX
  5
1B2
  8
TEAM-BODY
 10
-221.670961
 20
709.997355
 30
0.0
  0
VERTEX
  5
1B3
  8
TEAM-BODY
 10
221.638916
 20
709.997355
 30
0.0
 42
0.216162
  0
VERTEX
  5
1B4
  8
TEAM-BODY
 10
232.923426
 20
715.115057
 30
0.0
 42
0.175284
  0
SEQEND
  5
1B5
  8
TEAM-BODY
  0
LINE
  5
ED
  8
TEAM-BODY
 10
-295.016023
 20
849.997355
 30
0.0
 11
294.983977
 21
849.997355
 31
0.0
  0
LINE
  5
EE
  8
TEAM-BODY
 10
-295.016023
 20
809.997355
 30
0.0
 11
294.983977
 21
809.997355
 31
0.0
  0
TEXT
  5
EF
  8
TEAM-TXT
 10
-127.834796
 20
732.220126
 30
0.0
 40
30.0
  1
team 212215
 41
0.8
 51
15.0
  7
TEAM
  0
POLYLINE
  5
F2
  8
TEAM-HAUBE
 66
     1
 10
0.0
 20
0.0
 30
0.0
 70
     1
  0
VERTEX
  5
1B6
  8
TEAM-HAUBE
 10
79.983977
 20
709.997355
 30
0.0
  0
VERTEX
  5
1B7
  8
TEAM-HAUBE
 10
-80.016023
 20
709.997355
 30
0.0
  0
VERTEX
  5
1B8
  8
TEAM-HAUBE
 10
-80.0
 20
7.0
 30
0.0
 42
0.414214
  0
VERTEX
  5
1B9
  8
TEAM-HAUBE
 10
-73.0
 20
0.0
 30
0.0
  0
VERTEX
  5
1BA
  8
TEAM-HAUBE
 10
73.0
 20
0.0
 30
0.0
 42
0.414214
  0
VERTEX
  5
1BB
  8
TEAM-HAUBE
 10
80.0
 20
7.0
 30
0.0
  0
SEQEND
  5
1BC
  8
TEAM-HAUBE
  0
ENDSEC
  0
EOF
