  0
SECTION
  2
HEADER
  9
$ACADVER
  1
AC1009
  9
$INSBASE
 10
0.0
 20
0.0
 30
0.0
  9
$EXTMIN
 10
-374.53277
 20
-335.124712
 30
-0.000008
  9
$EXTMAX
 10
278.998207
 20
48.854975
 30
0.000001
  9
$LIMMIN
 10
-374.53277
 20
-335.124712
  9
$LIMMAX
 10
278.998207
 20
48.854975
  9
$ORTHOMODE
 70
     1
  9
$REGENMODE
 70
     1
  9
$FILLMODE
 70
     1
  9
$QTEXTMODE
 70
     0
  9
$MIRRTEXT
 70
     0
  9
$DRAGMODE
 70
     2
  9
$LTSCALE
 40
50.0
  9
$OSMODE
 70
     0
  9
$ATTMODE
 70
     1
  9
$TEXTSIZE
 40
200.0
  9
$TRACEWID
 40
1.0
  9
$TEXTSTYLE
  7
STANDARD
  9
$CLAYER
  8
TEAM-MAS
  9
$CELTYPE
  6
BYLAYER
  9
$CECOLOR
 62
   256
  9
$DIMSCALE
 40
0.0
  9
$DIMASZ
 40
20.0
  9
$DIMEXO
 40
10.0
  9
$DIMDLI
 40
1.0
  9
$DIMRND
 40
0.0
  9
$DIMDLE
 40
0.0
  9
$DIMEXE
 40
1.0
  9
$DIMTP
 40
0.0
  9
$DIMTM
 40
0.0
  9
$DIMTXT
 40
35.0
  9
$DIMCEN
 40
1.0
  9
$DIMTSZ
 40
0.0
  9
$DIMTOL
 70
     0
  9
$DIMLIM
 70
     0
  9
$DIMTIH
 70
     0
  9
$DIMTOH
 70
     0
  9
$DIMSE1
 70
     0
  9
$DIMSE2
 70
     0
  9
$DIMTAD
 70
     0
  9
$DIMZIN
 70
     0
  9
$DIMBLK
  1

  9
$DIMASO
 70
     1
  9
$DIMSHO
 70
     0
  9
$DIMPOST
  1

  9
$DIMAPOST
  1

  9
$DIMALT
 70
     0
  9
$DIMALTD
 70
     2
  9
$DIMALTF
 40
25.4
  9
$DIMLFAC
 40
1.0
  9
$DIMTOFL
 70
     0
  9
$DIMTVP
 40
0.0
  9
$DIMTIX
 70
     0
  9
$DIMSOXD
 70
     0
  9
$DIMSAH
 70
     0
  9
$DIMBLK1
  1

  9
$DIMBLK2
  1

  9
$DIMSTYLE
  2
TEAM
  9
$DIMCLRD
 70
     9
  9
$DIMCLRE
 70
     9
  9
$DIMCLRT
 70
    11
  9
$DIMTFAC
 40
1.0
  9
$DIMGAP
 40
7.0
  9
$LUNITS
 70
     2
  9
$LUPREC
 70
     1
  9
$SKETCHINC
 40
1.0
  9
$FILLETRAD
 40
50.0
  9
$AUNITS
 70
     0
  9
$AUPREC
 70
     0
  9
$MENU
  1
ROPLANS
  9
$ELEVATION
 40
0.0
  9
$PELEVATION
 40
0.0
  9
$THICKNESS
 40
0.0
  9
$LIMCHECK
 70
     0
  9
$BLIPMODE
 70
     1
  9
$CHAMFERA
 40
0.0
  9
$CHAMFERB
 40
0.0
  9
$SKPOLY
 70
     0
  9
$TDCREATE
 40
2450392.957851
  9
$TDUPDATE
 40
2456190.73555
  9
$TDINDWG
 40
2.153799
  9
$TDUSRTIMER
 40
2.153799
  9
$USRTIMER
 70
     1
  9
$ANGBASE
 50
0.0
  9
$ANGDIR
 70
     0
  9
$PDMODE
 70
     0
  9
$PDSIZE
 40
0.0
  9
$PLINEWID
 40
0.0
  9
$COORDS
 70
     2
  9
$SPLFRAME
 70
     0
  9
$SPLINETYPE
 70
     6
  9
$SPLINESEGS
 70
     8
  9
$ATTDIA
 70
     0
  9
$ATTREQ
 70
     0
  9
$HANDLING
 70
     1
  9
$HANDSEED
  5
F0
  9
$SURFTAB1
 70
    36
  9
$SURFTAB2
 70
    36
  9
$SURFTYPE
 70
     6
  9
$SURFU
 70
     6
  9
$SURFV
 70
     6
  9
$UCSNAME
  2

  9
$UCSORG
 10
0.0
 20
0.0
 30
0.0
  9
$UCSXDIR
 10
1.0
 20
0.0
 30
0.0
  9
$UCSYDIR
 10
0.0
 20
1.0
 30
0.0
  9
$PUCSNAME
  2

  9
$PUCSORG
 10
0.0
 20
0.0
 30
0.0
  9
$PUCSXDIR
 10
1.0
 20
0.0
 30
0.0
  9
$PUCSYDIR
 10
0.0
 20
1.0
 30
0.0
  9
$USERI1
 70
     0
  9
$USERI2
 70
     0
  9
$USERI3
 70
     0
  9
$USERI4
 70
     0
  9
$USERI5
 70
     0
  9
$USERR1
 40
0.0
  9
$USERR2
 40
0.0
  9
$USERR3
 40
0.0
  9
$USERR4
 40
0.0
  9
$USERR5
 40
0.0
  9
$WORLDVIEW
 70
     1
  9
$SHADEDGE
 70
     0
  9
$SHADEDIF
 70
    70
  9
$TILEMODE
 70
     1
  9
$MAXACTVP
 70
    16
  9
$PLIMCHECK
 70
     0
  9
$PEXTMIN
 10
-0.805942
 20
0.005011
 30
0.0
  9
$PEXTMAX
 10
20.250094
 20
11.356329
 30
0.0
  9
$PLIMMIN
 10
0.0
 20
0.0
  9
$PLIMMAX
 10
12.0
 20
9.0
  9
$UNITMODE
 70
     0
  9
$VISRETAIN
 70
     0
  9
$PLINEGEN
 70
     0
  9
$PSLTSCALE
 70
     0
  0
ENDSEC
  0
SECTION
  2
TABLES
  0
TABLE
  2
VPORT
 70
     2
  0
VPORT
  2
*ACTIVE
 70
     0
 10
0.0
 20
0.0
 11
1.0
 21
1.0
 12
-47.767282
 22
-143.134869
 13
0.0
 23
0.0
 14
1.0
 24
1.0
 15
50.0
 25
50.0
 16
0.0
 26
0.0
 36
1.0
 17
0.0
 27
0.0
 37
0.0
 40
386.397188
 41
1.911765
 42
50.0
 43
0.0
 44
0.0
 50
0.0
 51
0.0
 71
     0
 72
   100
 73
     1
 74
     1
 75
     0
 76
     0
 77
     0
 78
     0
  0
ENDTAB
  0
TABLE
  2
LTYPE
 70
     2
  0
LTYPE
  2
CONTINUOUS
 70
     0
  3
Solid Line
 72
    65
 73
     0
 40
0.0
  0
LTYPE
  2
31
 70
     0
  3

 72
    65
 73
     4
 40
2.1
 49
1.5
 49
-0.3
 49
0.0
 49
-0.3
  0
ENDTAB
  0
TABLE
  2
LAYER
 70
     9
  0
LAYER
  2
0
 70
     0
 62
     7
  6
CONTINUOUS
  0
LAYER
  2
DEFPOINTS
 70
     0
 62
     7
  6
CONTINUOUS
  0
LAYER
  2
TEAM-BODY
 70
     0
 62
     2
  6
CONTINUOUS
  0
LAYER
  2
TEAM-AXE
 70
     0
 62
    10
  6
31
  0
LAYER
  2
TEAM-MAS
 70
     0
 62
     9
  6
CONTINUOUS
  0
LAYER
  2
TEAM-TXT
 70
     0
 62
    11
  6
CONTINUOUS
  0
LAYER
  2
TEAM-DET1
 70
     0
 62
     4
  6
CONTINUOUS
  0
LAYER
  2
TEAM-KAN
 70
     0
 62
     6
  6
CONTINUOUS
  0
LAYER
  2
TEAM-INSP
 70
     0
 62
     5
  6
CONTINUOUS
  0
ENDTAB
  0
TABLE
  2
STYLE
 70
     2
  0
STYLE
  2
STANDARD
 70
     0
 40
0.0
 41
1.0
 50
0.0
 71
     0
 42
200.0
  3
txt
  4

  0
STYLE
  2
TEAM
 70
     0
 40
0.0
 41
0.8
 50
15.0
 71
     0
 42
7.0
  3
ROMANS.shx
  4

  0
ENDTAB
  0
TABLE
  2
VIEW
 70
     0
  0
ENDTAB
  0
TABLE
  2
UCS
 70
     0
  0
ENDTAB
  0
TABLE
  2
APPID
 70
     1
  0
APPID
  2
ACAD
 70
     0
  0
ENDTAB
  0
TABLE
  2
DIMSTYLE
 70
     1
  0
DIMSTYLE
  2
TEAM
 70
     0
  3

  4

  5

  6

  7

 40
0.0
 41
20.0
 42
10.0
 43
1.0
 44
1.0
 45
0.0
 46
0.0
 47
0.0
 48
0.0
140
35.0
141
1.0
142
0.0
143
25.4
144
1.0
145
0.0
146
1.0
147
7.0
 71
     0
 72
     0
 73
     0
 74
     0
 75
     0
 76
     0
 77
     0
 78
     0
170
     0
171
     2
172
     0
173
     0
174
     0
175
     0
176
     9
177
     9
178
    11
  0
ENDTAB
  0
ENDSEC
  0
SECTION
  2
BLOCKS
  0
BLOCK
  8
0
  2
$MODEL_SPACE
 70
     0
 10
0.0
 20
0.0
 30
0.0
  3
$MODEL_SPACE
  1

  0
ENDBLK
  5
E4
  8
0
  0
BLOCK
 67
     1
  8
0
  2
$PAPER_SPACE
 70
     0
 10
0.0
 20
0.0
 30
0.0
  3
$PAPER_SPACE
  1

  0
ENDBLK
  5
E2
 67
     1
  8
0
  0
BLOCK
  8
0
  2
*D0
 70
     1
 10
0.0
 20
0.0
 30
0.0
  3
*D0
  1

  0
LINE
  5
22
  8
0
  6
BYBLOCK
 62
     9
 10
7765.0
 20
55764.0
 30
0.0
 11
7641.976153
 21
55764.0
 31
0.0
  0
LINE
  5
23
  8
0
  6
BYBLOCK
 62
     9
 10
7990.0
 20
56000.0
 30
0.0
 11
7641.976153
 21
56000.0
 31
0.0
  0
LINE
  5
24
  8
0
  6
BYBLOCK
 62
     9
 10
7642.976153
 20
55784.0
 30
0.0
 11
7642.976153
 21
55828.333333
 31
0.0
  0
LINE
  5
25
  8
0
  6
BYBLOCK
 62
     9
 10
7642.976153
 20
55980.0
 30
0.0
 11
7642.976153
 21
55935.666667
 31
0.0
  0
SOLID
  5
26
  8
0
  6
BYBLOCK
 62
     9
 10
7639.64282
 20
55784.0
 30
0.0
 11
7646.309486
 21
55784.0
 31
0.0
 12
7642.976153
 22
55764.0
 32
0.0
 13
7642.976153
 23
55764.0
 33
0.0
  0
SOLID
  5
27
  8
0
  6
BYBLOCK
 62
     9
 10
7639.64282
 20
55980.0
 30
0.0
 11
7646.309486
 21
55980.0
 31
0.0
 12
7642.976153
 22
56000.0
 32
0.0
 13
7642.976153
 23
56000.0
 33
0.0
  0
TEXT
  5
28
  8
0
  6
BYBLOCK
 62
    11
 10
7660.476153
 20
55835.333333
 30
0.0
 40
35.0
  1
236
 50
90.0
  0
POINT
  5
29
  8
DEFPOINTS
  6
BYBLOCK
 62
     0
 10
7775.0
 20
55764.0
 30
0.0
  0
POINT
  5
2B
  8
DEFPOINTS
  6
BYBLOCK
 62
     0
 10
8000.0
 20
56000.0
 30
0.0
  0
POINT
  5
2C
  8
DEFPOINTS
  6
BYBLOCK
 62
     0
 10
7642.976153
 20
56000.0
 30
0.0
  0
ENDBLK
  5
2E
  8
0
  0
BLOCK
  8
0
  2
*D1
 70
     1
 10
0.0
 20
0.0
 30
0.0
  3
*D1
  1

  0
LINE
  5
31
  8
0
  6
BYBLOCK
 62
     9
 10
7765.0
 20
56000.0
 30
0.0
 11
7733.304951
 21
56000.0
 31
0.0
  0
LINE
  5
32
  8
0
  6
BYBLOCK
 62
     9
 10
7995.5
 20
55882.0
 30
0.0
 11
7733.304951
 21
55882.0
 31
0.0
  0
LINE
  5
33
  8
0
  6
BYBLOCK
 62
     9
 10
7734.304951
 20
56020.0
 30
0.0
 11
7734.304951
 21
56040.0
 31
0.0
  0
LINE
  5
34
  8
0
  6
BYBLOCK
 62
     9
 10
7734.304951
 20
55862.0
 30
0.0
 11
7734.304951
 21
55842.0
 31
0.0
  0
SOLID
  5
35
  8
0
  6
BYBLOCK
 62
     9
 10
7730.971618
 20
56020.0
 30
0.0
 11
7737.638284
 21
56020.0
 31
0.0
 12
7734.304951
 22
56000.0
 32
0.0
 13
7734.304951
 23
56000.0
 33
0.0
  0
SOLID
  5
36
  8
0
  6
BYBLOCK
 62
     9
 10
7730.971618
 20
55862.0
 30
0.0
 11
7737.638284
 21
55862.0
 31
0.0
 12
7734.304951
 22
55882.0
 32
0.0
 13
7734.304951
 23
55882.0
 33
0.0
  0
TEXT
  5
37
  8
0
  6
BYBLOCK
 62
    11
 10
7751.804951
 20
55906.0
 30
0.0
 40
35.0
  1
118
 50
90.0
  0
POINT
  5
38
  8
DEFPOINTS
  6
BYBLOCK
 62
     0
 10
7775.0
 20
56000.0
 30
0.0
  0
POINT
  5
39
  8
DEFPOINTS
  6
BYBLOCK
 62
     0
 10
8005.5
 20
55882.0
 30
0.0
  0
POINT
  5
3A
  8
DEFPOINTS
  6
BYBLOCK
 62
     0
 10
7734.304951
 20
55882.0
 30
0.0
  0
ENDBLK
  5
3C
  8
0
  0
BLOCK
  8
0
  2
*D2
 70
     1
 10
0.0
 20
0.0
 30
0.0
  3
*D2
  1

  0
LINE
  5
3F
  8
0
  6
BYBLOCK
 62
     9
 10
7775.0
 20
56010.0
 30
0.0
 11
7775.0
 21
56032.353937
 31
0.0
  0
LINE
  5
40
  8
0
  6
BYBLOCK
 62
     9
 10
7865.0
 20
55977.424474
 30
0.0
 11
7865.0
 21
56032.353937
 31
0.0
  0
LINE
  5
41
  8
0
  6
BYBLOCK
 62
     9
 10
7755.0
 20
56031.353937
 30
0.0
 11
7735.0
 21
56031.353937
 31
0.0
  0
LINE
  5
42
  8
0
  6
BYBLOCK
 62
     9
 10
7885.0
 20
56031.353937
 30
0.0
 11
7905.0
 21
56031.353937
 31
0.0
  0
SOLID
  5
43
  8
0
  6
BYBLOCK
 62
     9
 10
7755.0
 20
56034.687271
 30
0.0
 11
7755.0
 21
56028.020604
 31
0.0
 12
7775.0
 22
56031.353937
 32
0.0
 13
7775.0
 23
56031.353937
 33
0.0
  0
SOLID
  5
44
  8
0
  6
BYBLOCK
 62
     9
 10
7885.0
 20
56034.687271
 30
0.0
 11
7885.0
 21
56028.020604
 31
0.0
 12
7865.0
 22
56031.353937
 32
0.0
 13
7865.0
 23
56031.353937
 33
0.0
  0
TEXT
  5
45
  8
0
  6
BYBLOCK
 62
    11
 10
7793.75
 20
56013.853937
 30
0.0
 40
35.0
  1
90
  0
POINT
  5
46
  8
DEFPOINTS
  6
BYBLOCK
 62
     0
 10
7775.0
 20
56000.0
 30
0.0
  0
POINT
  5
47
  8
DEFPOINTS
  6
BYBLOCK
 62
     0
 10
7865.0
 20
55967.424474
 30
0.0
  0
POINT
  5
48
  8
DEFPOINTS
  6
BYBLOCK
 62
     0
 10
7865.0
 20
56031.353937
 30
0.0
  0
ENDBLK
  5
4A
  8
0
  0
BLOCK
  8
0
  2
*D3
 70
     1
 10
0.0
 20
0.0
 30
0.0
  3
*D3
  1

  0
LINE
  5
4D
  8
0
  6
BYBLOCK
 62
     9
 10
7899.27903
 20
55983.824111
 30
0.0
 11
7917.320625
 21
55992.455499
 31
0.0
  0
TEXT
  5
4E
  8
0
  6
BYBLOCK
 62
    11
 10
7780.79906
 20
55874.760914
 30
0.0
 40
35.0
  1
%%c36
 50
25.567198
  0
SOLID
  5
4F
  8
0
  6
BYBLOCK
 62
     9
 10
7829.282405
 20
55954.03177
 30
0.0
 11
7832.159534
 21
55948.017905
 31
0.0
 12
7848.762565
 22
55959.656225
 32
0.0
 13
7848.762565
 23
55959.656225
 33
0.0
  0
SOLID
  5
50
  8
0
  6
BYBLOCK
 62
     9
 10
7897.840466
 20
55986.831043
 30
0.0
 11
7900.717595
 21
55980.817178
 31
0.0
 12
7881.237435
 22
55975.192723
 32
0.0
 13
7881.237435
 23
55975.192723
 33
0.0
  0
LINE
  5
51
  8
0
  6
BYBLOCK
 62
     9
 10
7864.0
 20
55967.424474
 30
0.0
 11
7866.0
 21
55967.424474
 31
0.0
  0
LINE
  5
52
  8
0
  6
BYBLOCK
 62
     9
 10
7865.0
 20
55966.424474
 30
0.0
 11
7865.0
 21
55968.424474
 31
0.0
  0
POINT
  5
53
  8
DEFPOINTS
  6
BYBLOCK
 62
     0
 10
7881.237435
 20
55975.192723
 30
0.0
  0
POINT
  5
54
  8
DEFPOINTS
  6
BYBLOCK
 62
     0
 10
7848.762565
 20
55959.656225
 30
0.0
  0
ENDBLK
  5
56
  8
0
  0
BLOCK
  8
0
  2
*D4
 70
     1
 10
0.0
 20
0.0
 30
0.0
  3
*D4
  1

  0
LINE
  5
59
  8
0
  6
BYBLOCK
 62
     9
 10
8225.0
 20
55754.0
 30
0.0
 11
8225.0
 21
55681.376107
 31
0.0
  0
LINE
  5
5A
  8
0
  6
BYBLOCK
 62
     9
 10
7775.0
 20
55754.0
 30
0.0
 11
7775.0
 21
55681.376107
 31
0.0
  0
LINE
  5
5B
  8
0
  6
BYBLOCK
 62
     9
 10
8205.0
 20
55682.376107
 30
0.0
 11
8050.75
 21
55682.376107
 31
0.0
  0
LINE
  5
5C
  8
0
  6
BYBLOCK
 62
     9
 10
7795.0
 20
55682.376107
 30
0.0
 11
7949.25
 21
55682.376107
 31
0.0
  0
SOLID
  5
5D
  8
0
  6
BYBLOCK
 62
     9
 10
8205.0
 20
55685.70944
 30
0.0
 11
8205.0
 21
55679.042773
 31
0.0
 12
8225.0
 22
55682.376107
 32
0.0
 13
8225.0
 23
55682.376107
 33
0.0
  0
SOLID
  5
5E
  8
0
  6
BYBLOCK
 62
     9
 10
7795.0
 20
55685.70944
 30
0.0
 11
7795.0
 21
55679.042773
 31
0.0
 12
7775.0
 22
55682.376107
 32
0.0
 13
7775.0
 23
55682.376107
 33
0.0
  0
TEXT
  5
5F
  8
0
  6
BYBLOCK
 62
    11
 10
7956.25
 20
55664.876107
 30
0.0
 40
35.0
  1
450
  0
POINT
  5
60
  8
DEFPOINTS
  6
BYBLOCK
 62
     0
 10
8225.0
 20
55764.0
 30
0.0
  0
POINT
  5
61
  8
DEFPOINTS
  6
BYBLOCK
 62
     0
 10
7775.0
 20
55764.0
 30
0.0
  0
POINT
  5
62
  8
DEFPOINTS
  6
BYBLOCK
 62
     0
 10
7775.0
 20
55682.376107
 30
0.0
  0
ENDBLK
  5
64
  8
0
  0
BLOCK
  8
0
  2
*D5
 70
     1
 10
0.0
 20
0.0
 30
0.0
  3
*D5
  1

  0
LINE
  5
67
  8
0
  6
BYBLOCK
 62
     9
 10
8204.855276
 20
55872.0
 30
0.0
 11
8204.855276
 21
55725.091283
 31
0.0
  0
LINE
  5
68
  8
0
  6
BYBLOCK
 62
     9
 10
7889.855276
 20
55872.0
 30
0.0
 11
7889.855276
 21
55725.091283
 31
0.0
  0
LINE
  5
69
  8
0
  6
BYBLOCK
 62
     9
 10
8184.855276
 20
55726.091283
 30
0.0
 11
8095.188609
 21
55726.091283
 31
0.0
  0
LINE
  5
6A
  8
0
  6
BYBLOCK
 62
     9
 10
7909.855276
 20
55726.091283
 30
0.0
 11
7999.521943
 21
55726.091283
 31
0.0
  0
SOLID
  5
6B
  8
0
  6
BYBLOCK
 62
     9
 10
8184.855276
 20
55729.424617
 30
0.0
 11
8184.855276
 21
55722.75795
 31
0.0
 12
8204.855276
 22
55726.091283
 32
0.0
 13
8204.855276
 23
55726.091283
 33
0.0
  0
SOLID
  5
6C
  8
0
  6
BYBLOCK
 62
     9
 10
7909.855276
 20
55729.424617
 30
0.0
 11
7909.855276
 21
55722.75795
 31
0.0
 12
7889.855276
 22
55726.091283
 32
0.0
 13
7889.855276
 23
55726.091283
 33
0.0
  0
TEXT
  5
6D
  8
0
  6
BYBLOCK
 62
    11
 10
8006.521943
 20
55708.591283
 30
0.0
 40
35.0
  1
315
  0
POINT
  5
6E
  8
DEFPOINTS
  6
BYBLOCK
 62
     0
 10
8204.855276
 20
55882.0
 30
0.0
  0
POINT
  5
6F
  8
DEFPOINTS
  6
BYBLOCK
 62
     0
 10
7889.855276
 20
55882.0
 30
0.0
  0
POINT
  5
70
  8
DEFPOINTS
  6
BYBLOCK
 62
     0
 10
7889.855276
 20
55726.091283
 30
0.0
  0
ENDBLK
  5
72
  8
0
  0
BLOCK
  8
0
  2
*D6
 70
     1
 10
0.0
 20
0.0
 30
0.0
  3
*D6
  1

  0
LINE
  5
75
  8
0
  6
BYBLOCK
 62
     9
 10
8225.0
 20
56010.0
 30
0.0
 11
8225.0
 21
56032.353937
 31
0.0
  0
LINE
  5
76
  8
0
  6
BYBLOCK
 62
     9
 10
8040.6
 20
55927.0
 30
0.0
 11
8040.6
 21
56032.353937
 31
0.0
  0
LINE
  5
77
  8
0
  6
BYBLOCK
 62
     9
 10
8245.0
 20
56031.353937
 30
0.0
 11
8265.0
 21
56031.353937
 31
0.0
  0
LINE
  5
78
  8
0
  6
BYBLOCK
 62
     9
 10
8020.6
 20
56031.353937
 30
0.0
 11
8000.6
 21
56031.353937
 31
0.0
  0
SOLID
  5
79
  8
0
  6
BYBLOCK
 62
     9
 10
8245.0
 20
56034.687271
 30
0.0
 11
8245.0
 21
56028.020604
 31
0.0
 12
8225.0
 22
56031.353937
 32
0.0
 13
8225.0
 23
56031.353937
 33
0.0
  0
SOLID
  5
7A
  8
0
  6
BYBLOCK
 62
     9
 10
8020.6
 20
56034.687271
 30
0.0
 11
8020.6
 21
56028.020604
 31
0.0
 12
8040.6
 22
56031.353937
 32
0.0
 13
8040.6
 23
56031.353937
 33
0.0
  0
TEXT
  5
7B
  8
0
  6
BYBLOCK
 62
    11
 10
8068.633333
 20
56013.853937
 30
0.0
 40
35.0
  1
184.5
  0
POINT
  5
7C
  8
DEFPOINTS
  6
BYBLOCK
 62
     0
 10
8225.0
 20
56000.0
 30
0.0
  0
POINT
  5
7D
  8
DEFPOINTS
  6
BYBLOCK
 62
     0
 10
8040.6
 20
55917.0
 30
0.0
  0
POINT
  5
7E
  8
DEFPOINTS
  6
BYBLOCK
 62
     0
 10
8040.6
 20
56031.353937
 30
0.0
  0
ENDBLK
  5
80
  8
0
  0
BLOCK
  8
0
  2
*D7
 70
     1
 10
0.0
 20
0.0
 30
0.0
  3
*D7
  1

  0
LINE
  5
83
  8
0
  6
BYBLOCK
 62
     9
 10
8124.855276
 20
55792.0
 30
0.0
 11
8262.474448
 21
55792.0
 31
0.0
  0
LINE
  5
84
  8
0
  6
BYBLOCK
 62
     9
 10
8124.855276
 20
55972.0
 30
0.0
 11
8262.474448
 21
55972.0
 31
0.0
  0
LINE
  5
85
  8
0
  6
BYBLOCK
 62
     9
 10
8261.474448
 20
55812.0
 30
0.0
 11
8261.474448
 21
55837.083333
 31
0.0
  0
LINE
  5
86
  8
0
  6
BYBLOCK
 62
     9
 10
8261.474448
 20
55952.0
 30
0.0
 11
8261.474448
 21
55926.916667
 31
0.0
  0
SOLID
  5
87
  8
0
  6
BYBLOCK
 62
     9
 10
8258.141114
 20
55812.0
 30
0.0
 11
8264.807781
 21
55812.0
 31
0.0
 12
8261.474448
 22
55792.0
 32
0.0
 13
8261.474448
 23
55792.0
 33
0.0
  0
SOLID
  5
88
  8
0
  6
BYBLOCK
 62
     9
 10
8258.141114
 20
55952.0
 30
0.0
 11
8264.807781
 21
55952.0
 31
0.0
 12
8261.474448
 22
55972.0
 32
0.0
 13
8261.474448
 23
55972.0
 33
0.0
  0
TEXT
  5
89
  8
0
  6
BYBLOCK
 62
    11
 10
8278.974448
 20
55844.083333
 30
0.0
 40
35.0
  1
180
 50
90.0
  0
POINT
  5
8A
  8
DEFPOINTS
  6
BYBLOCK
 62
     0
 10
8114.855276
 20
55792.0
 30
0.0
  0
POINT
  5
8B
  8
DEFPOINTS
  6
BYBLOCK
 62
     0
 10
8114.855276
 20
55972.0
 30
0.0
  0
POINT
  5
8C
  8
DEFPOINTS
  6
BYBLOCK
 62
     0
 10
8261.474448
 20
55972.0
 30
0.0
  0
ENDBLK
  5
8E
  8
0
  0
ENDSEC
  0
SECTION
  2
ENTITIES
  0
DIMENSION
  5
20
  8
TEAM-MAS
  2
*D0
 10
-357.023847
 20
0.0
 30
0.0
 11
-357.023847
 21
-118.0
 31
0.0
 12
-8000.0
 22
-56000.0
 32
0.0
 13
-225.0
 23
-236.0
 33
0.0
 14
0.0
 24
0.0
 34
0.0
 50
270.0
1001
ACAD
1000
DSTYLE
1002
{
1070
    40
1040
1.0
1002
}
  0
DIMENSION
  5
2F
  8
TEAM-MAS
  2
*D1
 10
-265.695049
 20
-118.0
 30
0.0
 11
-265.695049
 21
-59.0
 31
0.0
 12
-8000.0
 22
-56000.0
 32
0.0
 13
-225.0
 23
0.0
 33
0.0
 14
5.5
 24
-118.0
 34
0.0
 50
270.0
1001
ACAD
1000
DSTYLE
1002
{
1070
    40
1040
1.0
1002
}
  0
DIMENSION
  5
3D
  8
TEAM-MAS
  2
*D2
 10
-135.0
 20
31.353937
 30
0.0
 11
-180.0
 21
31.353937
 31
0.0
 12
-8000.0
 22
-56000.0
 32
0.0
 13
-225.0
 23
0.0
 33
0.0
 14
-135.0
 24
-32.575526
 34
0.0
1001
ACAD
1000
DSTYLE
1002
{
1070
    40
1040
1.0
1002
}
  0
DIMENSION
  5
4B
  8
TEAM-MAS
  2
*D3
 10
-151.237435
 20
-40.343775
 30
0.0
 11
-184.65635
 21
-89.312786
 31
0.0
 12
-8000.0
 22
-56000.0
 32
0.0
 70
   131
 15
-118.762565
 25
-24.807277
 35
0.0
 40
0.0
1001
ACAD
1000
DSTYLE
1002
{
1070
   288
1070
     1
1070
    40
1040
1.0
1002
}
  0
DIMENSION
  5
57
  8
TEAM-MAS
  2
*D4
 10
-225.0
 20
-317.623893
 30
0.0
 11
0.0
 21
-317.623893
 31
0.0
 12
-8000.0
 22
-56000.0
 32
0.0
 13
225.0
 23
-236.0
 33
0.0
 14
-225.0
 24
-236.0
 34
0.0
1001
ACAD
1000
DSTYLE
1002
{
1070
    40
1040
1.0
1002
}
  0
DIMENSION
  5
65
  8
TEAM-MAS
  2
*D5
 10
-110.144724
 20
-273.908717
 30
0.0
 11
47.355276
 21
-273.908717
 31
0.0
 12
-8000.0
 22
-56000.0
 32
0.0
 13
204.855276
 23
-118.0
 33
0.0
 14
-110.144724
 24
-118.0
 34
0.0
1001
ACAD
1000
DSTYLE
1002
{
1070
    40
1040
1.0
1002
}
  0
DIMENSION
  5
73
  8
TEAM-MAS
  2
*D6
 10
40.6
 20
31.353937
 30
0.0
 11
132.8
 21
31.353937
 31
0.0
 12
-8000.0
 22
-56000.0
 32
0.0
  1
<>.5
 13
225.0
 23
0.0
 33
0.0
 14
40.6
 24
-83.0
 34
0.0
1001
ACAD
1000
DSTYLE
1002
{
1070
    40
1040
1.0
1002
}
  0
DIMENSION
  5
81
  8
TEAM-MAS
  2
*D7
 10
261.474448
 20
-28.0
 30
0.0
 11
261.474448
 21
-118.0
 31
0.0
 12
-8000.0
 22
-56000.0
 32
0.0
 13
114.855276
 23
-208.0
 33
0.0
 14
114.855276
 24
-28.0
 34
0.0
 50
270.0
1001
ACAD
1000
DSTYLE
1002
{
1070
    40
1040
1.0
1002
}
  0
CIRCLE
  5
8F
  8
TEAM-BODY
 10
-135.0
 20
-32.575526
 30
0.0
 40
18.0
  0
ARC
  5
91
  8
TEAM-BODY
 10
-20.144724
 20
-118.0
 30
0.0
 40
90.0
 50
90.0
 51
270.0
  0
CIRCLE
  5
92
  8
TEAM-KAN
 10
40.5
 20
-118.0
 30
0.0
 40
35.0
  0
LINE
  5
94
  8
TEAM-AXE
 10
40.5
 20
-153.0
 30
0.0
 11
40.5
 21
-83.0
 31
0.0
  0
LINE
  5
97
  8
TEAM-AXE
 10
75.5
 20
-118.0
 30
0.0
 11
5.5
 21
-118.0
 31
0.0
  0
CIRCLE
  5
98
  8
TEAM-INSP
 10
0.0
 20
0.0
 30
0.0
 40
10.0
  0
TEXT
  5
9A
  8
TEAM-TXT
 10
-128.533539
 20
-200.542078
 30
0.0
 40
30.0
  1
team 217013
 41
0.8
 51
15.0
  7
TEAM
  0
LINE
  5
9D
  8
TEAM-BODY
 10
114.855276
 20
-208.0
 30
0.0
 11
-20.144724
 21
-208.0
 31
0.0
  0
LINE
  5
9E
  8
TEAM-BODY
 10
114.855276
 20
-28.0
 30
0.0
 11
-20.144724
 21
-28.0
 31
0.0
  0
CIRCLE
  5
9F
  8
TEAM-DET1
 10
40.5
 20
-118.0
 30
0.0
 40
40.0
  0
ARC
  5
A1
  8
TEAM-BODY
 10
114.855276
 20
-118.0
 30
0.0
 40
90.0
 50
270.0
 51
90.0
  0
POLYLINE
  5
A2
  8
TEAM-BODY
 66
     1
 10
0.0
 20
0.0
 30
0.0
 70
     1
  0
VERTEX
  5
EA
  8
TEAM-BODY
 10
225.0
 20
-236.0
 30
0.0
  0
VERTEX
  5
EB
  8
TEAM-BODY
 10
-225.0
 20
-236.0
 30
0.0
  0
VERTEX
  5
EC
  8
TEAM-BODY
 10
-225.0
 20
0.0
 30
0.0
  0
VERTEX
  5
ED
  8
TEAM-BODY
 10
225.0
 20
0.0
 30
0.0
  0
SEQEND
  5
EE
  8
TEAM-BODY
  0
ENDSEC
  0
EOF
