  0
SECTION
  2
HEADER
  9
$ACADVER
  1
AC1009
  9
$INSBASE
 10
0.0
 20
0.0
 30
0.0
  9
$EXTMIN
 10
-225.031198
 20
-10.005957
 30
-20.002057
  9
$EXTMAX
 10
417.39879
 20
961.783538
 30
20.001459
  9
$LIMMIN
 10
-225.031198
 20
-10.005957
  9
$LIMMAX
 10
417.39879
 20
961.783538
  9
$ORTHOMODE
 70
     1
  9
$REGENMODE
 70
     1
  9
$FILLMODE
 70
     1
  9
$QTEXTMODE
 70
     0
  9
$MIRRTEXT
 70
     0
  9
$DRAGMODE
 70
     2
  9
$LTSCALE
 40
50.0
  9
$OSMODE
 70
     0
  9
$ATTMODE
 70
     1
  9
$TEXTSIZE
 40
200.0
  9
$TRACEWID
 40
1.0
  9
$TEXTSTYLE
  7
STANDARD
  9
$CLAYER
  8
TEAM-MAS
  9
$CELTYPE
  6
BYLAYER
  9
$CECOLOR
 62
   256
  9
$DIMSCALE
 40
0.0
  9
$DIMASZ
 40
20.0
  9
$DIMEXO
 40
10.0
  9
$DIMDLI
 40
1.0
  9
$DIMRND
 40
0.0
  9
$DIMDLE
 40
0.0
  9
$DIMEXE
 40
1.0
  9
$DIMTP
 40
0.0
  9
$DIMTM
 40
0.0
  9
$DIMTXT
 40
35.0
  9
$DIMCEN
 40
1.0
  9
$DIMTSZ
 40
0.0
  9
$DIMTOL
 70
     0
  9
$DIMLIM
 70
     0
  9
$DIMTIH
 70
     0
  9
$DIMTOH
 70
     0
  9
$DIMSE1
 70
     0
  9
$DIMSE2
 70
     0
  9
$DIMTAD
 70
     0
  9
$DIMZIN
 70
     0
  9
$DIMBLK
  1

  9
$DIMASO
 70
     1
  9
$DIMSHO
 70
     0
  9
$DIMPOST
  1

  9
$DIMAPOST
  1

  9
$DIMALT
 70
     0
  9
$DIMALTD
 70
     2
  9
$DIMALTF
 40
25.4
  9
$DIMLFAC
 40
1.0
  9
$DIMTOFL
 70
     0
  9
$DIMTVP
 40
0.0
  9
$DIMTIX
 70
     0
  9
$DIMSOXD
 70
     0
  9
$DIMSAH
 70
     0
  9
$DIMBLK1
  1

  9
$DIMBLK2
  1

  9
$DIMSTYLE
  2
TEAM
  9
$DIMCLRD
 70
     9
  9
$DIMCLRE
 70
     9
  9
$DIMCLRT
 70
    11
  9
$DIMTFAC
 40
1.0
  9
$DIMGAP
 40
7.0
  9
$LUNITS
 70
     2
  9
$LUPREC
 70
     1
  9
$SKETCHINC
 40
1.0
  9
$FILLETRAD
 40
50.0
  9
$AUNITS
 70
     0
  9
$AUPREC
 70
     0
  9
$MENU
  1
ROPLANS
  9
$ELEVATION
 40
0.0
  9
$PELEVATION
 40
0.0
  9
$THICKNESS
 40
0.0
  9
$LIMCHECK
 70
     0
  9
$BLIPMODE
 70
     1
  9
$CHAMFERA
 40
0.0
  9
$CHAMFERB
 40
0.0
  9
$SKPOLY
 70
     0
  9
$TDCREATE
 40
2450392.957851
  9
$TDUPDATE
 40
2456190.73555
  9
$TDINDWG
 40
2.153799
  9
$TDUSRTIMER
 40
2.153799
  9
$USRTIMER
 70
     1
  9
$ANGBASE
 50
0.0
  9
$ANGDIR
 70
     0
  9
$PDMODE
 70
     0
  9
$PDSIZE
 40
0.0
  9
$PLINEWID
 40
0.0
  9
$COORDS
 70
     2
  9
$SPLFRAME
 70
     0
  9
$SPLINETYPE
 70
     6
  9
$SPLINESEGS
 70
     8
  9
$ATTDIA
 70
     0
  9
$ATTREQ
 70
     0
  9
$HANDLING
 70
     1
  9
$HANDSEED
  5
125
  9
$SURFTAB1
 70
    36
  9
$SURFTAB2
 70
    36
  9
$SURFTYPE
 70
     6
  9
$SURFU
 70
     6
  9
$SURFV
 70
     6
  9
$UCSNAME
  2

  9
$UCSORG
 10
0.0
 20
0.0
 30
0.0
  9
$UCSXDIR
 10
1.0
 20
0.0
 30
0.0
  9
$UCSYDIR
 10
0.0
 20
1.0
 30
0.0
  9
$PUCSNAME
  2

  9
$PUCSORG
 10
0.0
 20
0.0
 30
0.0
  9
$PUCSXDIR
 10
1.0
 20
0.0
 30
0.0
  9
$PUCSYDIR
 10
0.0
 20
1.0
 30
0.0
  9
$USERI1
 70
     0
  9
$USERI2
 70
     0
  9
$USERI3
 70
     0
  9
$USERI4
 70
     0
  9
$USERI5
 70
     0
  9
$USERR1
 40
0.0
  9
$USERR2
 40
0.0
  9
$USERR3
 40
0.0
  9
$USERR4
 40
0.0
  9
$USERR5
 40
0.0
  9
$WORLDVIEW
 70
     1
  9
$SHADEDGE
 70
     0
  9
$SHADEDIF
 70
    70
  9
$TILEMODE
 70
     1
  9
$MAXACTVP
 70
    16
  9
$PLIMCHECK
 70
     0
  9
$PEXTMIN
 10
-0.805942
 20
0.005011
 30
0.0
  9
$PEXTMAX
 10
20.250094
 20
11.356329
 30
0.0
  9
$PLIMMIN
 10
0.0
 20
0.0
  9
$PLIMMAX
 10
12.0
 20
9.0
  9
$UNITMODE
 70
     0
  9
$VISRETAIN
 70
     0
  9
$PLINEGEN
 70
     0
  9
$PSLTSCALE
 70
     0
  0
ENDSEC
  0
SECTION
  2
TABLES
  0
TABLE
  2
VPORT
 70
     2
  0
VPORT
  2
*ACTIVE
 70
     0
 10
0.0
 20
0.0
 11
1.0
 21
1.0
 12
96.183796
 22
475.888791
 13
0.0
 23
0.0
 14
1.0
 24
1.0
 15
50.0
 25
50.0
 16
0.0
 26
0.0
 36
1.0
 17
0.0
 27
0.0
 37
0.0
 40
977.907792
 41
1.911765
 42
50.0
 43
0.0
 44
0.0
 50
0.0
 51
0.0
 71
     0
 72
   100
 73
     1
 74
     1
 75
     0
 76
     0
 77
     0
 78
     0
  0
ENDTAB
  0
TABLE
  2
LTYPE
 70
     3
  0
LTYPE
  2
CONTINUOUS
 70
     0
  3
Solid Line
 72
    65
 73
     0
 40
0.0
  0
LTYPE
  2
31
 70
     0
  3

 72
    65
 73
     4
 40
2.1
 49
1.5
 49
-0.3
 49
0.0
 49
-0.3
  0
LTYPE
  2
22
 70
     0
  3

 72
    65
 73
     2
 40
1.4
 49
1.2
 49
-0.2
  0
ENDTAB
  0
TABLE
  2
LAYER
 70
    12
  0
LAYER
  2
0
 70
     0
 62
     7
  6
CONTINUOUS
  0
LAYER
  2
DEFPOINTS
 70
     0
 62
     7
  6
CONTINUOUS
  0
LAYER
  2
TEAM-BODY
 70
     0
 62
     2
  6
CONTINUOUS
  0
LAYER
  2
TEAM-AXE
 70
     0
 62
    10
  6
31
  0
LAYER
  2
TEAM-MAS
 70
     0
 62
     9
  6
CONTINUOUS
  0
LAYER
  2
TEAM-TXT
 70
     0
 62
    11
  6
CONTINUOUS
  0
LAYER
  2
TEAM-COLD
 70
     0
 62
     3
  6
CONTINUOUS
  0
LAYER
  2
TEAM-HIDE
 70
     0
 62
     8
  6
22
  0
LAYER
  2
TEAM-KAN
 70
     0
 62
     6
  6
CONTINUOUS
  0
LAYER
  2
TEAM-WARM
 70
     0
 62
     1
  6
CONTINUOUS
  0
LAYER
  2
TEAM-NET
 70
     0
 62
    15
  6
CONTINUOUS
  0
LAYER
  2
TEAM-INSP
 70
     0
 62
     5
  6
CONTINUOUS
  0
ENDTAB
  0
TABLE
  2
STYLE
 70
     2
  0
STYLE
  2
STANDARD
 70
     0
 40
0.0
 41
1.0
 50
0.0
 71
     0
 42
200.0
  3
txt
  4

  0
STYLE
  2
TEAM
 70
     0
 40
0.0
 41
0.8
 50
15.0
 71
     0
 42
7.0
  3
ROMANS.shx
  4

  0
ENDTAB
  0
TABLE
  2
VIEW
 70
     0
  0
ENDTAB
  0
TABLE
  2
UCS
 70
     0
  0
ENDTAB
  0
TABLE
  2
APPID
 70
     1
  0
APPID
  2
ACAD
 70
     0
  0
ENDTAB
  0
TABLE
  2
DIMSTYLE
 70
     1
  0
DIMSTYLE
  2
TEAM
 70
     0
  3

  4

  5

  6

  7

 40
0.0
 41
20.0
 42
10.0
 43
1.0
 44
1.0
 45
0.0
 46
0.0
 47
0.0
 48
0.0
140
35.0
141
1.0
142
0.0
143
25.4
144
1.0
145
0.0
146
1.0
147
7.0
 71
     0
 72
     0
 73
     0
 74
     0
 75
     0
 76
     0
 77
     0
 78
     0
170
     0
171
     2
172
     0
173
     0
174
     0
175
     0
176
     9
177
     9
178
    11
  0
ENDTAB
  0
ENDSEC
  0
SECTION
  2
BLOCKS
  0
BLOCK
  8
0
  2
$MODEL_SPACE
 70
     0
 10
0.0
 20
0.0
 30
0.0
  3
$MODEL_SPACE
  1

  0
ENDBLK
  5
10F
  8
0
  0
BLOCK
 67
     1
  8
0
  2
$PAPER_SPACE
 70
     0
 10
0.0
 20
0.0
 30
0.0
  3
$PAPER_SPACE
  1

  0
ENDBLK
  5
10D
 67
     1
  8
0
  0
BLOCK
  8
0
  2
*D0
 70
     1
 10
0.0
 20
0.0
 30
0.0
  3
*D0
  1

  0
LINE
  5
3F
  8
0
  6
BYBLOCK
 62
     9
 10
12235.0
 20
56900.0
 30
0.0
 11
12356.328228
 21
56900.0
 31
0.0
  0
LINE
  5
40
  8
0
  6
BYBLOCK
 62
     9
 10
12070.5
 20
56550.0
 30
0.0
 11
12356.328228
 21
56550.0
 31
0.0
  0
LINE
  5
41
  8
0
  6
BYBLOCK
 62
     9
 10
12355.328228
 20
56880.0
 30
0.0
 11
12355.328228
 21
56775.75
 31
0.0
  0
LINE
  5
42
  8
0
  6
BYBLOCK
 62
     9
 10
12355.328228
 20
56570.0
 30
0.0
 11
12355.328228
 21
56674.25
 31
0.0
  0
SOLID
  5
43
  8
0
  6
BYBLOCK
 62
     9
 10
12351.994894
 20
56880.0
 30
0.0
 11
12358.661561
 21
56880.0
 31
0.0
 12
12355.328228
 22
56900.0
 32
0.0
 13
12355.328228
 23
56900.0
 33
0.0
  0
SOLID
  5
44
  8
0
  6
BYBLOCK
 62
     9
 10
12351.994894
 20
56570.0
 30
0.0
 11
12358.661561
 21
56570.0
 31
0.0
 12
12355.328228
 22
56550.0
 32
0.0
 13
12355.328228
 23
56550.0
 33
0.0
  0
TEXT
  5
45
  8
0
  6
BYBLOCK
 62
    11
 10
12372.828228
 20
56681.25
 30
0.0
 40
35.0
  1
350
 50
90.0
  0
POINT
  5
46
  8
DEFPOINTS
  6
BYBLOCK
 62
     0
 10
12225.0
 20
56900.0
 30
10.0
  0
POINT
  5
47
  8
DEFPOINTS
  6
BYBLOCK
 62
     0
 10
12060.5
 20
56550.0
 30
10.0
  0
POINT
  5
48
  8
DEFPOINTS
  6
BYBLOCK
 62
     0
 10
12355.328228
 20
56550.0
 30
20.0
  0
ENDBLK
  5
4A
  8
0
  0
BLOCK
  8
0
  2
*D1
 70
     1
 10
0.0
 20
0.0
 30
0.0
  3
*D1
  1

  0
LINE
  5
22
  8
0
  6
BYBLOCK
 62
     9
 10
11965.5
 20
56590.0
 30
0.0
 11
11965.5
 21
56479.205675
 31
0.0
  0
LINE
  5
23
  8
0
  6
BYBLOCK
 62
     9
 10
12115.5
 20
56590.0
 30
0.0
 11
12115.5
 21
56479.205675
 31
0.0
  0
LINE
  5
24
  8
0
  6
BYBLOCK
 62
     9
 10
11985.5
 20
56480.205675
 30
0.0
 11
11995.583333
 21
56480.205675
 31
0.0
  0
LINE
  5
25
  8
0
  6
BYBLOCK
 62
     9
 10
12095.5
 20
56480.205675
 30
0.0
 11
12085.416667
 21
56480.205675
 31
0.0
  0
TEXT
  5
26
  8
0
  6
BYBLOCK
 62
    11
 10
12002.583333
 20
56462.705675
 30
0.0
 40
35.0
  1
150
  0
SOLID
  5
27
  8
0
  6
BYBLOCK
 62
     9
 10
11985.5
 20
56483.539009
 30
0.0
 11
11985.5
 21
56476.872342
 31
0.0
 12
11965.5
 22
56480.205675
 32
0.0
 13
11965.5
 23
56480.205675
 33
0.0
  0
SOLID
  5
28
  8
0
  6
BYBLOCK
 62
     9
 10
12095.5
 20
56483.539009
 30
0.0
 11
12095.5
 21
56476.872342
 31
0.0
 12
12115.5
 22
56480.205675
 32
0.0
 13
12115.5
 23
56480.205675
 33
0.0
  0
POINT
  5
29
  8
DEFPOINTS
  6
BYBLOCK
 62
     0
 10
11965.5
 20
56600.0
 30
20.0
  0
POINT
  5
2B
  8
DEFPOINTS
  6
BYBLOCK
 62
     0
 10
12115.5
 20
56600.0
 30
20.0
  0
POINT
  5
2C
  8
DEFPOINTS
  6
BYBLOCK
 62
     0
 10
12115.5
 20
56480.205675
 30
30.0
  0
ENDBLK
  5
2E
  8
0
  0
BLOCK
  8
0
  2
*D2
 70
     1
 10
0.0
 20
0.0
 30
0.0
  3
*D2
  1

  0
LINE
  5
77
  8
0
  6
BYBLOCK
 62
     9
 10
12070.5
 20
56550.0
 30
0.0
 11
12356.328228
 21
56550.0
 31
0.0
  0
LINE
  5
78
  8
0
  6
BYBLOCK
 62
     9
 10
12010.0
 20
56000.0
 30
0.0
 11
12356.328228
 21
56000.0
 31
0.0
  0
LINE
  5
79
  8
0
  6
BYBLOCK
 62
     9
 10
12355.328228
 20
56530.0
 30
0.0
 11
12355.328228
 21
56325.75
 31
0.0
  0
LINE
  5
7A
  8
0
  6
BYBLOCK
 62
     9
 10
12355.328228
 20
56020.0
 30
0.0
 11
12355.328228
 21
56224.25
 31
0.0
  0
SOLID
  5
7B
  8
0
  6
BYBLOCK
 62
     9
 10
12351.994894
 20
56530.0
 30
0.0
 11
12358.661561
 21
56530.0
 31
0.0
 12
12355.328228
 22
56550.0
 32
0.0
 13
12355.328228
 23
56550.0
 33
0.0
  0
SOLID
  5
7C
  8
0
  6
BYBLOCK
 62
     9
 10
12351.994894
 20
56020.0
 30
0.0
 11
12358.661561
 21
56020.0
 31
0.0
 12
12355.328228
 22
56000.0
 32
0.0
 13
12355.328228
 23
56000.0
 33
0.0
  0
TEXT
  5
7D
  8
0
  6
BYBLOCK
 62
    11
 10
12372.828228
 20
56231.25
 30
0.0
 40
35.0
  1
550
 50
90.0
  0
POINT
  5
7E
  8
DEFPOINTS
  6
BYBLOCK
 62
     0
 10
12060.5
 20
56550.0
 30
10.0
  0
POINT
  5
7F
  8
DEFPOINTS
  6
BYBLOCK
 62
     0
 10
12000.0
 20
56000.0
 30
10.0
  0
POINT
  5
80
  8
DEFPOINTS
  6
BYBLOCK
 62
     0
 10
12355.328228
 20
56000.0
 30
10.0
  0
ENDBLK
  5
82
  8
0
  0
BLOCK
  8
0
  2
*D3
 70
     1
 10
0.0
 20
0.0
 30
0.0
  3
*D3
  1

  0
LINE
  5
4D
  8
0
  6
BYBLOCK
 62
     9
 10
12235.0
 20
56900.0
 30
0.0
 11
12400.898701
 21
56900.0
 31
0.0
  0
LINE
  5
4E
  8
0
  6
BYBLOCK
 62
     9
 10
12010.0
 20
56000.0
 30
0.0
 11
12400.898701
 21
56000.0
 31
0.0
  0
LINE
  5
4F
  8
0
  6
BYBLOCK
 62
     9
 10
12399.898701
 20
56880.0
 30
0.0
 11
12399.898701
 21
56497.833333
 31
0.0
  0
LINE
  5
50
  8
0
  6
BYBLOCK
 62
     9
 10
12399.898701
 20
56020.0
 30
0.0
 11
12399.898701
 21
56402.166667
 31
0.0
  0
SOLID
  5
51
  8
0
  6
BYBLOCK
 62
     9
 10
12396.565367
 20
56880.0
 30
0.0
 11
12403.232034
 21
56880.0
 31
0.0
 12
12399.898701
 22
56900.0
 32
0.0
 13
12399.898701
 23
56900.0
 33
0.0
  0
SOLID
  5
52
  8
0
  6
BYBLOCK
 62
     9
 10
12396.565367
 20
56020.0
 30
0.0
 11
12403.232034
 21
56020.0
 31
0.0
 12
12399.898701
 22
56000.0
 32
0.0
 13
12399.898701
 23
56000.0
 33
0.0
  0
TEXT
  5
53
  8
0
  6
BYBLOCK
 62
    11
 10
12417.398701
 20
56409.166667
 30
0.0
 40
35.0
  1
900
 50
90.0
  0
POINT
  5
54
  8
DEFPOINTS
  6
BYBLOCK
 62
     0
 10
12225.0
 20
56900.0
 30
0.0
  0
POINT
  5
55
  8
DEFPOINTS
  6
BYBLOCK
 62
     0
 10
12000.0
 20
56000.0
 30
0.0
  0
POINT
  5
56
  8
DEFPOINTS
  6
BYBLOCK
 62
     0
 10
12399.898701
 20
56000.0
 30
10.0
  0
ENDBLK
  5
58
  8
0
  0
BLOCK
  8
0
  2
*D4
 70
     1
 10
0.0
 20
0.0
 30
0.0
  3
*D4
  1

  0
LINE
  5
31
  8
0
  6
BYBLOCK
 62
     9
 10
12135.449874
 20
56600.0
 30
0.0
 11
12311.440139
 21
56600.0
 31
0.0
  0
LINE
  5
32
  8
0
  6
BYBLOCK
 62
     9
 10
12010.0
 20
56000.0
 30
0.0
 11
12311.440139
 21
56000.0
 31
0.0
  0
LINE
  5
33
  8
0
  6
BYBLOCK
 62
     9
 10
12310.440139
 20
56580.0
 30
0.0
 11
12310.440139
 21
56414.916667
 31
0.0
  0
LINE
  5
34
  8
0
  6
BYBLOCK
 62
     9
 10
12310.440139
 20
56020.0
 30
0.0
 11
12310.440139
 21
56185.083333
 31
0.0
  0
SOLID
  5
35
  8
0
  6
BYBLOCK
 62
     9
 10
12307.106805
 20
56580.0
 30
0.0
 11
12313.773472
 21
56580.0
 31
0.0
 12
12310.440139
 22
56600.0
 32
0.0
 13
12310.440139
 23
56600.0
 33
0.0
  0
SOLID
  5
36
  8
0
  6
BYBLOCK
 62
     9
 10
12307.106805
 20
56020.0
 30
0.0
 11
12313.773472
 21
56020.0
 31
0.0
 12
12310.440139
 22
56000.0
 32
0.0
 13
12310.440139
 23
56000.0
 33
0.0
  0
TEXT
  5
37
  8
0
  6
BYBLOCK
 62
    11
 10
12327.940139
 20
56192.083333
 30
0.0
 40
35.0
  1
600-640
 50
90.0
  0
POINT
  5
38
  8
DEFPOINTS
  6
BYBLOCK
 62
     0
 10
12125.449874
 20
56600.0
 30
0.0
  0
POINT
  5
39
  8
DEFPOINTS
  6
BYBLOCK
 62
     0
 10
12000.0
 20
56000.0
 30
0.0
  0
POINT
  5
3A
  8
DEFPOINTS
  6
BYBLOCK
 62
     0
 10
12310.440139
 20
56000.0
 30
20.0
  0
ENDBLK
  5
3C
  8
0
  0
BLOCK
  8
0
  2
*D5
 70
     1
 10
0.0
 20
0.0
 30
0.0
  3
*D5
  1

  0
LINE
  5
5B
  8
0
  6
BYBLOCK
 62
     9
 10
12235.0
 20
56900.0
 30
0.0
 11
12263.667814
 21
56900.0
 31
0.0
  0
LINE
  5
5C
  8
0
  6
BYBLOCK
 62
     9
 10
12235.0
 20
56800.0
 30
0.0
 11
12263.667814
 21
56800.0
 31
0.0
  0
LINE
  5
5D
  8
0
  6
BYBLOCK
 62
     9
 10
12262.667814
 20
56880.0
 30
0.0
 11
12262.667814
 21
56820.0
 31
0.0
  0
TEXT
  5
5E
  8
0
  6
BYBLOCK
 62
    11
 10
12280.167814
 20
56698.071714
 30
0.0
 40
35.0
  1
100
 50
90.0
  0
SOLID
  5
5F
  8
0
  6
BYBLOCK
 62
     9
 10
12259.334481
 20
56880.0
 30
0.0
 11
12266.001148
 21
56880.0
 31
0.0
 12
12262.667814
 22
56900.0
 32
0.0
 13
12262.667814
 23
56900.0
 33
0.0
  0
SOLID
  5
60
  8
0
  6
BYBLOCK
 62
     9
 10
12259.334481
 20
56820.0
 30
0.0
 11
12266.001148
 21
56820.0
 31
0.0
 12
12262.667814
 22
56800.0
 32
0.0
 13
12262.667814
 23
56800.0
 33
0.0
  0
POINT
  5
61
  8
DEFPOINTS
  6
BYBLOCK
 62
     0
 10
12225.0
 20
56900.0
 30
0.0
  0
POINT
  5
62
  8
DEFPOINTS
  6
BYBLOCK
 62
     0
 10
12225.0
 20
56800.0
 30
0.0
  0
POINT
  5
63
  8
DEFPOINTS
  6
BYBLOCK
 62
     0
 10
12262.667814
 20
56800.0
 30
10.0
  0
ENDBLK
  5
65
  8
0
  0
BLOCK
  8
0
  2
*D6
 70
     1
 10
0.0
 20
0.0
 30
0.0
  3
*D6
  1

  0
LINE
  5
69
  8
0
  6
BYBLOCK
 62
     9
 10
11775.0
 20
56910.0
 30
0.0
 11
11775.0
 21
56945.229904
 31
0.0
  0
LINE
  5
6A
  8
0
  6
BYBLOCK
 62
     9
 10
12225.0
 20
56910.0
 30
0.0
 11
12225.0
 21
56945.229904
 31
0.0
  0
LINE
  5
6B
  8
0
  6
BYBLOCK
 62
     9
 10
11795.0
 20
56944.229904
 30
0.0
 11
11949.25
 21
56944.229904
 31
0.0
  0
LINE
  5
6C
  8
0
  6
BYBLOCK
 62
     9
 10
12205.0
 20
56944.229904
 30
0.0
 11
12050.75
 21
56944.229904
 31
0.0
  0
TEXT
  5
6D
  8
0
  6
BYBLOCK
 62
    11
 10
11956.25
 20
56926.729904
 30
0.0
 40
35.0
  1
450
  0
SOLID
  5
6E
  8
0
  6
BYBLOCK
 62
     9
 10
11795.0
 20
56947.563238
 30
0.0
 11
11795.0
 21
56940.896571
 31
0.0
 12
11775.0
 22
56944.229904
 32
0.0
 13
11775.0
 23
56944.229904
 33
0.0
  0
SOLID
  5
6F
  8
0
  6
BYBLOCK
 62
     9
 10
12205.0
 20
56947.563238
 30
0.0
 11
12205.0
 21
56940.896571
 31
0.0
 12
12225.0
 22
56944.229904
 32
0.0
 13
12225.0
 23
56944.229904
 33
0.0
  0
POINT
  5
70
  8
DEFPOINTS
  6
BYBLOCK
 62
     0
 10
11775.0
 20
56900.0
 30
0.0
  0
POINT
  5
71
  8
DEFPOINTS
  6
BYBLOCK
 62
     0
 10
12225.0
 20
56900.0
 30
0.0
  0
POINT
  5
72
  8
DEFPOINTS
  6
BYBLOCK
 62
     0
 10
12225.0
 20
56944.229904
 30
0.0
  0
ENDBLK
  5
74
  8
0
  0
BLOCK
  8
0
  2
*D7
 70
     1
 10
0.0
 20
0.0
 30
0.0
  3
*D7
  1

  0
LINE
  5
85
  8
0
  6
BYBLOCK
 62
     9
 10
12135.449874
 20
56600.0
 30
0.0
 11
12311.440139
 21
56600.0
 31
0.0
  0
LINE
  5
86
  8
0
  6
BYBLOCK
 62
     9
 10
12235.0
 20
56900.0
 30
0.0
 11
12311.440139
 21
56900.0
 31
0.0
  0
LINE
  5
87
  8
0
  6
BYBLOCK
 62
     9
 10
12310.440139
 20
56620.0
 30
0.0
 11
12310.440139
 21
56635.083333
 31
0.0
  0
LINE
  5
88
  8
0
  6
BYBLOCK
 62
     9
 10
12310.440139
 20
56880.0
 30
0.0
 11
12310.440139
 21
56864.916667
 31
0.0
  0
SOLID
  5
89
  8
0
  6
BYBLOCK
 62
     9
 10
12307.106805
 20
56620.0
 30
0.0
 11
12313.773472
 21
56620.0
 31
0.0
 12
12310.440139
 22
56600.0
 32
0.0
 13
12310.440139
 23
56600.0
 33
0.0
  0
SOLID
  5
8A
  8
0
  6
BYBLOCK
 62
     9
 10
12307.106805
 20
56880.0
 30
0.0
 11
12313.773472
 21
56880.0
 31
0.0
 12
12310.440139
 22
56900.0
 32
0.0
 13
12310.440139
 23
56900.0
 33
0.0
  0
TEXT
  5
8B
  8
0
  6
BYBLOCK
 62
    11
 10
12327.940139
 20
56642.083333
 30
0.0
 40
35.0
  1
260-300
 50
90.0
  0
POINT
  5
8C
  8
DEFPOINTS
  6
BYBLOCK
 62
     0
 10
12125.449874
 20
56600.0
 30
0.0
  0
POINT
  5
8D
  8
DEFPOINTS
  6
BYBLOCK
 62
     0
 10
12225.0
 20
56900.0
 30
0.0
  0
POINT
  5
8E
  8
DEFPOINTS
  6
BYBLOCK
 62
     0
 10
12310.440139
 20
56900.0
 30
0.0
  0
ENDBLK
  5
90
  8
0
  0
ENDSEC
  0
SECTION
  2
ENTITIES
  0
DIMENSION
  5
20
  8
TEAM-MAS
  2
*D1
 10
115.5
 20
480.205675
 30
10.0
 11
40.5
 21
480.205675
 31
-20.0
 12
-12000.0
 22
-56000.0
 32
-20.0
 70
   128
 13
-34.5
 23
600.0
 33
0.0
 14
115.5
 24
600.0
 34
0.0
1001
ACAD
1000
DSTYLE
1002
{
1070
    40
1040
1.0
1002
}
  0
DIMENSION
  5
2F
  8
TEAM-MAS
  2
*D4
 10
310.440139
 20
0.0
 30
20.0
 11
310.440139
 21
300.0
 31
0.0
 12
-12000.0
 22
-56000.0
 32
0.0
  1
<>-640
 13
125.449874
 23
600.0
 33
0.0
 14
0.0
 24
0.0
 34
0.0
 50
90.0
1001
ACAD
1000
DSTYLE
1002
{
1070
    40
1040
1.0
1002
}
  0
DIMENSION
  5
3D
  8
TEAM-MAS
  2
*D0
 10
355.328228
 20
550.0
 30
10.0
 11
355.328228
 21
725.0
 31
-10.0
 12
-12000.0
 22
-56000.0
 32
-10.0
 13
225.0
 23
900.0
 33
0.0
 14
60.5
 24
550.0
 34
0.0
 50
90.0
1001
ACAD
1000
DSTYLE
1002
{
1070
    40
1040
1.0
1002
}
  0
DIMENSION
  5
4B
  8
TEAM-MAS
  2
*D3
 10
399.898701
 20
0.0
 30
10.0
 11
399.898701
 21
450.0
 31
0.0
 12
-12000.0
 22
-56000.0
 32
0.0
 13
225.0
 23
900.0
 33
0.0
 14
0.0
 24
0.0
 34
0.0
 50
90.0
1001
ACAD
1000
DSTYLE
1002
{
1070
    40
1040
1.0
1002
}
  0
DIMENSION
  5
59
  8
TEAM-MAS
  2
*D5
 10
262.667814
 20
800.0
 30
10.0
 11
262.667814
 21
733.071714
 31
0.0
 12
-12000.0
 22
-56000.0
 32
0.0
 70
   128
 13
225.0
 23
900.0
 33
0.0
 14
225.0
 24
800.0
 34
0.0
 50
90.0
1001
ACAD
1000
DSTYLE
1002
{
1070
    40
1040
1.0
1002
}
  0
DIMENSION
  5
66
  8
TEAM-NET
  2
*D6
 10
225.0
 20
944.229904
 30
0.0
 11
0.0
 21
944.229904
 31
0.0
 12
-12000.0
 22
-56000.0
 32
0.0
 70
   128
 13
-225.0
 23
900.0
 33
0.0
 14
225.0
 24
900.0
 34
0.0
1001
ACAD
1000
DSTYLE
1002
{
1070
    40
1040
1.0
1002
}
  0
DIMENSION
  5
75
  8
TEAM-MAS
  2
*D2
 10
355.328228
 20
0.0
 30
0.0
 11
355.328228
 21
275.0
 31
-10.0
 12
-12000.0
 22
-56000.0
 32
-10.0
 13
60.5
 23
550.0
 33
0.0
 14
0.0
 24
0.0
 34
0.0
 50
90.0
1001
ACAD
1000
DSTYLE
1002
{
1070
    40
1040
1.0
1002
}
  0
DIMENSION
  5
83
  8
TEAM-MAS
  2
*D7
 10
310.440139
 20
900.0
 30
0.0
 11
310.440139
 21
750.0
 31
0.0
 12
-12000.0
 22
-56000.0
 32
0.0
  1
260-<>
 13
125.449874
 23
600.0
 33
0.0
 14
225.0
 24
900.0
 34
0.0
 50
90.0
1001
ACAD
1000
DSTYLE
1002
{
1070
    40
1040
1.0
1002
}
  0
ARC
  5
91
  8
TEAM-HIDE
 10
141.0
 20
865.0
 30
0.0
 40
50.0
 50
270.0
 51
0.0
  0
LINE
  5
94
  8
TEAM-HIDE
 10
191.0
 20
865.0
 30
0.0
 11
191.0
 21
900.0
 31
0.0
  0
LINE
  5
95
  8
TEAM-HIDE
 10
103.0
 20
815.0
 30
0.0
 11
103.0
 21
810.0
 31
0.0
  0
ARC
  5
96
  8
TEAM-HIDE
 10
-74.0
 20
865.0
 30
0.0
 40
50.0
 50
180.0
 51
270.0
  0
LINE
  5
97
  8
TEAM-HIDE
 10
-124.0
 20
865.0
 30
0.0
 11
-124.0
 21
900.0
 31
0.0
  0
LINE
  5
98
  8
TEAM-HIDE
 10
-22.0
 20
810.0
 30
0.0
 11
-22.0
 21
815.0
 31
0.0
  0
LINE
  5
99
  8
TEAM-AXE
 10
40.5
 20
758.977716
 30
0.0
 11
40.5
 21
900.0
 31
0.0
  0
POLYLINE
  5
9C
  8
TEAM-BODY
 66
     1
 10
0.0
 20
0.0
 30
0.0
 70
     1
  0
VERTEX
  5
115
  8
TEAM-BODY
 10
-225.0
 20
800.0
 30
0.0
  0
VERTEX
  5
116
  8
TEAM-BODY
 10
225.0
 20
800.0
 30
0.0
  0
VERTEX
  5
117
  8
TEAM-BODY
 10
225.0
 20
900.0
 30
0.0
  0
VERTEX
  5
118
  8
TEAM-BODY
 10
-225.0
 20
900.0
 30
0.0
  0
SEQEND
  5
119
  8
TEAM-BODY
  0
LINE
  5
9E
  8
TEAM-HIDE
 10
-74.0
 20
815.0
 30
0.0
 11
141.0
 21
815.0
 31
0.0
  0
LINE
  5
9F
  8
TEAM-HIDE
 10
103.0
 20
810.0
 30
0.0
 11
-22.0
 21
810.0
 31
0.0
  0
POLYLINE
  5
A0
  8
TEAM-HIDE
 66
     1
 10
0.0
 20
0.0
 30
0.0
 70
     1
  0
VERTEX
  5
11A
  8
TEAM-HIDE
 10
20.5
 20
800.0
 30
0.0
  0
VERTEX
  5
11B
  8
TEAM-HIDE
 10
60.5
 20
800.0
 30
0.0
  0
VERTEX
  5
11C
  8
TEAM-HIDE
 10
60.5
 20
804.069387
 30
0.0
  0
VERTEX
  5
11D
  8
TEAM-HIDE
 10
20.5
 20
804.069387
 30
0.0
  0
SEQEND
  5
11E
  8
TEAM-HIDE
  0
POLYLINE
  5
A1
  8
TEAM-HIDE
 66
     1
 10
0.0
 20
0.0
 30
0.0
 70
     1
  0
VERTEX
  5
11F
  8
TEAM-HIDE
 10
5.5
 20
804.069387
 30
0.0
  0
VERTEX
  5
120
  8
TEAM-HIDE
 10
75.5
 20
804.069387
 30
0.0
  0
VERTEX
  5
121
  8
TEAM-HIDE
 10
75.5
 20
815.0
 30
0.0
  0
VERTEX
  5
122
  8
TEAM-HIDE
 10
5.5
 20
815.0
 30
0.0
  0
SEQEND
  5
123
  8
TEAM-HIDE
  0
TEXT
  5
A2
  8
TEAM-TXT
 10
-61.49094
 20
857.255756
 30
0.0
 40
30.0
  1
team 217013
 41
0.8
 51
15.0
  7
TEAM
  0
LINE
  5
A5
  8
TEAM-HIDE
 10
-22.0
 20
810.0
 30
0.0
 11
103.0
 21
810.0
 31
0.0
  0
LINE
  5
A6
  8
TEAM-AXE
 10
125.449874
 20
600.0
 30
0.0
 11
105.550126
 21
600.0
 31
0.0
  0
CIRCLE
  5
A7
  8
TEAM-COLD
 10
115.5
 20
600.0
 30
0.0
 40
10.0
  0
LINE
  5
A9
  8
TEAM-AXE
 10
115.5
 20
590.0
 30
0.0
 11
115.5
 21
610.0
 31
0.0
  0
CIRCLE
  5
AA
  8
TEAM-INSP
 10
0.0
 20
0.0
 30
0.0
 40
10.0
  0
LINE
  5
AC
  8
TEAM-AXE
 10
-24.550126
 20
600.0
 30
0.0
 11
-44.449874
 21
600.0
 31
0.0
  0
CIRCLE
  5
AD
  8
TEAM-WARM
 10
-34.5
 20
600.0
 30
0.0
 40
10.0
  0
LINE
  5
AF
  8
TEAM-AXE
 10
-34.5
 20
590.0
 30
0.0
 11
-34.5
 21
610.0
 31
0.0
  0
LINE
  5
B0
  8
TEAM-AXE
 10
40.5
 20
530.0
 30
0.0
 11
40.5
 21
570.0
 31
0.0
  0
TEXT
  5
B1
  8
TEAM-TXT
 10
-211.665403
 20
261.778627
 30
0.0
 40
30.0
  1
ANSCHLUSS INDIVIDUELL
 41
0.8
 51
15.0
  7
TEAM
  0
TEXT
  5
B2
  8
TEAM-TXT
 10
-211.665403
 20
212.401227
 30
0.0
 40
30.0
  1
EXEMPLE  CONN./JOIN
 41
0.8
 51
15.0
  7
TEAM
  0
LINE
  5
B3
  8
TEAM-AXE
 10
60.5
 20
550.0
 30
0.0
 11
20.5
 21
550.0
 31
0.0
  0
CIRCLE
  5
B4
  8
TEAM-KAN
 10
40.5
 20
550.0
 30
0.0
 40
20.0
  0
ENDSEC
  0
EOF
