  0
SECTION
  2
HEADER
  9
$ACADVER
  1
AC1009
  9
$INSBASE
 10
0.0
 20
0.0
 30
0.0
  9
$EXTMIN
 10
-328.460268
 20
-367.489168
 30
-0.000003
  9
$EXTMAX
 10
373.021422
 20
57.326329
 30
0.000007
  9
$LIMMIN
 10
-328.460268
 20
-367.489168
  9
$LIMMAX
 10
373.021422
 20
57.326329
  9
$ORTHOMODE
 70
     1
  9
$REGENMODE
 70
     1
  9
$FILLMODE
 70
     1
  9
$QTEXTMODE
 70
     0
  9
$MIRRTEXT
 70
     0
  9
$DRAGMODE
 70
     2
  9
$LTSCALE
 40
50.0
  9
$OSMODE
 70
     7
  9
$ATTMODE
 70
     1
  9
$TEXTSIZE
 40
200.0
  9
$TRACEWID
 40
1.0
  9
$TEXTSTYLE
  7
STANDARD
  9
$CLAYER
  8
TEAM-MAS
  9
$CELTYPE
  6
BYLAYER
  9
$CECOLOR
 62
   256
  9
$DIMSCALE
 40
0.0
  9
$DIMASZ
 40
20.0
  9
$DIMEXO
 40
10.0
  9
$DIMDLI
 40
1.0
  9
$DIMRND
 40
0.0
  9
$DIMDLE
 40
0.0
  9
$DIMEXE
 40
1.0
  9
$DIMTP
 40
0.0
  9
$DIMTM
 40
0.0
  9
$DIMTXT
 40
35.0
  9
$DIMCEN
 40
1.0
  9
$DIMTSZ
 40
0.0
  9
$DIMTOL
 70
     0
  9
$DIMLIM
 70
     0
  9
$DIMTIH
 70
     0
  9
$DIMTOH
 70
     0
  9
$DIMSE1
 70
     0
  9
$DIMSE2
 70
     0
  9
$DIMTAD
 70
     0
  9
$DIMZIN
 70
     0
  9
$DIMBLK
  1

  9
$DIMASO
 70
     1
  9
$DIMSHO
 70
     0
  9
$DIMPOST
  1

  9
$DIMAPOST
  1

  9
$DIMALT
 70
     0
  9
$DIMALTD
 70
     2
  9
$DIMALTF
 40
25.4
  9
$DIMLFAC
 40
1.0
  9
$DIMTOFL
 70
     0
  9
$DIMTVP
 40
0.0
  9
$DIMTIX
 70
     0
  9
$DIMSOXD
 70
     0
  9
$DIMSAH
 70
     0
  9
$DIMBLK1
  1

  9
$DIMBLK2
  1

  9
$DIMSTYLE
  2
TEAM
  9
$DIMCLRD
 70
     9
  9
$DIMCLRE
 70
     9
  9
$DIMCLRT
 70
    11
  9
$DIMTFAC
 40
1.0
  9
$DIMGAP
 40
7.0
  9
$LUNITS
 70
     2
  9
$LUPREC
 70
     1
  9
$SKETCHINC
 40
1.0
  9
$FILLETRAD
 40
5.0
  9
$AUNITS
 70
     0
  9
$AUPREC
 70
     0
  9
$MENU
  1
ROPLANS
  9
$ELEVATION
 40
0.0
  9
$PELEVATION
 40
0.0
  9
$THICKNESS
 40
0.0
  9
$LIMCHECK
 70
     0
  9
$BLIPMODE
 70
     1
  9
$CHAMFERA
 40
0.0
  9
$CHAMFERB
 40
0.0
  9
$SKPOLY
 70
     0
  9
$TDCREATE
 40
2450392.957851
  9
$TDUPDATE
 40
2456004.599416
  9
$TDINDWG
 40
2.546599
  9
$TDUSRTIMER
 40
2.546599
  9
$USRTIMER
 70
     1
  9
$ANGBASE
 50
0.0
  9
$ANGDIR
 70
     0
  9
$PDMODE
 70
     0
  9
$PDSIZE
 40
0.0
  9
$PLINEWID
 40
0.0
  9
$COORDS
 70
     2
  9
$SPLFRAME
 70
     0
  9
$SPLINETYPE
 70
     6
  9
$SPLINESEGS
 70
     8
  9
$ATTDIA
 70
     0
  9
$ATTREQ
 70
     0
  9
$HANDLING
 70
     1
  9
$HANDSEED
  5
F2
  9
$SURFTAB1
 70
    36
  9
$SURFTAB2
 70
    36
  9
$SURFTYPE
 70
     6
  9
$SURFU
 70
     6
  9
$SURFV
 70
     6
  9
$UCSNAME
  2

  9
$UCSORG
 10
0.0
 20
0.0
 30
0.0
  9
$UCSXDIR
 10
1.0
 20
0.0
 30
0.0
  9
$UCSYDIR
 10
0.0
 20
1.0
 30
0.0
  9
$PUCSNAME
  2

  9
$PUCSORG
 10
0.0
 20
0.0
 30
0.0
  9
$PUCSXDIR
 10
1.0
 20
0.0
 30
0.0
  9
$PUCSYDIR
 10
0.0
 20
1.0
 30
0.0
  9
$USERI1
 70
     0
  9
$USERI2
 70
     0
  9
$USERI3
 70
     0
  9
$USERI4
 70
     0
  9
$USERI5
 70
     0
  9
$USERR1
 40
0.0
  9
$USERR2
 40
0.0
  9
$USERR3
 40
0.0
  9
$USERR4
 40
0.0
  9
$USERR5
 40
0.0
  9
$WORLDVIEW
 70
     1
  9
$SHADEDGE
 70
     0
  9
$SHADEDIF
 70
    70
  9
$TILEMODE
 70
     1
  9
$MAXACTVP
 70
    16
  9
$PLIMCHECK
 70
     0
  9
$PEXTMIN
 10
-0.805942
 20
0.005011
 30
0.0
  9
$PEXTMAX
 10
20.250094
 20
11.356329
 30
0.0
  9
$PLIMMIN
 10
0.0
 20
0.0
  9
$PLIMMAX
 10
12.0
 20
9.0
  9
$UNITMODE
 70
     0
  9
$VISRETAIN
 70
     0
  9
$PLINEGEN
 70
     0
  9
$PSLTSCALE
 70
     0
  0
ENDSEC
  0
SECTION
  2
TABLES
  0
TABLE
  2
VPORT
 70
     2
  0
VPORT
  2
*ACTIVE
 70
     0
 10
0.0
 20
0.0
 11
1.0
 21
1.0
 12
22.280577
 22
-155.081419
 13
0.0
 23
0.0
 14
1.0
 24
1.0
 15
50.0
 25
50.0
 16
0.0
 26
0.0
 36
1.0
 17
0.0
 27
0.0
 37
0.0
 40
427.478917
 41
1.903766
 42
50.0
 43
0.0
 44
0.0
 50
0.0
 51
0.0
 71
     0
 72
   100
 73
     1
 74
     1
 75
     0
 76
     0
 77
     0
 78
     0
  0
ENDTAB
  0
TABLE
  2
LTYPE
 70
     2
  0
LTYPE
  2
CONTINUOUS
 70
     0
  3
Solid Line
 72
    65
 73
     0
 40
0.0
  0
LTYPE
  2
31
 70
     0
  3

 72
    65
 73
     4
 40
2.1
 49
1.5
 49
-0.3
 49
0.0
 49
-0.3
  0
ENDTAB
  0
TABLE
  2
LAYER
 70
     9
  0
LAYER
  2
0
 70
     0
 62
     7
  6
CONTINUOUS
  0
LAYER
  2
DEFPOINTS
 70
     0
 62
     7
  6
CONTINUOUS
  0
LAYER
  2
TEAM-BODY
 70
     0
 62
     2
  6
CONTINUOUS
  0
LAYER
  2
TEAM-AXE
 70
     0
 62
    10
  6
31
  0
LAYER
  2
TEAM-MAS
 70
     0
 62
     9
  6
CONTINUOUS
  0
LAYER
  2
TEAM-TXT
 70
     0
 62
    11
  6
CONTINUOUS
  0
LAYER
  2
TEAM-DET1
 70
     0
 62
     4
  6
CONTINUOUS
  0
LAYER
  2
TEAM-DET3
 70
     0
 62
    14
  6
CONTINUOUS
  0
LAYER
  2
TEAM-INSP
 70
     0
 62
     5
  6
CONTINUOUS
  0
ENDTAB
  0
TABLE
  2
STYLE
 70
     2
  0
STYLE
  2
STANDARD
 70
     0
 40
0.0
 41
1.0
 50
0.0
 71
     0
 42
200.0
  3
txt
  4

  0
STYLE
  2
TEAM
 70
     0
 40
0.0
 41
0.8
 50
15.0
 71
     0
 42
7.0
  3
ROMANS.shx
  4

  0
ENDTAB
  0
TABLE
  2
VIEW
 70
     0
  0
ENDTAB
  0
TABLE
  2
UCS
 70
     0
  0
ENDTAB
  0
TABLE
  2
APPID
 70
     1
  0
APPID
  2
ACAD
 70
     0
  0
ENDTAB
  0
TABLE
  2
DIMSTYLE
 70
     1
  0
DIMSTYLE
  2
TEAM
 70
     0
  3

  4

  5

  6

  7

 40
0.0
 41
20.0
 42
10.0
 43
1.0
 44
1.0
 45
0.0
 46
0.0
 47
0.0
 48
0.0
140
35.0
141
1.0
142
0.0
143
25.4
144
1.0
145
0.0
146
1.0
147
7.0
 71
     0
 72
     0
 73
     0
 74
     0
 75
     0
 76
     0
 77
     0
 78
     0
170
     0
171
     2
172
     0
173
     0
174
     0
175
     0
176
     9
177
     9
178
    11
  0
ENDTAB
  0
ENDSEC
  0
SECTION
  2
BLOCKS
  0
BLOCK
  8
0
  2
$MODEL_SPACE
 70
     0
 10
0.0
 20
0.0
 30
0.0
  3
$MODEL_SPACE
  1

  0
ENDBLK
  5
DD
  8
0
  0
BLOCK
 67
     1
  8
0
  2
$PAPER_SPACE
 70
     0
 10
0.0
 20
0.0
 30
0.0
  3
$PAPER_SPACE
  1

  0
ENDBLK
  5
DB
 67
     1
  8
0
  0
BLOCK
  8
0
  2
*D0
 70
     1
 10
0.0
 20
0.0
 30
0.0
  3
*D0
  1

  0
LINE
  5
22
  8
0
  6
BYBLOCK
 62
     9
 10
-182.0
 20
104000.0
 30
0.0
 11
-311.926757
 21
104000.0
 31
0.0
  0
LINE
  5
23
  8
0
  6
BYBLOCK
 62
     9
 10
-128.0
 20
103683.0
 30
0.0
 11
-311.926757
 21
103683.0
 31
0.0
  0
LINE
  5
24
  8
0
  6
BYBLOCK
 62
     9
 10
-310.926757
 20
103980.0
 30
0.0
 11
-310.926757
 21
103924.333333
 31
0.0
  0
LINE
  5
25
  8
0
  6
BYBLOCK
 62
     9
 10
-310.926757
 20
103703.0
 30
0.0
 11
-310.926757
 21
103758.666667
 31
0.0
  0
SOLID
  5
26
  8
0
  6
BYBLOCK
 62
     9
 10
-314.26009
 20
103980.0
 30
0.0
 11
-307.593423
 21
103980.0
 31
0.0
 12
-310.926757
 22
104000.0
 32
0.0
 13
-310.926757
 23
104000.0
 33
0.0
  0
SOLID
  5
27
  8
0
  6
BYBLOCK
 62
     9
 10
-314.26009
 20
103703.0
 30
0.0
 11
-307.593423
 21
103703.0
 31
0.0
 12
-310.926757
 22
103683.0
 32
0.0
 13
-310.926757
 23
103683.0
 33
0.0
  0
TEXT
  5
28
  8
0
  6
BYBLOCK
 62
    11
 10
-293.426757
 20
103765.666667
 30
0.0
 40
35.0
  1
317.00
 50
90.0
  0
POINT
  5
29
  8
DEFPOINTS
  6
BYBLOCK
 62
     0
 10
-172.0
 20
104000.0
 30
0.0
  0
POINT
  5
2B
  8
DEFPOINTS
  6
BYBLOCK
 62
     0
 10
-118.0
 20
103683.0
 30
0.0
  0
POINT
  5
2C
  8
DEFPOINTS
  6
BYBLOCK
 62
     0
 10
-310.926757
 20
103683.0
 30
0.0
  0
ENDBLK
  5
2E
  8
0
  0
BLOCK
  8
0
  2
*D1
 70
     1
 10
0.0
 20
0.0
 30
0.0
  3
*D1
  1

  0
LINE
  5
31
  8
0
  6
BYBLOCK
 62
     9
 10
-110.928932
 20
103825.928932
 30
0.0
 11
-68.296669
 21
103783.296669
 31
0.0
  0
LINE
  5
32
  8
0
  6
BYBLOCK
 62
     9
 10
16.350288
 20
103953.208153
 30
0.0
 11
58.982552
 21
103910.575889
 31
0.0
  0
LINE
  5
33
  8
0
  6
BYBLOCK
 62
     9
 10
-83.145911
 20
103769.86164
 30
0.0
 11
-97.288047
 21
103755.719504
 31
0.0
  0
LINE
  5
34
  8
0
  6
BYBLOCK
 62
     9
 10
72.417581
 20
103925.425132
 30
0.0
 11
86.559716
 21
103939.567267
 31
0.0
  0
SOLID
  5
35
  8
0
  6
BYBLOCK
 62
     9
 10
-85.502934
 20
103772.218662
 30
0.0
 11
-80.788888
 21
103767.504617
 31
0.0
 12
-69.003775
 22
103784.003775
 32
0.0
 13
-69.003775
 23
103784.003775
 33
0.0
  0
SOLID
  5
36
  8
0
  6
BYBLOCK
 62
     9
 10
70.060558
 20
103927.782154
 30
0.0
 11
74.774603
 21
103923.068109
 31
0.0
 12
58.275445
 22
103911.282996
 32
0.0
 13
58.275445
 23
103911.282996
 33
0.0
  0
TEXT
  5
37
  8
0
  6
BYBLOCK
 62
    11
 10
-44.549666
 20
103783.709148
 30
0.0
 40
35.0
  1
180.00
 50
45.0
  0
POINT
  5
38
  8
DEFPOINTS
  6
BYBLOCK
 62
     0
 10
-118.0
 20
103833.0
 30
0.0
  0
POINT
  5
39
  8
DEFPOINTS
  6
BYBLOCK
 62
     0
 10
9.279221
 20
103960.279221
 30
0.0
  0
POINT
  5
3A
  8
DEFPOINTS
  6
BYBLOCK
 62
     0
 10
58.275445
 20
103911.282996
 30
0.0
  0
ENDBLK
  5
3C
  8
0
  0
BLOCK
  8
0
  2
*D2
 70
     1
 10
0.0
 20
0.0
 30
0.0
  3
*D2
  1

  0
LINE
  5
3F
  8
0
  6
BYBLOCK
 62
     9
 10
182.0
 20
104000.0
 30
0.0
 11
256.477662
 21
104000.0
 31
0.0
  0
LINE
  5
40
  8
0
  6
BYBLOCK
 62
     9
 10
182.0
 20
103778.0
 30
0.0
 11
256.477662
 21
103778.0
 31
0.0
  0
LINE
  5
41
  8
0
  6
BYBLOCK
 62
     9
 10
255.477662
 20
104020.0
 30
0.0
 11
255.477662
 21
104040.0
 31
0.0
  0
LINE
  5
42
  8
0
  6
BYBLOCK
 62
     9
 10
255.477662
 20
103758.0
 30
0.0
 11
255.477662
 21
103738.0
 31
0.0
  0
SOLID
  5
43
  8
0
  6
BYBLOCK
 62
     9
 10
252.144329
 20
104020.0
 30
0.0
 11
258.810995
 21
104020.0
 31
0.0
 12
255.477662
 22
104000.0
 32
0.0
 13
255.477662
 23
104000.0
 33
0.0
  0
SOLID
  5
44
  8
0
  6
BYBLOCK
 62
     9
 10
252.144329
 20
103758.0
 30
0.0
 11
258.810995
 21
103758.0
 31
0.0
 12
255.477662
 22
103778.0
 32
0.0
 13
255.477662
 23
103778.0
 33
0.0
  0
TEXT
  5
45
  8
0
  6
BYBLOCK
 62
    11
 10
272.977662
 20
103807.333333
 30
0.0
 40
35.0
  1
222.00
 50
90.0
  0
POINT
  5
46
  8
DEFPOINTS
  6
BYBLOCK
 62
     0
 10
172.0
 20
104000.0
 30
0.0
  0
POINT
  5
47
  8
DEFPOINTS
  6
BYBLOCK
 62
     0
 10
172.0
 20
103778.0
 30
0.0
  0
POINT
  5
48
  8
DEFPOINTS
  6
BYBLOCK
 62
     0
 10
255.477662
 20
103778.0
 30
0.0
  0
ENDBLK
  5
4A
  8
0
  0
BLOCK
  8
0
  2
*D3
 70
     1
 10
0.0
 20
0.0
 30
0.0
  3
*D3
  1

  0
LINE
  5
4D
  8
0
  6
BYBLOCK
 62
     9
 10
-268.0
 20
103823.0
 30
0.0
 11
-268.0
 21
103649.043845
 31
0.0
  0
LINE
  5
4E
  8
0
  6
BYBLOCK
 62
     9
 10
32.0
 20
103823.0
 30
0.0
 11
32.0
 21
103649.043845
 31
0.0
  0
LINE
  5
4F
  8
0
  6
BYBLOCK
 62
     9
 10
-248.0
 20
103650.043845
 30
0.0
 11
-200.833333
 21
103650.043845
 31
0.0
  0
LINE
  5
50
  8
0
  6
BYBLOCK
 62
     9
 10
12.0
 20
103650.043845
 30
0.0
 11
-35.166667
 21
103650.043845
 31
0.0
  0
SOLID
  5
51
  8
0
  6
BYBLOCK
 62
     9
 10
-248.0
 20
103653.377178
 30
0.0
 11
-248.0
 21
103646.710512
 31
0.0
 12
-268.0
 22
103650.043845
 32
0.0
 13
-268.0
 23
103650.043845
 33
0.0
  0
SOLID
  5
52
  8
0
  6
BYBLOCK
 62
     9
 10
12.0
 20
103653.377178
 30
0.0
 11
12.0
 21
103646.710512
 31
0.0
 12
32.0
 22
103650.043845
 32
0.0
 13
32.0
 23
103650.043845
 33
0.0
  0
TEXT
  5
53
  8
0
  6
BYBLOCK
 62
    11
 10
-193.833333
 20
103632.543845
 30
0.0
 40
35.0
  1
300.00
  0
POINT
  5
54
  8
DEFPOINTS
  6
BYBLOCK
 62
     0
 10
-268.0
 20
103833.0
 30
0.0
  0
POINT
  5
55
  8
DEFPOINTS
  6
BYBLOCK
 62
     0
 10
32.0
 20
103833.0
 30
0.0
  0
POINT
  5
56
  8
DEFPOINTS
  6
BYBLOCK
 62
     0
 10
32.0
 20
103650.043845
 30
0.0
  0
ENDBLK
  5
58
  8
0
  0
BLOCK
  8
0
  2
*D4
 70
     1
 10
0.0
 20
0.0
 30
0.0
  3
*D4
  1

  0
LINE
  5
5B
  8
0
  6
BYBLOCK
 62
     9
 10
172.0
 20
104010.0
 30
0.0
 11
172.0
 21
104040.797998
 31
0.0
  0
LINE
  5
5C
  8
0
  6
BYBLOCK
 62
     9
 10
217.0
 20
104010.0
 30
0.0
 11
217.0
 21
104040.797998
 31
0.0
  0
LINE
  5
5D
  8
0
  6
BYBLOCK
 62
     9
 10
152.0
 20
104039.797998
 30
0.0
 11
132.0
 21
104039.797998
 31
0.0
  0
LINE
  5
5E
  8
0
  6
BYBLOCK
 62
     9
 10
237.0
 20
104039.797998
 30
0.0
 11
257.0
 21
104039.797998
 31
0.0
  0
TEXT
  5
5F
  8
0
  6
BYBLOCK
 62
    11
 10
244.683645
 20
104022.297998
 30
0.0
 40
35.0
  1
45.00
  0
LINE
  5
60
  8
0
  6
BYBLOCK
 62
     9
 10
172.0
 20
104039.797998
 30
0.0
 11
217.0
 21
104039.797998
 31
0.0
  0
SOLID
  5
61
  8
0
  6
BYBLOCK
 62
     9
 10
152.0
 20
104043.131331
 30
0.0
 11
152.0
 21
104036.464665
 31
0.0
 12
172.0
 22
104039.797998
 32
0.0
 13
172.0
 23
104039.797998
 33
0.0
  0
SOLID
  5
62
  8
0
  6
BYBLOCK
 62
     9
 10
237.0
 20
104043.131331
 30
0.0
 11
237.0
 21
104036.464665
 31
0.0
 12
217.0
 22
104039.797998
 32
0.0
 13
217.0
 23
104039.797998
 33
0.0
  0
POINT
  5
63
  8
DEFPOINTS
  6
BYBLOCK
 62
     0
 10
172.0
 20
104000.0
 30
0.0
  0
POINT
  5
64
  8
DEFPOINTS
  6
BYBLOCK
 62
     0
 10
217.0
 20
104000.0
 30
0.0
  0
POINT
  5
65
  8
DEFPOINTS
  6
BYBLOCK
 62
     0
 10
217.0
 20
104039.797998
 30
0.0
  0
ENDBLK
  5
67
  8
0
  0
BLOCK
  8
0
  2
*D5
 70
     1
 10
0.0
 20
0.0
 30
0.0
  3
*D5
  1

  0
LINE
  5
6A
  8
0
  6
BYBLOCK
 62
     9
 10
172.0
 20
104010.0
 30
0.0
 11
172.0
 21
104040.797998
 31
0.0
  0
LINE
  5
6B
  8
0
  6
BYBLOCK
 62
     9
 10
-268.0
 20
103843.0
 30
0.0
 11
-268.0
 21
104040.797998
 31
0.0
  0
LINE
  5
6C
  8
0
  6
BYBLOCK
 62
     9
 10
152.0
 20
104039.797998
 30
0.0
 11
37.75
 21
104039.797998
 31
0.0
  0
LINE
  5
6D
  8
0
  6
BYBLOCK
 62
     9
 10
-248.0
 20
104039.797998
 30
0.0
 11
-133.75
 21
104039.797998
 31
0.0
  0
SOLID
  5
6E
  8
0
  6
BYBLOCK
 62
     9
 10
152.0
 20
104043.131331
 30
0.0
 11
152.0
 21
104036.464665
 31
0.0
 12
172.0
 22
104039.797998
 32
0.0
 13
172.0
 23
104039.797998
 33
0.0
  0
SOLID
  5
6F
  8
0
  6
BYBLOCK
 62
     9
 10
-248.0
 20
104043.131331
 30
0.0
 11
-248.0
 21
104036.464665
 31
0.0
 12
-268.0
 22
104039.797998
 32
0.0
 13
-268.0
 23
104039.797998
 33
0.0
  0
TEXT
  5
70
  8
0
  6
BYBLOCK
 62
    11
 10
-126.75
 20
104022.297998
 30
0.0
 40
35.0
  1
440.00
  0
POINT
  5
71
  8
DEFPOINTS
  6
BYBLOCK
 62
     0
 10
172.0
 20
104000.0
 30
0.0
  0
POINT
  5
72
  8
DEFPOINTS
  6
BYBLOCK
 62
     0
 10
-268.0
 20
103833.0
 30
0.0
  0
POINT
  5
73
  8
DEFPOINTS
  6
BYBLOCK
 62
     0
 10
-268.0
 20
104039.797998
 30
0.0
  0
ENDBLK
  5
75
  8
0
  0
ENDSEC
  0
SECTION
  2
ENTITIES
  0
DIMENSION
  5
20
  8
TEAM-MAS
  2
*D0
 10
-310.926757
 20
-317.0
 30
0.0
 11
-310.926757
 21
-158.5
 31
0.0
 12
0.0
 22
-104000.0
 32
0.0
 13
-172.0
 23
0.0
 33
0.0
 14
-118.0
 24
-317.0
 34
0.0
 50
90.0
1001
ACAD
1000
DSTYLE
1002
{
1070
    40
1040
1.0
1002
}
  0
DIMENSION
  5
2F
  8
TEAM-MAS
  2
*D1
 10
58.275445
 20
-88.717004
 30
0.0
 11
-5.364165
 21
-152.356614
 31
0.0
 12
0.0
 22
-104000.0
 32
0.0
 70
     1
 13
-118.0
 23
-167.0
 33
0.0
 14
9.279221
 24
-39.720779
 34
0.0
1001
ACAD
1000
DSTYLE
1002
{
1070
    40
1040
1.0
1002
}
  0
DIMENSION
  5
3D
  8
TEAM-MAS
  2
*D2
 10
255.477662
 20
-222.0
 30
0.0
 11
255.477662
 21
-111.0
 31
0.0
 12
0.0
 22
-104000.0
 32
0.0
 13
172.0
 23
0.0
 33
0.0
 14
172.0
 24
-222.0
 34
0.0
 50
90.0
1001
ACAD
1000
DSTYLE
1002
{
1070
    40
1040
1.0
1002
}
  0
DIMENSION
  5
4B
  8
TEAM-MAS
  2
*D3
 10
32.0
 20
-349.956155
 30
0.0
 11
-118.0
 21
-349.956155
 31
0.0
 12
0.0
 22
-104000.0
 32
0.0
 13
-268.0
 23
-167.0
 33
0.0
 14
32.0
 24
-167.0
 34
0.0
1001
ACAD
1000
DSTYLE
1002
{
1070
    40
1040
1.0
1002
}
  0
DIMENSION
  5
59
  8
TEAM-MAS
  2
*D4
 10
217.0
 20
39.797998
 30
0.0
 11
308.850312
 21
39.797998
 31
0.0
 12
0.0
 22
-104000.0
 32
0.0
 70
   128
 13
172.0
 23
0.0
 33
0.0
 14
217.0
 24
0.0
 34
0.0
1001
ACAD
1000
DSTYLE
1002
{
1070
    40
1040
1.0
1002
}
  0
DIMENSION
  5
68
  8
TEAM-MAS
  2
*D5
 10
-268.0
 20
39.797998
 30
0.0
 11
-48.0
 21
39.797998
 31
0.0
 12
0.0
 22
-104000.0
 32
0.0
 13
172.0
 23
0.0
 33
0.0
 14
-268.0
 24
-167.0
 34
0.0
1001
ACAD
1000
DSTYLE
1002
{
1070
    40
1040
1.0
1002
}
  0
LINE
  5
76
  8
TEAM-DET3
 10
212.0
 20
-200.0
 30
0.0
 11
217.0
 21
-200.0
 31
0.0
  0
LINE
  5
78
  8
TEAM-AXE
 10
-10.720779
 20
-39.720779
 30
0.0
 11
29.279221
 21
-39.720779
 31
0.0
  0
LINE
  5
7B
  8
TEAM-AXE
 10
9.279221
 20
-59.720779
 30
0.0
 11
9.279221
 21
-19.720779
 31
0.0
  0
CIRCLE
  5
7C
  8
TEAM-DET1
 10
9.279221
 20
-39.720779
 30
0.0
 40
20.0
  0
CIRCLE
  5
7E
  8
TEAM-BODY
 10
-118.0
 20
-167.0
 30
0.0
 40
150.0
  0
POLYLINE
  5
80
  8
TEAM-DET3
 66
     1
 10
0.0
 20
0.0
 30
0.0
  0
VERTEX
  5
E3
  8
TEAM-DET3
 10
172.0
 20
-5.0
 30
0.0
  0
VERTEX
  5
E4
  8
TEAM-DET3
 10
212.0
 20
-5.0
 30
0.0
  0
VERTEX
  5
E5
  8
TEAM-DET3
 10
212.0
 20
-200.0
 30
0.0
  0
SEQEND
  5
E6
  8
TEAM-DET3
  0
POLYLINE
  5
81
  8
TEAM-DET3
 66
     1
 10
0.0
 20
0.0
 30
0.0
  0
VERTEX
  5
E7
  8
TEAM-DET3
 10
172.0
 20
0.0
 30
0.0
  0
VERTEX
  5
E8
  8
TEAM-DET3
 10
217.0
 20
0.0
 30
0.0
  0
VERTEX
  5
E9
  8
TEAM-DET3
 10
217.0
 20
-200.0
 30
0.0
  0
SEQEND
  5
EA
  8
TEAM-DET3
  0
POLYLINE
  5
82
  8
TEAM-BODY
 66
     1
 10
0.0
 20
0.0
 30
0.0
  0
VERTEX
  5
EB
  8
TEAM-BODY
 10
21.552857
 20
-222.0
 30
0.0
  0
VERTEX
  5
EC
  8
TEAM-BODY
 10
172.0
 20
-222.0
 30
0.0
  0
VERTEX
  5
ED
  8
TEAM-BODY
 10
172.0
 20
0.0
 30
0.0
  0
VERTEX
  5
EE
  8
TEAM-BODY
 10
-172.0
 20
0.0
 30
0.0
  0
VERTEX
  5
EF
  8
TEAM-BODY
 10
-172.0
 20
-27.057155
 30
0.0
  0
SEQEND
  5
F0
  8
TEAM-BODY
  0
CIRCLE
  5
83
  8
TEAM-DET1
 10
-118.0
 20
-167.0
 30
0.0
 40
30.0
  0
LINE
  5
84
  8
TEAM-AXE
 10
-158.0
 20
-167.0
 30
0.0
 11
-78.0
 21
-167.0
 31
0.0
  0
LINE
  5
85
  8
TEAM-AXE
 10
-118.0
 20
-207.0
 30
0.0
 11
-118.0
 21
-127.0
 31
0.0
  0
CIRCLE
  5
86
  8
TEAM-BODY
 10
-118.0
 20
-167.0
 30
0.0
 40
20.0
  0
CIRCLE
  5
87
  8
TEAM-INSP
 10
-48.0
 20
0.0
 30
0.0
 40
10.0
  0
TEXT
  5
89
  8
TEAM-TXT
 10
-68.026503
 20
-265.037745
 30
0.0
 40
30.0
  1
team 217024
 41
0.8
 51
15.0
  7
TEAM
  0
ENDSEC
  0
EOF
