  0
SECTION
  2
HEADER
  9
$ACADVER
  1
AC1009
  9
$INSBASE
 10
0.0
 20
0.0
 30
0.0
  9
$EXTMIN
 10
-338.018744
 20
-369.480123
 30
0.0
  9
$EXTMAX
 10
373.692323
 20
137.964447
 30
0.000005
  9
$LIMMIN
 10
-338.018744
 20
-369.480123
  9
$LIMMAX
 10
373.692323
 20
137.964447
  9
$ORTHOMODE
 70
     1
  9
$REGENMODE
 70
     1
  9
$FILLMODE
 70
     1
  9
$QTEXTMODE
 70
     0
  9
$MIRRTEXT
 70
     0
  9
$DRAGMODE
 70
     2
  9
$LTSCALE
 40
50.0
  9
$OSMODE
 70
     0
  9
$ATTMODE
 70
     1
  9
$TEXTSIZE
 40
200.0
  9
$TRACEWID
 40
1.0
  9
$TEXTSTYLE
  7
STANDARD
  9
$CLAYER
  8
TEAM-MAS
  9
$CELTYPE
  6
BYLAYER
  9
$CECOLOR
 62
   256
  9
$DIMSCALE
 40
0.0
  9
$DIMASZ
 40
20.0
  9
$DIMEXO
 40
10.0
  9
$DIMDLI
 40
1.0
  9
$DIMRND
 40
0.0
  9
$DIMDLE
 40
0.0
  9
$DIMEXE
 40
1.0
  9
$DIMTP
 40
0.0
  9
$DIMTM
 40
0.0
  9
$DIMTXT
 40
35.0
  9
$DIMCEN
 40
1.0
  9
$DIMTSZ
 40
0.0
  9
$DIMTOL
 70
     0
  9
$DIMLIM
 70
     0
  9
$DIMTIH
 70
     0
  9
$DIMTOH
 70
     0
  9
$DIMSE1
 70
     0
  9
$DIMSE2
 70
     0
  9
$DIMTAD
 70
     0
  9
$DIMZIN
 70
     0
  9
$DIMBLK
  1

  9
$DIMASO
 70
     1
  9
$DIMSHO
 70
     0
  9
$DIMPOST
  1

  9
$DIMAPOST
  1

  9
$DIMALT
 70
     0
  9
$DIMALTD
 70
     2
  9
$DIMALTF
 40
25.4
  9
$DIMLFAC
 40
1.0
  9
$DIMTOFL
 70
     0
  9
$DIMTVP
 40
0.0
  9
$DIMTIX
 70
     0
  9
$DIMSOXD
 70
     0
  9
$DIMSAH
 70
     0
  9
$DIMBLK1
  1

  9
$DIMBLK2
  1

  9
$DIMSTYLE
  2
TEAM
  9
$DIMCLRD
 70
     9
  9
$DIMCLRE
 70
     9
  9
$DIMCLRT
 70
    11
  9
$DIMTFAC
 40
1.0
  9
$DIMGAP
 40
7.0
  9
$LUNITS
 70
     2
  9
$LUPREC
 70
     1
  9
$SKETCHINC
 40
1.0
  9
$FILLETRAD
 40
70.0
  9
$AUNITS
 70
     0
  9
$AUPREC
 70
     0
  9
$MENU
  1
ROPLANS
  9
$ELEVATION
 40
0.0
  9
$PELEVATION
 40
0.0
  9
$THICKNESS
 40
0.0
  9
$LIMCHECK
 70
     0
  9
$BLIPMODE
 70
     1
  9
$CHAMFERA
 40
0.0
  9
$CHAMFERB
 40
0.0
  9
$SKPOLY
 70
     0
  9
$TDCREATE
 40
2450392.957851
  9
$TDUPDATE
 40
2456272.034677
  9
$TDINDWG
 40
2.145179
  9
$TDUSRTIMER
 40
2.145179
  9
$USRTIMER
 70
     1
  9
$ANGBASE
 50
0.0
  9
$ANGDIR
 70
     0
  9
$PDMODE
 70
     0
  9
$PDSIZE
 40
0.0
  9
$PLINEWID
 40
0.0
  9
$COORDS
 70
     2
  9
$SPLFRAME
 70
     0
  9
$SPLINETYPE
 70
     6
  9
$SPLINESEGS
 70
     8
  9
$ATTDIA
 70
     0
  9
$ATTREQ
 70
     0
  9
$HANDLING
 70
     1
  9
$HANDSEED
  5
13C
  9
$SURFTAB1
 70
    24
  9
$SURFTAB2
 70
    24
  9
$SURFTYPE
 70
     6
  9
$SURFU
 70
     6
  9
$SURFV
 70
     6
  9
$UCSNAME
  2

  9
$UCSORG
 10
0.0
 20
0.0
 30
0.0
  9
$UCSXDIR
 10
1.0
 20
0.0
 30
0.0
  9
$UCSYDIR
 10
0.0
 20
1.0
 30
0.0
  9
$PUCSNAME
  2

  9
$PUCSORG
 10
0.0
 20
0.0
 30
0.0
  9
$PUCSXDIR
 10
1.0
 20
0.0
 30
0.0
  9
$PUCSYDIR
 10
0.0
 20
1.0
 30
0.0
  9
$USERI1
 70
     0
  9
$USERI2
 70
     0
  9
$USERI3
 70
     0
  9
$USERI4
 70
     0
  9
$USERI5
 70
     0
  9
$USERR1
 40
0.0
  9
$USERR2
 40
0.0
  9
$USERR3
 40
0.0
  9
$USERR4
 40
0.0
  9
$USERR5
 40
0.0
  9
$WORLDVIEW
 70
     1
  9
$SHADEDGE
 70
     0
  9
$SHADEDIF
 70
    70
  9
$TILEMODE
 70
     1
  9
$MAXACTVP
 70
    16
  9
$PLIMCHECK
 70
     0
  9
$PEXTMIN
 10
-0.805942
 20
0.005011
 30
0.0
  9
$PEXTMAX
 10
20.250094
 20
11.356329
 30
0.0
  9
$PLIMMIN
 10
0.0
 20
0.0
  9
$PLIMMAX
 10
12.0
 20
9.0
  9
$UNITMODE
 70
     0
  9
$VISRETAIN
 70
     0
  9
$PLINEGEN
 70
     0
  9
$PSLTSCALE
 70
     0
  0
ENDSEC
  0
SECTION
  2
TABLES
  0
TABLE
  2
VPORT
 70
     2
  0
VPORT
  2
*ACTIVE
 70
     0
 10
0.0
 20
0.0
 11
1.0
 21
1.0
 12
17.83679
 22
-115.757838
 13
0.0
 23
0.0
 14
1.0
 24
1.0
 15
50.0
 25
50.0
 16
0.0
 26
0.0
 36
1.0
 17
0.0
 27
0.0
 37
0.0
 40
510.639395
 41
1.911765
 42
50.0
 43
0.0
 44
0.0
 50
0.0
 51
0.0
 71
     0
 72
   100
 73
     1
 74
     1
 75
     0
 76
     0
 77
     0
 78
     0
  0
ENDTAB
  0
TABLE
  2
LTYPE
 70
     2
  0
LTYPE
  2
CONTINUOUS
 70
     0
  3
Solid Line
 72
    65
 73
     0
 40
0.0
  0
LTYPE
  2
31
 70
     0
  3

 72
    65
 73
     4
 40
2.1
 49
1.5
 49
-0.3
 49
0.0
 49
-0.3
  0
ENDTAB
  0
TABLE
  2
LAYER
 70
     9
  0
LAYER
  2
0
 70
     0
 62
     7
  6
CONTINUOUS
  0
LAYER
  2
DEFPOINTS
 70
     0
 62
     7
  6
CONTINUOUS
  0
LAYER
  2
TEAM-BODY
 70
     0
 62
     2
  6
CONTINUOUS
  0
LAYER
  2
TEAM-AXE
 70
     0
 62
    10
  6
31
  0
LAYER
  2
TEAM-MAS
 70
     0
 62
     9
  6
CONTINUOUS
  0
LAYER
  2
TEAM-TXT
 70
     0
 62
    11
  6
CONTINUOUS
  0
LAYER
  2
TEAM-DET1
 70
     0
 62
     4
  6
CONTINUOUS
  0
LAYER
  2
TEAM-DET3
 70
     0
 62
    14
  6
CONTINUOUS
  0
LAYER
  2
TEAM-INSP
 70
     0
 62
     5
  6
CONTINUOUS
  0
ENDTAB
  0
TABLE
  2
STYLE
 70
     2
  0
STYLE
  2
STANDARD
 70
     0
 40
0.0
 41
1.0
 50
0.0
 71
     0
 42
200.0
  3
txt
  4

  0
STYLE
  2
TEAM
 70
     0
 40
0.0
 41
0.8
 50
15.0
 71
     0
 42
7.0
  3
ROMANS.shx
  4

  0
ENDTAB
  0
TABLE
  2
VIEW
 70
     0
  0
ENDTAB
  0
TABLE
  2
UCS
 70
     0
  0
ENDTAB
  0
TABLE
  2
APPID
 70
     1
  0
APPID
  2
ACAD
 70
     0
  0
ENDTAB
  0
TABLE
  2
DIMSTYLE
 70
     1
  0
DIMSTYLE
  2
TEAM
 70
     0
  3

  4

  5

  6

  7

 40
0.0
 41
20.0
 42
10.0
 43
1.0
 44
1.0
 45
0.0
 46
0.0
 47
0.0
 48
0.0
140
35.0
141
1.0
142
0.0
143
25.4
144
1.0
145
0.0
146
1.0
147
7.0
 71
     0
 72
     0
 73
     0
 74
     0
 75
     0
 76
     0
 77
     0
 78
     0
170
     0
171
     2
172
     0
173
     0
174
     0
175
     0
176
     9
177
     9
178
    11
  0
ENDTAB
  0
ENDSEC
  0
SECTION
  2
BLOCKS
  0
BLOCK
  8
0
  2
$MODEL_SPACE
 70
     0
 10
0.0
 20
0.0
 30
0.0
  3
$MODEL_SPACE
  1

  0
ENDBLK
  5
127
  8
0
  0
BLOCK
 67
     1
  8
0
  2
$PAPER_SPACE
 70
     0
 10
0.0
 20
0.0
 30
0.0
  3
$PAPER_SPACE
  1

  0
ENDBLK
  5
125
 67
     1
  8
0
  0
BLOCK
  8
0
  2
*D0
 70
     1
 10
0.0
 20
0.0
 30
0.0
  3
*D0
  1

  0
LINE
  5
B3
  8
0
  6
BYBLOCK
 62
     9
 10
3828.0
 20
10.0
 30
0.0
 11
3828.0
 21
40.797998
 31
0.0
  0
LINE
  5
B4
  8
0
  6
BYBLOCK
 62
     9
 10
3785.0
 20
5.0
 30
0.0
 11
3785.0
 21
40.797998
 31
0.0
  0
LINE
  5
B5
  8
0
  6
BYBLOCK
 62
     9
 10
3848.0
 20
39.797998
 30
0.0
 11
3868.0
 21
39.797998
 31
0.0
  0
LINE
  5
B6
  8
0
  6
BYBLOCK
 62
     9
 10
3765.0
 20
39.797998
 30
0.0
 11
3745.0
 21
39.797998
 31
0.0
  0
TEXT
  5
B7
  8
0
  6
BYBLOCK
 62
    11
 10
3661.983021
 20
22.297998
 30
0.0
 40
35.0
  1
43
  0
LINE
  5
B8
  8
0
  6
BYBLOCK
 62
     9
 10
3828.0
 20
39.797998
 30
0.0
 11
3785.0
 21
39.797998
 31
0.0
  0
SOLID
  5
B9
  8
0
  6
BYBLOCK
 62
     9
 10
3848.0
 20
43.131331
 30
0.0
 11
3848.0
 21
36.464665
 31
0.0
 12
3828.0
 22
39.797998
 32
0.0
 13
3828.0
 23
39.797998
 33
0.0
  0
SOLID
  5
BA
  8
0
  6
BYBLOCK
 62
     9
 10
3765.0
 20
43.131331
 30
0.0
 11
3765.0
 21
36.464665
 31
0.0
 12
3785.0
 22
39.797998
 32
0.0
 13
3785.0
 23
39.797998
 33
0.0
  0
POINT
  5
BB
  8
DEFPOINTS
  6
BYBLOCK
 62
     0
 10
3828.0
 20
0.0
 30
0.0
  0
POINT
  5
BC
  8
DEFPOINTS
  6
BYBLOCK
 62
     0
 10
3785.0
 20
-5.0
 30
0.0
  0
POINT
  5
BD
  8
DEFPOINTS
  6
BYBLOCK
 62
     0
 10
3785.0
 20
39.797998
 30
0.0
  0
ENDBLK
  5
BF
  8
0
  0
BLOCK
  8
0
  2
*D1
 70
     1
 10
0.0
 20
0.0
 30
0.0
  3
*D1
  1

  0
LINE
  5
A5
  8
0
  6
BYBLOCK
 62
     9
 10
3818.0
 20
0.0
 30
0.0
 11
3694.75711
 21
0.0
 31
0.0
  0
LINE
  5
A6
  8
0
  6
BYBLOCK
 62
     9
 10
3818.0
 20
-222.0
 30
0.0
 11
3694.75711
 21
-222.0
 31
0.0
  0
LINE
  5
A7
  8
0
  6
BYBLOCK
 62
     9
 10
3695.75711
 20
-20.0
 30
0.0
 11
3695.75711
 21
-57.333333
 31
0.0
  0
LINE
  5
A8
  8
0
  6
BYBLOCK
 62
     9
 10
3695.75711
 20
-202.0
 30
0.0
 11
3695.75711
 21
-164.666667
 31
0.0
  0
SOLID
  5
A9
  8
0
  6
BYBLOCK
 62
     9
 10
3692.423777
 20
-20.0
 30
0.0
 11
3699.090443
 21
-20.0
 31
0.0
 12
3695.75711
 22
0.0
 32
0.0
 13
3695.75711
 23
0.0
 33
0.0
  0
SOLID
  5
AA
  8
0
  6
BYBLOCK
 62
     9
 10
3692.423777
 20
-202.0
 30
0.0
 11
3699.090443
 21
-202.0
 31
0.0
 12
3695.75711
 22
-222.0
 32
0.0
 13
3695.75711
 23
-222.0
 33
0.0
  0
TEXT
  5
AB
  8
0
  6
BYBLOCK
 62
    11
 10
3713.25711
 20
-157.666667
 30
0.0
 40
35.0
  1
222
 50
90.0
  0
POINT
  5
AC
  8
DEFPOINTS
  6
BYBLOCK
 62
     0
 10
3828.0
 20
0.0
 30
0.0
  0
POINT
  5
AD
  8
DEFPOINTS
  6
BYBLOCK
 62
     0
 10
3828.0
 20
-222.0
 30
0.0
  0
POINT
  5
AE
  8
DEFPOINTS
  6
BYBLOCK
 62
     0
 10
3695.75711
 20
-222.0
 30
0.0
  0
ENDBLK
  5
B0
  8
0
  0
BLOCK
  8
0
  2
*D2
 70
     1
 10
0.0
 20
0.0
 30
0.0
  3
*D2
  1

  0
LINE
  5
97
  8
0
  6
BYBLOCK
 62
     9
 10
3828.0
 20
10.0
 30
0.0
 11
3828.0
 21
40.797998
 31
0.0
  0
LINE
  5
98
  8
0
  6
BYBLOCK
 62
     9
 10
3994.0
 20
-32.523949
 30
0.0
 11
3994.0
 21
40.797998
 31
0.0
  0
LINE
  5
99
  8
0
  6
BYBLOCK
 62
     9
 10
3848.0
 20
39.797998
 30
0.0
 11
3863.166667
 21
39.797998
 31
0.0
  0
LINE
  5
9A
  8
0
  6
BYBLOCK
 62
     9
 10
3974.0
 20
39.797998
 30
0.0
 11
3958.833333
 21
39.797998
 31
0.0
  0
SOLID
  5
9B
  8
0
  6
BYBLOCK
 62
     9
 10
3848.0
 20
43.131331
 30
0.0
 11
3848.0
 21
36.464665
 31
0.0
 12
3828.0
 22
39.797998
 32
0.0
 13
3828.0
 23
39.797998
 33
0.0
  0
SOLID
  5
9C
  8
0
  6
BYBLOCK
 62
     9
 10
3974.0
 20
43.131331
 30
0.0
 11
3974.0
 21
36.464665
 31
0.0
 12
3994.0
 22
39.797998
 32
0.0
 13
3994.0
 23
39.797998
 33
0.0
  0
TEXT
  5
9D
  8
0
  6
BYBLOCK
 62
    11
 10
3870.166667
 20
22.297998
 30
0.0
 40
35.0
  1
166
  0
POINT
  5
9E
  8
DEFPOINTS
  6
BYBLOCK
 62
     0
 10
3828.0
 20
0.0
 30
0.0
  0
POINT
  5
9F
  8
DEFPOINTS
  6
BYBLOCK
 62
     0
 10
3994.0
 20
-42.523949
 30
0.0
  0
POINT
  5
A0
  8
DEFPOINTS
  6
BYBLOCK
 62
     0
 10
3994.0
 20
39.797998
 30
0.0
  0
ENDBLK
  5
A2
  8
0
  0
BLOCK
  8
0
  2
*D3
 70
     1
 10
0.0
 20
0.0
 30
0.0
  3
*D3
  1

  0
LINE
  5
31
  8
0
  6
BYBLOCK
 62
     9
 10
4268.0
 20
-179.0
 30
0.0
 11
4268.0
 21
-352.956155
 31
0.0
  0
LINE
  5
32
  8
0
  6
BYBLOCK
 62
     9
 10
3968.0
 20
-179.0
 30
0.0
 11
3968.0
 21
-352.956155
 31
0.0
  0
LINE
  5
33
  8
0
  6
BYBLOCK
 62
     9
 10
4248.0
 20
-351.956155
 30
0.0
 11
4165.833333
 21
-351.956155
 31
0.0
  0
LINE
  5
34
  8
0
  6
BYBLOCK
 62
     9
 10
3988.0
 20
-351.956155
 30
0.0
 11
4070.166667
 21
-351.956155
 31
0.0
  0
SOLID
  5
35
  8
0
  6
BYBLOCK
 62
     9
 10
4248.0
 20
-348.622822
 30
0.0
 11
4248.0
 21
-355.289488
 31
0.0
 12
4268.0
 22
-351.956155
 32
0.0
 13
4268.0
 23
-351.956155
 33
0.0
  0
SOLID
  5
36
  8
0
  6
BYBLOCK
 62
     9
 10
3988.0
 20
-348.622822
 30
0.0
 11
3988.0
 21
-355.289488
 31
0.0
 12
3968.0
 22
-351.956155
 32
0.0
 13
3968.0
 23
-351.956155
 33
0.0
  0
TEXT
  5
37
  8
0
  6
BYBLOCK
 62
    11
 10
4077.166667
 20
-369.456155
 30
0.0
 40
35.0
  1
300
  0
POINT
  5
38
  8
DEFPOINTS
  6
BYBLOCK
 62
     0
 10
4268.0
 20
-169.0
 30
0.0
  0
POINT
  5
39
  8
DEFPOINTS
  6
BYBLOCK
 62
     0
 10
3968.0
 20
-169.0
 30
0.0
  0
POINT
  5
3A
  8
DEFPOINTS
  6
BYBLOCK
 62
     0
 10
3968.0
 20
-351.956155
 30
0.0
  0
ENDBLK
  5
3C
  8
0
  0
BLOCK
  8
0
  2
*D4
 70
     1
 10
0.0
 20
0.0
 30
0.0
  3
*D4
  1

  0
LINE
  5
89
  8
0
  6
BYBLOCK
 62
     9
 10
4110.859381
 20
-176.000826
 30
0.0
 11
4066.57087
 21
-219.42229
 31
0.0
  0
LINE
  5
8A
  8
0
  6
BYBLOCK
 62
     9
 10
3986.859381
 20
-49.524774
 30
0.0
 11
3942.57087
 21
-92.946238
 31
0.0
  0
LINE
  5
8B
  8
0
  6
BYBLOCK
 62
     9
 10
4053.283281
 20
-204.440969
 30
0.0
 11
4038.772214
 21
-189.640143
 31
0.0
  0
LINE
  5
8C
  8
0
  6
BYBLOCK
 62
     9
 10
3957.286583
 20
-106.527394
 30
0.0
 11
3971.79765
 21
-121.32822
 31
0.0
  0
SOLID
  5
8D
  8
0
  6
BYBLOCK
 62
     9
 10
4055.663487
 20
-202.107361
 30
0.0
 11
4050.903074
 21
-206.774578
 31
0.0
 12
4067.284932
 22
-218.722207
 32
0.0
 13
4067.284932
 23
-218.722207
 33
0.0
  0
SOLID
  5
8E
  8
0
  6
BYBLOCK
 62
     9
 10
3959.666789
 20
-104.193786
 30
0.0
 11
3954.906377
 21
-108.861003
 31
0.0
 12
3943.284932
 22
-92.246156
 32
0.0
 13
3943.284932
 23
-92.246156
 33
0.0
  0
TEXT
  5
8F
  8
0
  6
BYBLOCK
 62
    11
 10
3964.202144
 20
-138.578098
 30
0.0
 40
35.0
  1
179
 50
314.433628
  0
POINT
  5
90
  8
DEFPOINTS
  6
BYBLOCK
 62
     0
 10
4118.0
 20
-169.0
 30
0.0
  0
POINT
  5
91
  8
DEFPOINTS
  6
BYBLOCK
 62
     0
 10
3994.0
 20
-42.523949
 30
0.0
  0
POINT
  5
92
  8
DEFPOINTS
  6
BYBLOCK
 62
     0
 10
3943.284932
 20
-92.246156
 30
0.0
  0
ENDBLK
  5
94
  8
0
  0
BLOCK
  8
0
  2
*D5
 70
     1
 10
0.0
 20
0.0
 30
0.0
  3
*D5
  1

  0
LINE
  5
22
  8
0
  6
BYBLOCK
 62
     9
 10
4182.0
 20
0.0
 30
0.0
 11
4357.158642
 21
0.0
 31
0.0
  0
LINE
  5
23
  8
0
  6
BYBLOCK
 62
     9
 10
4128.0
 20
-319.0
 30
0.0
 11
4357.158642
 21
-319.0
 31
0.0
  0
LINE
  5
24
  8
0
  6
BYBLOCK
 62
     9
 10
4356.158642
 20
-20.0
 30
0.0
 11
4356.158642
 21
-111.666667
 31
0.0
  0
LINE
  5
25
  8
0
  6
BYBLOCK
 62
     9
 10
4356.158642
 20
-299.0
 30
0.0
 11
4356.158642
 21
-207.333333
 31
0.0
  0
SOLID
  5
26
  8
0
  6
BYBLOCK
 62
     9
 10
4352.825309
 20
-20.0
 30
0.0
 11
4359.491976
 21
-20.0
 31
0.0
 12
4356.158642
 22
0.0
 32
0.0
 13
4356.158642
 23
0.0
 33
0.0
  0
SOLID
  5
27
  8
0
  6
BYBLOCK
 62
     9
 10
4352.825309
 20
-299.0
 30
0.0
 11
4359.491976
 21
-299.0
 31
0.0
 12
4356.158642
 22
-319.0
 32
0.0
 13
4356.158642
 23
-319.0
 33
0.0
  0
TEXT
  5
28
  8
0
  6
BYBLOCK
 62
    11
 10
4373.658642
 20
-200.333333
 30
0.0
 40
35.0
  1
319
 50
90.0
  0
POINT
  5
29
  8
DEFPOINTS
  6
BYBLOCK
 62
     0
 10
4172.0
 20
0.0
 30
0.0
  0
POINT
  5
2B
  8
DEFPOINTS
  6
BYBLOCK
 62
     0
 10
4118.0
 20
-319.0
 30
0.0
  0
POINT
  5
2C
  8
DEFPOINTS
  6
BYBLOCK
 62
     0
 10
4356.158642
 20
-319.0
 30
0.0
  0
ENDBLK
  5
2E
  8
0
  0
BLOCK
  8
0
  2
*D6
 70
     1
 10
0.0
 20
0.0
 30
0.0
  3
*D6
  1

  0
LINE
  5
7D
  8
0
  6
BYBLOCK
 62
     9
 10
3958.298211
 20
-55.538642
 30
0.0
 11
3939.507795
 21
-62.38848
 31
0.0
  0
TEXT
  5
7E
  8
0
  6
BYBLOCK
 62
    11
 10
3905.781007
 20
-62.434585
 30
0.0
 40
35.0
  1
%%c36
 50
20.028769
  0
SOLID
  5
7F
  8
0
  6
BYBLOCK
 62
     9
 10
4028.56015
 20
-26.377519
 30
0.0
 11
4030.843429
 21
-32.640991
 31
0.0
 12
4010.911374
 22
-36.359094
 32
0.0
 13
4010.911374
 23
-36.359094
 33
0.0
  0
SOLID
  5
80
  8
0
  6
BYBLOCK
 62
     9
 10
3957.156571
 20
-52.406906
 30
0.0
 11
3959.43985
 21
-58.670378
 31
0.0
 12
3977.088626
 22
-48.688803
 32
0.0
 13
3977.088626
 23
-48.688803
 33
0.0
  0
LINE
  5
81
  8
0
  6
BYBLOCK
 62
     9
 10
3993.0
 20
-42.523949
 30
0.0
 11
3995.0
 21
-42.523949
 31
0.0
  0
LINE
  5
82
  8
0
  6
BYBLOCK
 62
     9
 10
3994.0
 20
-43.523949
 30
0.0
 11
3994.0
 21
-41.523949
 31
0.0
  0
POINT
  5
83
  8
DEFPOINTS
  6
BYBLOCK
 62
     0
 10
3977.088626
 20
-48.688803
 30
0.0
  0
POINT
  5
84
  8
DEFPOINTS
  6
BYBLOCK
 62
     0
 10
4010.911374
 20
-36.359094
 30
0.0
  0
ENDBLK
  5
86
  8
0
  0
BLOCK
  8
0
  2
*D7
 70
     1
 10
0.0
 20
0.0
 30
0.0
  3
*D7
  1

  0
LINE
  5
6F
  8
0
  6
BYBLOCK
 62
     9
 10
3773.0
 20
0.0
 30
0.0
 11
3740.502186
 21
0.0
 31
0.0
  0
LINE
  5
70
  8
0
  6
BYBLOCK
 62
     9
 10
3773.0
 20
-200.0
 30
0.0
 11
3740.502186
 21
-200.0
 31
0.0
  0
LINE
  5
71
  8
0
  6
BYBLOCK
 62
     9
 10
3741.502186
 20
-20.0
 30
0.0
 11
3741.502186
 21
-52.166667
 31
0.0
  0
LINE
  5
72
  8
0
  6
BYBLOCK
 62
     9
 10
3741.502186
 20
-180.0
 30
0.0
 11
3741.502186
 21
-147.833333
 31
0.0
  0
SOLID
  5
73
  8
0
  6
BYBLOCK
 62
     9
 10
3738.168852
 20
-20.0
 30
0.0
 11
3744.835519
 21
-20.0
 31
0.0
 12
3741.502186
 22
0.0
 32
0.0
 13
3741.502186
 23
0.0
 33
0.0
  0
SOLID
  5
74
  8
0
  6
BYBLOCK
 62
     9
 10
3738.168852
 20
-180.0
 30
0.0
 11
3744.835519
 21
-180.0
 31
0.0
 12
3741.502186
 22
-200.0
 32
0.0
 13
3741.502186
 23
-200.0
 33
0.0
  0
TEXT
  5
75
  8
0
  6
BYBLOCK
 62
    11
 10
3759.002186
 20
-140.833333
 30
0.0
 40
35.0
  1
200
 50
90.0
  0
POINT
  5
76
  8
DEFPOINTS
  6
BYBLOCK
 62
     0
 10
3783.0
 20
0.0
 30
0.0
  0
POINT
  5
77
  8
DEFPOINTS
  6
BYBLOCK
 62
     0
 10
3783.0
 20
-200.0
 30
0.0
  0
POINT
  5
78
  8
DEFPOINTS
  6
BYBLOCK
 62
     0
 10
3741.502186
 20
-200.0
 30
0.0
  0
ENDBLK
  5
7A
  8
0
  0
BLOCK
  8
0
  2
*D8
 70
     1
 10
0.0
 20
0.0
 30
0.0
  3
*D8
  1

  0
LINE
  5
61
  8
0
  6
BYBLOCK
 62
     9
 10
3828.0
 20
10.0
 30
0.0
 11
3828.0
 21
80.480624
 31
0.0
  0
LINE
  5
62
  8
0
  6
BYBLOCK
 62
     9
 10
4172.0
 20
10.0
 30
0.0
 11
4172.0
 21
80.480624
 31
0.0
  0
LINE
  5
63
  8
0
  6
BYBLOCK
 62
     9
 10
3848.0
 20
79.480624
 30
0.0
 11
3946.333333
 21
79.480624
 31
0.0
  0
LINE
  5
64
  8
0
  6
BYBLOCK
 62
     9
 10
4152.0
 20
79.480624
 30
0.0
 11
4053.666667
 21
79.480624
 31
0.0
  0
SOLID
  5
65
  8
0
  6
BYBLOCK
 62
     9
 10
3848.0
 20
82.813957
 30
0.0
 11
3848.0
 21
76.14729
 31
0.0
 12
3828.0
 22
79.480624
 32
0.0
 13
3828.0
 23
79.480624
 33
0.0
  0
SOLID
  5
66
  8
0
  6
BYBLOCK
 62
     9
 10
4152.0
 20
82.813957
 30
0.0
 11
4152.0
 21
76.14729
 31
0.0
 12
4172.0
 22
79.480624
 32
0.0
 13
4172.0
 23
79.480624
 33
0.0
  0
TEXT
  5
67
  8
0
  6
BYBLOCK
 62
    11
 10
3953.333333
 20
61.980624
 30
0.0
 40
35.0
  1
344
  0
POINT
  5
68
  8
DEFPOINTS
  6
BYBLOCK
 62
     0
 10
3828.0
 20
0.0
 30
0.0
  0
POINT
  5
69
  8
DEFPOINTS
  6
BYBLOCK
 62
     0
 10
4172.0
 20
0.0
 30
0.0
  0
POINT
  5
6A
  8
DEFPOINTS
  6
BYBLOCK
 62
     0
 10
4172.0
 20
79.480624
 30
0.0
  0
ENDBLK
  5
6C
  8
0
  0
BLOCK
  8
0
  2
*D9
 70
     1
 10
0.0
 20
0.0
 30
0.0
  3
*D9
  1

  0
LINE
  5
53
  8
0
  6
BYBLOCK
 62
     9
 10
3828.0
 20
10.0
 30
0.0
 11
3828.0
 21
121.451486
 31
0.0
  0
LINE
  5
54
  8
0
  6
BYBLOCK
 62
     9
 10
4268.0
 20
-157.0
 30
0.0
 11
4268.0
 21
121.451486
 31
0.0
  0
LINE
  5
55
  8
0
  6
BYBLOCK
 62
     9
 10
3848.0
 20
120.451486
 30
0.0
 11
3997.25
 21
120.451486
 31
0.0
  0
LINE
  5
56
  8
0
  6
BYBLOCK
 62
     9
 10
4248.0
 20
120.451486
 30
0.0
 11
4098.75
 21
120.451486
 31
0.0
  0
SOLID
  5
57
  8
0
  6
BYBLOCK
 62
     9
 10
3848.0
 20
123.784819
 30
0.0
 11
3848.0
 21
117.118152
 31
0.0
 12
3828.0
 22
120.451486
 32
0.0
 13
3828.0
 23
120.451486
 33
0.0
  0
SOLID
  5
58
  8
0
  6
BYBLOCK
 62
     9
 10
4248.0
 20
123.784819
 30
0.0
 11
4248.0
 21
117.118152
 31
0.0
 12
4268.0
 22
120.451486
 32
0.0
 13
4268.0
 23
120.451486
 33
0.0
  0
TEXT
  5
59
  8
0
  6
BYBLOCK
 62
    11
 10
4004.25
 20
102.951486
 30
0.0
 40
35.0
  1
440
  0
POINT
  5
5A
  8
DEFPOINTS
  6
BYBLOCK
 62
     0
 10
3828.0
 20
0.0
 30
0.0
  0
POINT
  5
5B
  8
DEFPOINTS
  6
BYBLOCK
 62
     0
 10
4268.0
 20
-167.0
 30
0.0
  0
POINT
  5
5C
  8
DEFPOINTS
  6
BYBLOCK
 62
     0
 10
4268.0
 20
120.451486
 30
0.0
  0
ENDBLK
  5
5E
  8
0
  0
BLOCK
  8
0
  2
*D10
 70
     1
 10
0.0
 20
0.0
 30
0.0
  3
*D10
  1

  0
LINE
  5
44
  8
0
  6
BYBLOCK
 62
     9
 10
4182.0
 20
0.0
 30
0.0
 11
4312.13931
 21
0.0
 31
0.0
  0
LINE
  5
45
  8
0
  6
BYBLOCK
 62
     9
 10
4004.0
 20
-42.523949
 30
0.0
 11
4312.13931
 21
-42.523949
 31
0.0
  0
LINE
  5
46
  8
0
  6
BYBLOCK
 62
     9
 10
4311.13931
 20
20.0
 30
0.0
 11
4311.13931
 21
40.0
 31
0.0
  0
LINE
  5
47
  8
0
  6
BYBLOCK
 62
     9
 10
4311.13931
 20
-62.523949
 30
0.0
 11
4311.13931
 21
-82.523949
 31
0.0
  0
TEXT
  5
48
  8
0
  6
BYBLOCK
 62
    11
 10
4328.63931
 20
24.155097
 30
0.0
 40
35.0
  1
42.5
 50
90.0
  0
LINE
  5
49
  8
0
  6
BYBLOCK
 62
     9
 10
4311.13931
 20
0.0
 30
0.0
 11
4311.13931
 21
-42.523949
 31
0.0
  0
SOLID
  5
4A
  8
0
  6
BYBLOCK
 62
     9
 10
4307.805977
 20
20.0
 30
0.0
 11
4314.472644
 21
20.0
 31
0.0
 12
4311.13931
 22
0.0
 32
0.0
 13
4311.13931
 23
0.0
 33
0.0
  0
SOLID
  5
4B
  8
0
  6
BYBLOCK
 62
     9
 10
4307.805977
 20
-62.523949
 30
0.0
 11
4314.472644
 21
-62.523949
 31
0.0
 12
4311.13931
 22
-42.523949
 32
0.0
 13
4311.13931
 23
-42.523949
 33
0.0
  0
POINT
  5
4C
  8
DEFPOINTS
  6
BYBLOCK
 62
     0
 10
4172.0
 20
0.0
 30
0.0
  0
POINT
  5
4D
  8
DEFPOINTS
  6
BYBLOCK
 62
     0
 10
3994.0
 20
-42.523949
 30
0.0
  0
POINT
  5
4E
  8
DEFPOINTS
  6
BYBLOCK
 62
     0
 10
4311.13931
 20
-42.523949
 30
0.0
  0
ENDBLK
  5
50
  8
0
  0
ENDSEC
  0
SECTION
  2
ENTITIES
  0
DIMENSION
  5
20
  8
TEAM-MAS
  2
*D5
 10
356.158642
 20
-319.0
 30
0.0
 11
356.158642
 21
-159.5
 31
0.0
 12
-4000.0
 22
0.0
 32
0.0
 13
172.0
 23
0.0
 33
0.0
 14
118.0
 24
-319.0
 34
0.0
 50
270.0
1001
ACAD
1000
DSTYLE
1002
{
1070
    40
1040
1.0
1002
}
  0
DIMENSION
  5
2F
  8
TEAM-MAS
  2
*D3
 10
-32.0
 20
-351.956155
 30
0.0
 11
118.0
 21
-351.956155
 31
0.0
 12
-4000.0
 22
0.0
 32
0.0
 13
268.0
 23
-169.0
 33
0.0
 14
-32.0
 24
-169.0
 34
0.0
1001
ACAD
1000
DSTYLE
1002
{
1070
    40
1040
1.0
1002
}
  0
CIRCLE
  5
3D
  8
TEAM-BODY
 10
118.0
 20
-169.0
 30
0.0
 40
150.0
  0
TEXT
  5
3F
  8
TEAM-TXT
 10
-246.483113
 20
-265.037745
 30
0.0
 40
30.0
  1
team 217026
 41
0.8
 51
15.0
  7
TEAM
  0
DIMENSION
  5
42
  8
TEAM-MAS
  2
*D10
 10
311.13931
 20
-42.523949
 30
0.0
 11
311.13931
 21
76.655097
 31
0.0
 12
-4000.0
 22
0.0
 32
0.0
 70
   128
  1
42.5
 13
172.0
 23
0.0
 33
0.0
 14
-6.0
 24
-42.523949
 34
0.0
 50
90.0
1001
ACAD
1000
DSTYLE
1002
{
1070
    40
1040
1.0
1002
}
  0
DIMENSION
  5
51
  8
TEAM-MAS
  2
*D9
 10
268.0
 20
120.451486
 30
0.0
 11
48.0
 21
120.451486
 31
0.0
 12
-4000.0
 22
0.0
 32
0.0
 13
-172.0
 23
0.0
 33
0.0
 14
268.0
 24
-167.0
 34
0.0
1001
ACAD
1000
DSTYLE
1002
{
1070
    40
1040
1.0
1002
}
  0
DIMENSION
  5
5F
  8
TEAM-MAS
  2
*D8
 10
172.0
 20
79.480624
 30
0.0
 11
0.0
 21
79.480624
 31
0.0
 12
-4000.0
 22
0.0
 32
0.0
 13
-172.0
 23
0.0
 33
0.0
 14
172.0
 24
0.0
 34
0.0
1001
ACAD
1000
DSTYLE
1002
{
1070
    40
1040
1.0
1002
}
  0
DIMENSION
  5
6D
  8
TEAM-MAS
  2
*D7
 10
-258.497814
 20
-200.0
 30
0.0
 11
-258.497814
 21
-100.0
 31
0.0
 12
-4000.0
 22
0.0
 32
0.0
 13
-217.0
 23
0.0
 33
0.0
 14
-217.0
 24
-200.0
 34
0.0
 50
90.0
1001
ACAD
1000
DSTYLE
1002
{
1070
    40
1040
1.0
1002
}
  0
DIMENSION
  5
7B
  8
TEAM-MAS
  2
*D6
 10
10.911374
 20
-36.359094
 30
0.0
 11
-56.368299
 21
-30.010015
 31
0.0
 12
-4000.0
 22
0.0
 32
0.0
 70
   131
 15
-22.911374
 25
-48.688803
 35
0.0
 40
0.0
1001
ACAD
1000
DSTYLE
1002
{
1070
   288
1070
     1
1070
    40
1040
1.0
1002
}
  0
DIMENSION
  5
87
  8
TEAM-MAS
  2
*D4
 10
-56.715068
 20
-92.246156
 30
0.0
 11
5.284932
 21
-155.484182
 31
0.0
 12
-4000.0
 22
0.0
 32
0.0
 70
     1
  1
179
 13
118.0
 23
-169.0
 33
0.0
 14
-6.0
 24
-42.523949
 34
0.0
1001
ACAD
1000
DSTYLE
1002
{
1070
    40
1040
1.0
1002
}
  0
DIMENSION
  5
95
  8
TEAM-MAS
  2
*D2
 10
-6.0
 20
39.797998
 30
0.0
 11
-89.0
 21
39.797998
 31
0.0
 12
-4000.0
 22
0.0
 32
0.0
 13
-172.0
 23
0.0
 33
0.0
 14
-6.0
 24
-42.523949
 34
0.0
1001
ACAD
1000
DSTYLE
1002
{
1070
    40
1040
1.0
1002
}
  0
DIMENSION
  5
A3
  8
TEAM-MAS
  2
*D1
 10
-304.24289
 20
-222.0
 30
0.0
 11
-304.24289
 21
-111.0
 31
0.0
 12
-4000.0
 22
0.0
 32
0.0
 13
-172.0
 23
0.0
 33
0.0
 14
-172.0
 24
-222.0
 34
0.0
 50
270.0
1001
ACAD
1000
DSTYLE
1002
{
1070
    40
1040
1.0
1002
}
  0
DIMENSION
  5
B1
  8
TEAM-MAS
  2
*D0
 10
-215.0
 20
39.797998
 30
0.0
 11
-308.850312
 21
39.797998
 31
0.0
 12
-4000.0
 22
0.0
 32
0.0
 70
   128
 13
-172.0
 23
0.0
 33
0.0
 14
-215.0
 24
-5.0
 34
0.0
1001
ACAD
1000
DSTYLE
1002
{
1070
    40
1040
1.0
1002
}
  0
CIRCLE
  5
C0
  8
TEAM-DET1
 10
-6.0
 20
-42.523949
 30
0.0
 40
18.0
  0
LINE
  5
C2
  8
TEAM-AXE
 10
14.0
 20
-42.523949
 30
0.0
 11
-26.0
 21
-42.523949
 31
0.0
  0
LINE
  5
C5
  8
TEAM-AXE
 10
-6.0
 20
-62.523949
 30
0.0
 11
-6.0
 21
-22.523949
 31
0.0
  0
POLYLINE
  5
C6
  8
TEAM-BODY
 66
     1
 10
0.0
 20
0.0
 30
0.0
  0
VERTEX
  5
12D
  8
TEAM-BODY
 10
-22.324624
 20
-222.0
 30
0.0
  0
VERTEX
  5
12E
  8
TEAM-BODY
 10
-172.0
 20
-222.0
 30
0.0
  0
VERTEX
  5
12F
  8
TEAM-BODY
 10
-172.0
 20
0.0
 30
0.0
  0
VERTEX
  5
130
  8
TEAM-BODY
 10
172.0
 20
0.0
 30
0.0
  0
VERTEX
  5
131
  8
TEAM-BODY
 10
172.0
 20
-29.057155
 30
0.0
  0
SEQEND
  5
132
  8
TEAM-BODY
  0
CIRCLE
  5
C7
  8
TEAM-BODY
 10
118.0
 20
-169.0
 30
0.0
 40
20.0
  0
LINE
  5
C8
  8
TEAM-AXE
 10
118.0
 20
-209.0
 30
0.0
 11
118.0
 21
-129.0
 31
0.0
  0
LINE
  5
C9
  8
TEAM-AXE
 10
158.0
 20
-169.0
 30
0.0
 11
78.0
 21
-169.0
 31
0.0
  0
CIRCLE
  5
CA
  8
TEAM-DET1
 10
118.0
 20
-169.0
 30
0.0
 40
30.0
  0
CIRCLE
  5
CB
  8
TEAM-INSP
 10
48.0
 20
0.0
 30
0.0
 40
10.0
  0
LINE
  5
CD
  8
TEAM-DET3
 10
-215.0
 20
-200.0
 30
0.0
 11
-217.0
 21
-200.0
 31
0.0
  0
POLYLINE
  5
CF
  8
TEAM-DET3
 66
     1
 10
0.0
 20
0.0
 30
0.0
  0
VERTEX
  5
133
  8
TEAM-DET3
 10
-172.0
 20
-5.0
 30
0.0
  0
VERTEX
  5
134
  8
TEAM-DET3
 10
-215.0
 20
-5.0
 30
0.0
  0
VERTEX
  5
135
  8
TEAM-DET3
 10
-215.0
 20
-200.0
 30
0.0
  0
SEQEND
  5
136
  8
TEAM-DET3
  0
POLYLINE
  5
D0
  8
TEAM-DET3
 66
     1
 10
0.0
 20
0.0
 30
0.0
  0
VERTEX
  5
137
  8
TEAM-DET3
 10
-172.0
 20
0.0
 30
0.0
  0
VERTEX
  5
138
  8
TEAM-DET3
 10
-217.0
 20
0.0
 30
0.0
  0
VERTEX
  5
139
  8
TEAM-DET3
 10
-217.0
 20
-200.0
 30
0.0
  0
SEQEND
  5
13A
  8
TEAM-DET3
  0
ENDSEC
  0
EOF
