  0
SECTION
  2
HEADER
  9
$ACADVER
  1
AC1009
  9
$INSBASE
 10
0.0
 20
0.0
 30
0.0
  9
$EXTMIN
 10
-237.429854
 20
-10.032855
 30
0.0
  9
$EXTMAX
 10
289.757295
 20
953.086524
 30
0.000005
  9
$LIMMIN
 10
-237.429854
 20
-10.032855
  9
$LIMMAX
 10
289.757295
 20
953.086524
  9
$ORTHOMODE
 70
     1
  9
$REGENMODE
 70
     1
  9
$FILLMODE
 70
     1
  9
$QTEXTMODE
 70
     0
  9
$MIRRTEXT
 70
     0
  9
$DRAGMODE
 70
     2
  9
$LTSCALE
 40
50.0
  9
$OSMODE
 70
     0
  9
$ATTMODE
 70
     1
  9
$TEXTSIZE
 40
200.0
  9
$TRACEWID
 40
1.0
  9
$TEXTSTYLE
  7
STANDARD
  9
$CLAYER
  8
TEAM-MAS
  9
$CELTYPE
  6
BYLAYER
  9
$CECOLOR
 62
   256
  9
$DIMSCALE
 40
0.0
  9
$DIMASZ
 40
20.0
  9
$DIMEXO
 40
10.0
  9
$DIMDLI
 40
1.0
  9
$DIMRND
 40
0.0
  9
$DIMDLE
 40
0.0
  9
$DIMEXE
 40
1.0
  9
$DIMTP
 40
0.0
  9
$DIMTM
 40
0.0
  9
$DIMTXT
 40
35.0
  9
$DIMCEN
 40
1.0
  9
$DIMTSZ
 40
0.0
  9
$DIMTOL
 70
     0
  9
$DIMLIM
 70
     0
  9
$DIMTIH
 70
     0
  9
$DIMTOH
 70
     0
  9
$DIMSE1
 70
     0
  9
$DIMSE2
 70
     0
  9
$DIMTAD
 70
     0
  9
$DIMZIN
 70
     0
  9
$DIMBLK
  1

  9
$DIMASO
 70
     1
  9
$DIMSHO
 70
     0
  9
$DIMPOST
  1

  9
$DIMAPOST
  1

  9
$DIMALT
 70
     0
  9
$DIMALTD
 70
     2
  9
$DIMALTF
 40
25.4
  9
$DIMLFAC
 40
1.0
  9
$DIMTOFL
 70
     0
  9
$DIMTVP
 40
0.0
  9
$DIMTIX
 70
     0
  9
$DIMSOXD
 70
     0
  9
$DIMSAH
 70
     0
  9
$DIMBLK1
  1

  9
$DIMBLK2
  1

  9
$DIMSTYLE
  2
TEAM
  9
$DIMCLRD
 70
     9
  9
$DIMCLRE
 70
     9
  9
$DIMCLRT
 70
    11
  9
$DIMTFAC
 40
1.0
  9
$DIMGAP
 40
7.0
  9
$LUNITS
 70
     2
  9
$LUPREC
 70
     1
  9
$SKETCHINC
 40
1.0
  9
$FILLETRAD
 40
70.0
  9
$AUNITS
 70
     0
  9
$AUPREC
 70
     0
  9
$MENU
  1
ROPLANS
  9
$ELEVATION
 40
0.0
  9
$PELEVATION
 40
0.0
  9
$THICKNESS
 40
0.0
  9
$LIMCHECK
 70
     0
  9
$BLIPMODE
 70
     1
  9
$CHAMFERA
 40
0.0
  9
$CHAMFERB
 40
0.0
  9
$SKPOLY
 70
     0
  9
$TDCREATE
 40
2450392.957851
  9
$TDUPDATE
 40
2456272.034677
  9
$TDINDWG
 40
2.145179
  9
$TDUSRTIMER
 40
2.145179
  9
$USRTIMER
 70
     1
  9
$ANGBASE
 50
0.0
  9
$ANGDIR
 70
     0
  9
$PDMODE
 70
     0
  9
$PDSIZE
 40
0.0
  9
$PLINEWID
 40
0.0
  9
$COORDS
 70
     2
  9
$SPLFRAME
 70
     0
  9
$SPLINETYPE
 70
     6
  9
$SPLINESEGS
 70
     8
  9
$ATTDIA
 70
     0
  9
$ATTREQ
 70
     0
  9
$HANDLING
 70
     1
  9
$HANDSEED
  5
143
  9
$SURFTAB1
 70
    24
  9
$SURFTAB2
 70
    24
  9
$SURFTYPE
 70
     6
  9
$SURFU
 70
     6
  9
$SURFV
 70
     6
  9
$UCSNAME
  2

  9
$UCSORG
 10
0.0
 20
0.0
 30
0.0
  9
$UCSXDIR
 10
1.0
 20
0.0
 30
0.0
  9
$UCSYDIR
 10
0.0
 20
1.0
 30
0.0
  9
$PUCSNAME
  2

  9
$PUCSORG
 10
0.0
 20
0.0
 30
0.0
  9
$PUCSXDIR
 10
1.0
 20
0.0
 30
0.0
  9
$PUCSYDIR
 10
0.0
 20
1.0
 30
0.0
  9
$USERI1
 70
     0
  9
$USERI2
 70
     0
  9
$USERI3
 70
     0
  9
$USERI4
 70
     0
  9
$USERI5
 70
     0
  9
$USERR1
 40
0.0
  9
$USERR2
 40
0.0
  9
$USERR3
 40
0.0
  9
$USERR4
 40
0.0
  9
$USERR5
 40
0.0
  9
$WORLDVIEW
 70
     1
  9
$SHADEDGE
 70
     0
  9
$SHADEDIF
 70
    70
  9
$TILEMODE
 70
     1
  9
$MAXACTVP
 70
    16
  9
$PLIMCHECK
 70
     0
  9
$PEXTMIN
 10
-0.805942
 20
0.005011
 30
0.0
  9
$PEXTMAX
 10
20.250094
 20
11.356329
 30
0.0
  9
$PLIMMIN
 10
0.0
 20
0.0
  9
$PLIMMAX
 10
12.0
 20
9.0
  9
$UNITMODE
 70
     0
  9
$VISRETAIN
 70
     0
  9
$PLINEGEN
 70
     0
  9
$PSLTSCALE
 70
     0
  0
ENDSEC
  0
SECTION
  2
TABLES
  0
TABLE
  2
VPORT
 70
     2
  0
VPORT
  2
*ACTIVE
 70
     0
 10
0.0
 20
0.0
 11
1.0
 21
1.0
 12
26.163721
 22
471.526835
 13
0.0
 23
0.0
 14
1.0
 24
1.0
 15
50.0
 25
50.0
 16
0.0
 26
0.0
 36
1.0
 17
0.0
 27
0.0
 37
0.0
 40
969.18309
 41
1.911765
 42
50.0
 43
0.0
 44
0.0
 50
0.0
 51
0.0
 71
     0
 72
   100
 73
     1
 74
     1
 75
     0
 76
     0
 77
     0
 78
     0
  0
ENDTAB
  0
TABLE
  2
LTYPE
 70
     3
  0
LTYPE
  2
CONTINUOUS
 70
     0
  3
Solid Line
 72
    65
 73
     0
 40
0.0
  0
LTYPE
  2
31
 70
     0
  3

 72
    65
 73
     4
 40
2.1
 49
1.5
 49
-0.3
 49
0.0
 49
-0.3
  0
LTYPE
  2
22
 70
     0
  3

 72
    65
 73
     2
 40
1.4
 49
1.2
 49
-0.2
  0
ENDTAB
  0
TABLE
  2
LAYER
 70
    11
  0
LAYER
  2
0
 70
     0
 62
     7
  6
CONTINUOUS
  0
LAYER
  2
DEFPOINTS
 70
     0
 62
     7
  6
CONTINUOUS
  0
LAYER
  2
TEAM-BODY
 70
     0
 62
     2
  6
CONTINUOUS
  0
LAYER
  2
TEAM-AXE
 70
     0
 62
    10
  6
31
  0
LAYER
  2
TEAM-MAS
 70
     0
 62
     9
  6
CONTINUOUS
  0
LAYER
  2
TEAM-TXT
 70
     0
 62
    11
  6
CONTINUOUS
  0
LAYER
  2
TEAM-COLD
 70
     0
 62
     3
  6
CONTINUOUS
  0
LAYER
  2
TEAM-HIDE
 70
     0
 62
     8
  6
22
  0
LAYER
  2
TEAM-KAN
 70
     0
 62
     6
  6
CONTINUOUS
  0
LAYER
  2
TEAM-WARM
 70
     0
 62
     1
  6
CONTINUOUS
  0
LAYER
  2
TEAM-INSP
 70
     0
 62
     5
  6
CONTINUOUS
  0
ENDTAB
  0
TABLE
  2
STYLE
 70
     2
  0
STYLE
  2
STANDARD
 70
     0
 40
0.0
 41
1.0
 50
0.0
 71
     0
 42
200.0
  3
txt
  4

  0
STYLE
  2
TEAM
 70
     0
 40
0.0
 41
0.8
 50
15.0
 71
     0
 42
7.0
  3
ROMANS.shx
  4

  0
ENDTAB
  0
TABLE
  2
VIEW
 70
     0
  0
ENDTAB
  0
TABLE
  2
UCS
 70
     0
  0
ENDTAB
  0
TABLE
  2
APPID
 70
     1
  0
APPID
  2
ACAD
 70
     0
  0
ENDTAB
  0
TABLE
  2
DIMSTYLE
 70
     1
  0
DIMSTYLE
  2
TEAM
 70
     0
  3

  4

  5

  6

  7

 40
0.0
 41
20.0
 42
10.0
 43
1.0
 44
1.0
 45
0.0
 46
0.0
 47
0.0
 48
0.0
140
35.0
141
1.0
142
0.0
143
25.4
144
1.0
145
0.0
146
1.0
147
7.0
 71
     0
 72
     0
 73
     0
 74
     0
 75
     0
 76
     0
 77
     0
 78
     0
170
     0
171
     2
172
     0
173
     0
174
     0
175
     0
176
     9
177
     9
178
    11
  0
ENDTAB
  0
ENDSEC
  0
SECTION
  2
BLOCKS
  0
BLOCK
  8
0
  2
$MODEL_SPACE
 70
     0
 10
0.0
 20
0.0
 30
0.0
  3
$MODEL_SPACE
  1

  0
ENDBLK
  5
128
  8
0
  0
BLOCK
 67
     1
  8
0
  2
$PAPER_SPACE
 70
     0
 10
0.0
 20
0.0
 30
0.0
  3
$PAPER_SPACE
  1

  0
ENDBLK
  5
126
 67
     1
  8
0
  0
BLOCK
  8
0
  2
*D0
 70
     1
 10
0.0
 20
0.0
 30
0.0
  3
*D0
  1

  0
LINE
  5
AD
  8
0
  6
BYBLOCK
 62
     9
 10
10.0
 20
0.0
 30
0.0
 11
273.242035
 21
0.0
 31
0.0
  0
LINE
  5
AE
  8
0
  6
BYBLOCK
 62
     9
 10
230.0
 20
900.0
 30
0.0
 11
273.242035
 21
900.0
 31
0.0
  0
LINE
  5
AF
  8
0
  6
BYBLOCK
 62
     9
 10
272.242035
 20
20.0
 30
0.0
 11
272.242035
 21
402.166667
 31
0.0
  0
LINE
  5
B0
  8
0
  6
BYBLOCK
 62
     9
 10
272.242035
 20
880.0
 30
0.0
 11
272.242035
 21
497.833333
 31
0.0
  0
SOLID
  5
B1
  8
0
  6
BYBLOCK
 62
     9
 10
268.908701
 20
20.0
 30
0.0
 11
275.575368
 21
20.0
 31
0.0
 12
272.242035
 22
0.0
 32
0.0
 13
272.242035
 23
0.0
 33
0.0
  0
SOLID
  5
B2
  8
0
  6
BYBLOCK
 62
     9
 10
268.908701
 20
880.0
 30
0.0
 11
275.575368
 21
880.0
 31
0.0
 12
272.242035
 22
900.0
 32
0.0
 13
272.242035
 23
900.0
 33
0.0
  0
TEXT
  5
B3
  8
0
  6
BYBLOCK
 62
    11
 10
289.742035
 20
409.166667
 30
0.0
 40
35.0
  1
900
 50
90.0
  0
POINT
  5
B4
  8
DEFPOINTS
  6
BYBLOCK
 62
     0
 10
0.0
 20
0.0
 30
0.0
  0
POINT
  5
B5
  8
DEFPOINTS
  6
BYBLOCK
 62
     0
 10
220.0
 20
900.0
 30
0.0
  0
POINT
  5
B6
  8
DEFPOINTS
  6
BYBLOCK
 62
     0
 10
272.242035
 20
900.0
 30
0.0
  0
ENDBLK
  5
B8
  8
0
  0
BLOCK
  8
0
  2
*D1
 70
     1
 10
0.0
 20
0.0
 30
0.0
  3
*D1
  1

  0
LINE
  5
4D
  8
0
  6
BYBLOCK
 62
     9
 10
10.0
 20
0.0
 30
0.0
 11
176.605396
 21
0.0
 31
0.0
  0
LINE
  5
4E
  8
0
  6
BYBLOCK
 62
     9
 10
-69.0
 20
550.0
 30
0.0
 11
176.605396
 21
550.0
 31
0.0
  0
LINE
  5
4F
  8
0
  6
BYBLOCK
 62
     9
 10
175.605396
 20
20.0
 30
0.0
 11
175.605396
 21
224.25
 31
0.0
  0
LINE
  5
50
  8
0
  6
BYBLOCK
 62
     9
 10
175.605396
 20
530.0
 30
0.0
 11
175.605396
 21
325.75
 31
0.0
  0
SOLID
  5
51
  8
0
  6
BYBLOCK
 62
     9
 10
172.272062
 20
20.0
 30
0.0
 11
178.938729
 21
20.0
 31
0.0
 12
175.605396
 22
0.0
 32
0.0
 13
175.605396
 23
0.0
 33
0.0
  0
SOLID
  5
52
  8
0
  6
BYBLOCK
 62
     9
 10
172.272062
 20
530.0
 30
0.0
 11
178.938729
 21
530.0
 31
0.0
 12
175.605396
 22
550.0
 32
0.0
 13
175.605396
 23
550.0
 33
0.0
  0
TEXT
  5
53
  8
0
  6
BYBLOCK
 62
    11
 10
193.105396
 20
231.25
 30
0.0
 40
35.0
  1
550
 50
90.0
  0
POINT
  5
54
  8
DEFPOINTS
  6
BYBLOCK
 62
     0
 10
0.0
 20
0.0
 30
0.0
  0
POINT
  5
55
  8
DEFPOINTS
  6
BYBLOCK
 62
     0
 10
-79.0
 20
550.0
 30
0.0
  0
POINT
  5
56
  8
DEFPOINTS
  6
BYBLOCK
 62
     0
 10
175.605396
 20
550.0
 30
0.0
  0
ENDBLK
  5
58
  8
0
  0
BLOCK
  8
0
  2
*D2
 70
     1
 10
0.0
 20
0.0
 30
0.0
  3
*D2
  1

  0
LINE
  5
5B
  8
0
  6
BYBLOCK
 62
     9
 10
10.0
 20
0.0
 30
0.0
 11
224.355145
 21
0.0
 31
0.0
  0
LINE
  5
5C
  8
0
  6
BYBLOCK
 62
     9
 10
-79.050126
 20
620.22
 30
0.0
 11
224.355145
 21
620.22
 31
0.0
  0
LINE
  5
5D
  8
0
  6
BYBLOCK
 62
     9
 10
223.355145
 20
20.0
 30
0.0
 11
223.355145
 21
259.36
 31
0.0
  0
LINE
  5
5E
  8
0
  6
BYBLOCK
 62
     9
 10
223.355145
 20
600.22
 30
0.0
 11
223.355145
 21
360.86
 31
0.0
  0
SOLID
  5
5F
  8
0
  6
BYBLOCK
 62
     9
 10
220.021812
 20
20.0
 30
0.0
 11
226.688479
 21
20.0
 31
0.0
 12
223.355145
 22
0.0
 32
0.0
 13
223.355145
 23
0.0
 33
0.0
  0
SOLID
  5
60
  8
0
  6
BYBLOCK
 62
     9
 10
220.021812
 20
600.22
 30
0.0
 11
226.688479
 21
600.22
 31
0.0
 12
223.355145
 22
620.22
 32
0.0
 13
223.355145
 23
620.22
 33
0.0
  0
TEXT
  5
61
  8
0
  6
BYBLOCK
 62
    11
 10
240.855145
 20
266.36
 30
0.0
 40
35.0
  1
620
 50
90.0
  0
POINT
  5
62
  8
DEFPOINTS
  6
BYBLOCK
 62
     0
 10
0.0
 20
0.0
 30
0.0
  0
POINT
  5
63
  8
DEFPOINTS
  6
BYBLOCK
 62
     0
 10
-89.050126
 20
620.22
 30
0.0
  0
POINT
  5
64
  8
DEFPOINTS
  6
BYBLOCK
 62
     0
 10
223.355145
 20
620.22
 30
0.0
  0
ENDBLK
  5
66
  8
0
  0
BLOCK
  8
0
  2
*D3
 70
     1
 10
0.0
 20
0.0
 30
0.0
  3
*D3
  1

  0
LINE
  5
86
  8
0
  6
BYBLOCK
 62
     9
 10
-109.0
 20
430.0
 30
0.0
 11
-220.923466
 21
430.0
 31
0.0
  0
LINE
  5
87
  8
0
  6
BYBLOCK
 62
     9
 10
-90.0
 20
900.0
 30
0.0
 11
-220.923466
 21
900.0
 31
0.0
  0
LINE
  5
88
  8
0
  6
BYBLOCK
 62
     9
 10
-219.923466
 20
450.0
 30
0.0
 11
-219.923466
 21
614.25
 31
0.0
  0
LINE
  5
89
  8
0
  6
BYBLOCK
 62
     9
 10
-219.923466
 20
880.0
 30
0.0
 11
-219.923466
 21
715.75
 31
0.0
  0
SOLID
  5
8A
  8
0
  6
BYBLOCK
 62
     9
 10
-223.256799
 20
450.0
 30
0.0
 11
-216.590132
 21
450.0
 31
0.0
 12
-219.923466
 22
430.0
 32
0.0
 13
-219.923466
 23
430.0
 33
0.0
  0
SOLID
  5
8B
  8
0
  6
BYBLOCK
 62
     9
 10
-223.256799
 20
880.0
 30
0.0
 11
-216.590132
 21
880.0
 31
0.0
 12
-219.923466
 22
900.0
 32
0.0
 13
-219.923466
 23
900.0
 33
0.0
  0
TEXT
  5
8C
  8
0
  6
BYBLOCK
 62
    11
 10
-202.423466
 20
621.25
 30
0.0
 40
35.0
  1
470
 50
90.0
  0
POINT
  5
8D
  8
DEFPOINTS
  6
BYBLOCK
 62
     0
 10
-99.0
 20
430.0
 30
0.0
  0
POINT
  5
8E
  8
DEFPOINTS
  6
BYBLOCK
 62
     0
 10
-80.0
 20
900.0
 30
0.0
  0
POINT
  5
8F
  8
DEFPOINTS
  6
BYBLOCK
 62
     0
 10
-219.923466
 20
900.0
 30
0.0
  0
ENDBLK
  5
91
  8
0
  0
BLOCK
  8
0
  2
*D4
 70
     1
 10
0.0
 20
0.0
 30
0.0
  3
*D4
  1

  0
LINE
  5
94
  8
0
  6
BYBLOCK
 62
     9
 10
-109.0
 20
430.0
 30
0.0
 11
-173.474207
 21
430.0
 31
0.0
  0
LINE
  5
95
  8
0
  6
BYBLOCK
 62
     9
 10
-109.0
 20
880.0
 30
0.0
 11
-173.474207
 21
880.0
 31
0.0
  0
LINE
  5
96
  8
0
  6
BYBLOCK
 62
     9
 10
-172.474207
 20
450.0
 30
0.0
 11
-172.474207
 21
604.25
 31
0.0
  0
LINE
  5
97
  8
0
  6
BYBLOCK
 62
     9
 10
-172.474207
 20
860.0
 30
0.0
 11
-172.474207
 21
705.75
 31
0.0
  0
SOLID
  5
98
  8
0
  6
BYBLOCK
 62
     9
 10
-175.807541
 20
450.0
 30
0.0
 11
-169.140874
 21
450.0
 31
0.0
 12
-172.474207
 22
430.0
 32
0.0
 13
-172.474207
 23
430.0
 33
0.0
  0
SOLID
  5
99
  8
0
  6
BYBLOCK
 62
     9
 10
-175.807541
 20
860.0
 30
0.0
 11
-169.140874
 21
860.0
 31
0.0
 12
-172.474207
 22
880.0
 32
0.0
 13
-172.474207
 23
880.0
 33
0.0
  0
TEXT
  5
9A
  8
0
  6
BYBLOCK
 62
    11
 10
-154.974207
 20
611.25
 30
0.0
 40
35.0
  1
450
 50
90.0
  0
POINT
  5
9B
  8
DEFPOINTS
  6
BYBLOCK
 62
     0
 10
-99.0
 20
430.0
 30
0.0
  0
POINT
  5
9C
  8
DEFPOINTS
  6
BYBLOCK
 62
     0
 10
-99.0
 20
880.0
 30
0.0
  0
POINT
  5
9D
  8
DEFPOINTS
  6
BYBLOCK
 62
     0
 10
-172.474207
 20
880.0
 30
0.0
  0
ENDBLK
  5
9F
  8
0
  0
BLOCK
  8
0
  2
*D5
 70
     1
 10
0.0
 20
0.0
 30
0.0
  3
*D5
  1

  0
LINE
  5
31
  8
0
  6
BYBLOCK
 62
     9
 10
220.0
 20
910.0
 30
0.0
 11
220.0
 21
936.543441
 31
0.0
  0
LINE
  5
32
  8
0
  6
BYBLOCK
 62
     9
 10
-99.0
 20
890.0
 30
0.0
 11
-99.0
 21
936.543441
 31
0.0
  0
LINE
  5
33
  8
0
  6
BYBLOCK
 62
     9
 10
200.0
 20
935.543441
 30
0.0
 11
108.333333
 21
935.543441
 31
0.0
  0
LINE
  5
34
  8
0
  6
BYBLOCK
 62
     9
 10
-79.0
 20
935.543441
 30
0.0
 11
12.666667
 21
935.543441
 31
0.0
  0
SOLID
  5
35
  8
0
  6
BYBLOCK
 62
     9
 10
200.0
 20
938.876774
 30
0.0
 11
200.0
 21
932.210107
 31
0.0
 12
220.0
 22
935.543441
 32
0.0
 13
220.0
 23
935.543441
 33
0.0
  0
SOLID
  5
36
  8
0
  6
BYBLOCK
 62
     9
 10
-79.0
 20
938.876774
 30
0.0
 11
-79.0
 21
932.210107
 31
0.0
 12
-99.0
 22
935.543441
 32
0.0
 13
-99.0
 23
935.543441
 33
0.0
  0
TEXT
  5
37
  8
0
  6
BYBLOCK
 62
    11
 10
19.666667
 20
918.043441
 30
0.0
 40
35.0
  1
319
  0
POINT
  5
38
  8
DEFPOINTS
  6
BYBLOCK
 62
     0
 10
220.0
 20
900.0
 30
0.0
  0
POINT
  5
39
  8
DEFPOINTS
  6
BYBLOCK
 62
     0
 10
-99.0
 20
880.0
 30
0.0
  0
POINT
  5
3A
  8
DEFPOINTS
  6
BYBLOCK
 62
     0
 10
-99.0
 20
935.543441
 30
0.0
  0
ENDBLK
  5
3C
  8
0
  0
BLOCK
  8
0
  2
*D6
 70
     1
 10
0.0
 20
0.0
 30
0.0
  3
*D6
  1

  0
LINE
  5
3F
  8
0
  6
BYBLOCK
 62
     9
 10
96.022484
 20
495.0
 30
0.0
 11
96.022484
 21
392.335448
 31
0.0
  0
LINE
  5
40
  8
0
  6
BYBLOCK
 62
     9
 10
-73.977516
 20
495.0
 30
0.0
 11
-73.977516
 21
392.335448
 31
0.0
  0
LINE
  5
41
  8
0
  6
BYBLOCK
 62
     9
 10
76.022484
 20
393.335448
 30
0.0
 11
55.939151
 21
393.335448
 31
0.0
  0
LINE
  5
42
  8
0
  6
BYBLOCK
 62
     9
 10
-53.977516
 20
393.335448
 30
0.0
 11
-33.894182
 21
393.335448
 31
0.0
  0
SOLID
  5
43
  8
0
  6
BYBLOCK
 62
     9
 10
76.022484
 20
396.668781
 30
0.0
 11
76.022484
 21
390.002114
 31
0.0
 12
96.022484
 22
393.335448
 32
0.0
 13
96.022484
 23
393.335448
 33
0.0
  0
SOLID
  5
44
  8
0
  6
BYBLOCK
 62
     9
 10
-53.977516
 20
396.668781
 30
0.0
 11
-53.977516
 21
390.002114
 31
0.0
 12
-73.977516
 22
393.335448
 32
0.0
 13
-73.977516
 23
393.335448
 33
0.0
  0
TEXT
  5
45
  8
0
  6
BYBLOCK
 62
    11
 10
-26.894182
 20
375.835448
 30
0.0
 40
35.0
  1
170
  0
POINT
  5
46
  8
DEFPOINTS
  6
BYBLOCK
 62
     0
 10
96.022484
 20
505.0
 30
0.0
  0
POINT
  5
47
  8
DEFPOINTS
  6
BYBLOCK
 62
     0
 10
-73.977516
 20
505.0
 30
0.0
  0
POINT
  5
48
  8
DEFPOINTS
  6
BYBLOCK
 62
     0
 10
-73.977516
 20
393.335448
 30
0.0
  0
ENDBLK
  5
4A
  8
0
  0
BLOCK
  8
0
  2
*D7
 70
     1
 10
0.0
 20
0.0
 30
0.0
  3
*D7
  1

  0
LINE
  5
22
  8
0
  6
BYBLOCK
 62
     9
 10
-99.0
 20
420.0
 30
0.0
 11
-99.0
 21
347.876044
 31
0.0
  0
LINE
  5
23
  8
0
  6
BYBLOCK
 62
     9
 10
121.0
 20
420.0
 30
0.0
 11
121.0
 21
347.876044
 31
0.0
  0
LINE
  5
24
  8
0
  6
BYBLOCK
 62
     9
 10
-79.0
 20
348.876044
 30
0.0
 11
-39.75
 21
348.876044
 31
0.0
  0
LINE
  5
25
  8
0
  6
BYBLOCK
 62
     9
 10
101.0
 20
348.876044
 30
0.0
 11
61.75
 21
348.876044
 31
0.0
  0
SOLID
  5
26
  8
0
  6
BYBLOCK
 62
     9
 10
-79.0
 20
352.209377
 30
0.0
 11
-79.0
 21
345.542711
 31
0.0
 12
-99.0
 22
348.876044
 32
0.0
 13
-99.0
 23
348.876044
 33
0.0
  0
SOLID
  5
27
  8
0
  6
BYBLOCK
 62
     9
 10
101.0
 20
352.209377
 30
0.0
 11
101.0
 21
345.542711
 31
0.0
 12
121.0
 22
348.876044
 32
0.0
 13
121.0
 23
348.876044
 33
0.0
  0
TEXT
  5
28
  8
0
  6
BYBLOCK
 62
    11
 10
-32.75
 20
331.376044
 30
0.0
 40
35.0
  1
220
  0
POINT
  5
29
  8
DEFPOINTS
  6
BYBLOCK
 62
     0
 10
-99.0
 20
430.0
 30
0.0
  0
POINT
  5
2B
  8
DEFPOINTS
  6
BYBLOCK
 62
     0
 10
121.0
 20
430.0
 30
0.0
  0
POINT
  5
2C
  8
DEFPOINTS
  6
BYBLOCK
 62
     0
 10
121.0
 20
348.876044
 30
0.0
  0
ENDBLK
  5
2E
  8
0
  0
BLOCK
  8
0
  2
*D8
 70
     1
 10
0.0
 20
0.0
 30
0.0
  3
*D8
  1

  0
LINE
  5
79
  8
0
  6
BYBLOCK
 62
     9
 10
-83.977516
 20
505.0
 30
0.0
 11
-128.555463
 21
505.0
 31
0.0
  0
LINE
  5
7A
  8
0
  6
BYBLOCK
 62
     9
 10
-109.0
 20
430.0
 30
0.0
 11
-128.555463
 21
430.0
 31
0.0
  0
LINE
  5
7B
  8
0
  6
BYBLOCK
 62
     9
 10
-127.555463
 20
485.0
 30
0.0
 11
-127.555463
 21
450.0
 31
0.0
  0
TEXT
  5
7C
  8
0
  6
BYBLOCK
 62
    11
 10
-110.055463
 20
508.602328
 30
0.0
 40
35.0
  1
75
 50
90.0
  0
SOLID
  5
7D
  8
0
  6
BYBLOCK
 62
     9
 10
-130.888797
 20
485.0
 30
0.0
 11
-124.22213
 21
485.0
 31
0.0
 12
-127.555463
 22
505.0
 32
0.0
 13
-127.555463
 23
505.0
 33
0.0
  0
SOLID
  5
7E
  8
0
  6
BYBLOCK
 62
     9
 10
-130.888797
 20
450.0
 30
0.0
 11
-124.22213
 21
450.0
 31
0.0
 12
-127.555463
 22
430.0
 32
0.0
 13
-127.555463
 23
430.0
 33
0.0
  0
POINT
  5
7F
  8
DEFPOINTS
  6
BYBLOCK
 62
     0
 10
-73.977516
 20
505.0
 30
0.0
  0
POINT
  5
80
  8
DEFPOINTS
  6
BYBLOCK
 62
     0
 10
-99.0
 20
430.0
 30
0.0
  0
POINT
  5
81
  8
DEFPOINTS
  6
BYBLOCK
 62
     0
 10
-127.555463
 20
430.0
 30
0.0
  0
ENDBLK
  5
83
  8
0
  0
ENDSEC
  0
SECTION
  2
ENTITIES
  0
DIMENSION
  5
20
  8
TEAM-MAS
  2
*D7
 10
121.0
 20
348.876044
 30
0.0
 11
11.0
 21
348.876044
 31
0.0
 13
-99.0
 23
430.0
 33
0.0
 14
121.0
 24
430.0
 34
0.0
1001
ACAD
1000
DSTYLE
1002
{
1070
    40
1040
1.0
1002
}
  0
DIMENSION
  5
2F
  8
TEAM-MAS
  2
*D5
 10
-99.0
 20
935.543441
 30
0.0
 11
60.5
 21
935.543441
 31
0.0
 13
220.0
 23
900.0
 33
0.0
 14
-99.0
 24
880.0
 34
0.0
1001
ACAD
1000
DSTYLE
1002
{
1070
    40
1040
1.0
1002
}
  0
DIMENSION
  5
3D
  8
TEAM-MAS
  2
*D6
 10
-73.977516
 20
393.335448
 30
0.0
 11
11.022484
 21
393.335448
 31
0.0
 13
96.022484
 23
505.0
 33
0.0
 14
-73.977516
 24
505.0
 34
0.0
1001
ACAD
1000
DSTYLE
1002
{
1070
    40
1040
1.0
1002
}
  0
DIMENSION
  5
4B
  8
TEAM-MAS
  2
*D1
 10
175.605396
 20
550.0
 30
0.0
 11
175.605396
 21
275.0
 31
0.0
 13
0.0
 23
0.0
 33
0.0
 14
-79.0
 24
550.0
 34
0.0
 50
270.0
1001
ACAD
1000
DSTYLE
1002
{
1070
    40
1040
1.0
1002
}
  0
DIMENSION
  5
59
  8
TEAM-MAS
  2
*D2
 10
223.355145
 20
620.22
 30
0.0
 11
223.355145
 21
310.11
 31
0.0
 13
0.0
 23
0.0
 33
0.0
 14
-89.050126
 24
620.22
 34
0.0
 50
270.0
1001
ACAD
1000
DSTYLE
1002
{
1070
    40
1040
1.0
1002
}
  0
POLYLINE
  5
67
  8
TEAM-HIDE
 66
     1
 10
0.0
 20
0.0
 30
0.0
 70
     1
  0
VERTEX
  5
12E
  8
TEAM-HIDE
 10
-73.977516
 20
505.0
 30
0.0
  0
VERTEX
  5
12F
  8
TEAM-HIDE
 10
96.022484
 20
505.0
 30
0.0
  0
VERTEX
  5
130
  8
TEAM-HIDE
 10
96.022484
 20
796.0
 30
0.0
  0
VERTEX
  5
131
  8
TEAM-HIDE
 10
-73.977516
 20
796.0
 30
0.0
  0
SEQEND
  5
132
  8
TEAM-HIDE
  0
LINE
  5
6A
  8
TEAM-BODY
 10
220.0
 20
900.0
 30
0.0
 11
-80.0
 21
900.0
 31
0.0
  0
ARC
  5
6C
  8
TEAM-BODY
 10
70.0
 20
900.0
 30
0.0
 40
150.0
 50
180.0
 51
0.0
  0
CIRCLE
  5
6D
  8
TEAM-KAN
 10
-79.0
 20
550.0
 30
0.0
 40
20.0
  0
LINE
  5
6F
  8
TEAM-AXE
 10
-99.0
 20
550.0
 30
0.0
 11
-59.0
 21
550.0
 31
0.0
  0
TEXT
  5
72
  8
TEAM-TXT
 10
-83.637654
 20
694.009507
 30
0.0
 40
30.0
  1
team 217026
 41
0.8
 51
15.0
  7
TEAM
  0
POLYLINE
  5
75
  8
TEAM-HIDE
 66
     1
 10
0.0
 20
0.0
 30
0.0
 70
     1
  0
VERTEX
  5
133
  8
TEAM-HIDE
 10
101.0
 20
796.0
 30
0.0
  0
VERTEX
  5
134
  8
TEAM-HIDE
 10
-99.0
 20
796.0
 30
0.0
  0
VERTEX
  5
135
  8
TEAM-HIDE
 10
-99.0
 20
836.0
 30
0.0
  0
VERTEX
  5
136
  8
TEAM-HIDE
 10
101.0
 20
836.0
 30
0.0
  0
SEQEND
  5
137
  8
TEAM-HIDE
  0
POLYLINE
  5
76
  8
TEAM-BODY
 66
     1
 10
0.0
 20
0.0
 30
0.0
  0
VERTEX
  5
138
  8
TEAM-BODY
 10
-99.0
 20
880.0
 30
0.0
  0
VERTEX
  5
139
  8
TEAM-BODY
 10
-99.0
 20
430.0
 30
0.0
  0
VERTEX
  5
13A
  8
TEAM-BODY
 10
121.0
 20
430.0
 30
0.0
  0
VERTEX
  5
13B
  8
TEAM-BODY
 10
121.0
 20
760.057155
 30
0.0
  0
SEQEND
  5
13C
  8
TEAM-BODY
  0
DIMENSION
  5
77
  8
TEAM-MAS
  2
*D8
 10
-127.555463
 20
430.0
 30
0.0
 11
-127.555463
 21
537.768995
 31
0.0
 70
   128
 13
-73.977516
 23
505.0
 33
0.0
 14
-99.0
 24
430.0
 34
0.0
 50
90.0
1001
ACAD
1000
DSTYLE
1002
{
1070
    40
1040
1.0
1002
}
  0
DIMENSION
  5
84
  8
TEAM-MAS
  2
*D3
 10
-219.923466
 20
900.0
 30
0.0
 11
-219.923466
 21
665.0
 31
0.0
 13
-99.0
 23
430.0
 33
0.0
 14
-80.0
 24
900.0
 34
0.0
 50
270.0
1001
ACAD
1000
DSTYLE
1002
{
1070
    40
1040
1.0
1002
}
  0
DIMENSION
  5
92
  8
TEAM-MAS
  2
*D4
 10
-172.474207
 20
880.0
 30
0.0
 11
-172.474207
 21
655.0
 31
0.0
 13
-99.0
 23
430.0
 33
0.0
 14
-99.0
 24
880.0
 34
0.0
 50
270.0
1001
ACAD
1000
DSTYLE
1002
{
1070
    40
1040
1.0
1002
}
  0
LINE
  5
A0
  8
TEAM-BODY
 10
-78.660687
 20
880.0
 30
0.0
 11
-99.0
 21
880.0
 31
0.0
  0
LINE
  5
A1
  8
TEAM-AXE
 10
-79.0
 20
530.0
 30
0.0
 11
-79.0
 21
570.0
 31
0.0
  0
LINE
  5
A2
  8
TEAM-AXE
 10
-99.0
 20
620.22
 30
0.0
 11
-79.100251
 21
620.22
 31
0.0
  0
CIRCLE
  5
A3
  8
TEAM-WARM
 10
-89.050126
 20
620.22
 30
0.0
 40
10.0
  0
LINE
  5
A5
  8
TEAM-AXE
 10
-89.050126
 20
610.22
 30
0.0
 11
-89.050126
 21
630.22
 31
0.0
  0
LINE
  5
A6
  8
TEAM-AXE
 10
-99.0
 20
620.22
 30
0.0
 11
-79.100251
 21
620.22
 31
0.0
  0
CIRCLE
  5
A7
  8
TEAM-COLD
 10
-89.050126
 20
620.22
 30
0.0
 40
10.0
  0
LINE
  5
A9
  8
TEAM-AXE
 10
-89.050126
 20
610.22
 30
0.0
 11
-89.050126
 21
630.22
 31
0.0
  0
POLYLINE
  5
AA
  8
TEAM-HIDE
 66
     1
 10
0.0
 20
0.0
 30
0.0
  0
VERTEX
  5
13D
  8
TEAM-HIDE
 10
-99.0
 20
836.0
 30
0.0
  0
VERTEX
  5
13E
  8
TEAM-HIDE
 10
-94.0
 20
836.0
 30
0.0
  0
VERTEX
  5
13F
  8
TEAM-HIDE
 10
-94.0
 20
796.0
 30
0.0
  0
VERTEX
  5
140
  8
TEAM-HIDE
 10
-99.0
 20
796.0
 30
0.0
  0
SEQEND
  5
141
  8
TEAM-HIDE
  0
DIMENSION
  5
AB
  8
TEAM-MAS
  2
*D0
 10
272.242035
 20
900.0
 30
0.0
 11
272.242035
 21
450.0
 31
0.0
 13
0.0
 23
0.0
 33
0.0
 14
220.0
 24
900.0
 34
0.0
 50
270.0
1001
ACAD
1000
DSTYLE
1002
{
1070
    40
1040
1.0
1002
}
  0
LINE
  5
B9
  8
TEAM-AXE
 10
69.980707
 20
653.197779
 30
0.0
 11
69.980707
 21
900.0
 31
0.0
  0
ARC
  5
BA
  8
TEAM-KAN
 10
96.753349
 20
759.507439
 30
0.0
 40
11.494832
 50
286.916883
 51
338.009641
  0
ARC
  5
BB
  8
TEAM-KAN
 10
43.124861
 20
759.301507
 30
0.0
 40
11.262514
 50
200.584456
 51
253.371045
  0
ARC
  5
BC
  8
TEAM-KAN
 10
48.025556
 20
761.444411
 30
0.0
 40
15.26826
 50
237.877987
 51
264.755706
  0
LINE
  5
BD
  8
TEAM-KAN
 10
50.0
 20
746.240063
 30
0.0
 11
50.0
 21
746.967476
 31
0.0
  0
LINE
  5
BE
  8
TEAM-AXE
 10
69.980707
 20
713.67041
 30
0.0
 11
69.980707
 21
633.815853
 31
0.0
  0
LINE
  5
BF
  8
TEAM-KAN
 10
46.63
 20
746.240063
 30
0.0
 11
93.37
 21
746.240063
 31
0.0
  0
ARC
  5
C0
  8
TEAM-KAN
 10
91.974444
 20
761.444411
 30
0.0
 40
15.26826
 50
275.244294
 51
302.122013
  0
LINE
  5
C1
  8
TEAM-KAN
 10
90.0
 20
746.240063
 30
0.0
 11
90.0
 21
746.967476
 31
0.0
  0
CIRCLE
  5
C2
  8
TEAM-INSP
 10
0.0
 20
0.0
 30
0.0
 40
10.0
  0
LINE
  5
C4
  8
TEAM-BODY
 10
74.0
 20
430.0
 30
0.0
 11
74.0
 21
750.053343
 31
0.0
  0
ENDSEC
  0
EOF
