  0
SECTION
  2
HEADER
  9
$ACADVER
  1
AC1009
  9
$INSBASE
 10
0.0
 20
0.0
 30
0.0
  9
$EXTMIN
 10
-328.162558
 20
-10.0
 30
-20.0
  9
$EXTMAX
 10
365.763452
 20
1053.161898
 30
0.0
  9
$LIMMIN
 10
-10000.0
 20
-10000.0
  9
$LIMMAX
 10
50000.0
 20
50000.0
  9
$ORTHOMODE
 70
     1
  9
$REGENMODE
 70
     1
  9
$FILLMODE
 70
     1
  9
$QTEXTMODE
 70
     0
  9
$MIRRTEXT
 70
     0
  9
$DRAGMODE
 70
     2
  9
$LTSCALE
 40
50.0
  9
$OSMODE
 70
     0
  9
$ATTMODE
 70
     1
  9
$TEXTSIZE
 40
200.0
  9
$TRACEWID
 40
1.0
  9
$TEXTSTYLE
  7
STANDARD
  9
$CLAYER
  8
TEAM-MAS
  9
$CELTYPE
  6
BYLAYER
  9
$CECOLOR
 62
   256
  9
$DIMSCALE
 40
0.0
  9
$DIMASZ
 40
20.0
  9
$DIMEXO
 40
10.0
  9
$DIMDLI
 40
1.0
  9
$DIMRND
 40
0.0
  9
$DIMDLE
 40
0.0
  9
$DIMEXE
 40
1.0
  9
$DIMTP
 40
0.0
  9
$DIMTM
 40
0.0
  9
$DIMTXT
 40
35.0
  9
$DIMCEN
 40
1.0
  9
$DIMTSZ
 40
0.0
  9
$DIMTOL
 70
     0
  9
$DIMLIM
 70
     0
  9
$DIMTIH
 70
     0
  9
$DIMTOH
 70
     0
  9
$DIMSE1
 70
     0
  9
$DIMSE2
 70
     0
  9
$DIMTAD
 70
     0
  9
$DIMZIN
 70
     0
  9
$DIMBLK
  1

  9
$DIMASO
 70
     1
  9
$DIMSHO
 70
     0
  9
$DIMPOST
  1

  9
$DIMAPOST
  1

  9
$DIMALT
 70
     0
  9
$DIMALTD
 70
     2
  9
$DIMALTF
 40
25.4
  9
$DIMLFAC
 40
1.0
  9
$DIMTOFL
 70
     0
  9
$DIMTVP
 40
0.0
  9
$DIMTIX
 70
     0
  9
$DIMSOXD
 70
     0
  9
$DIMSAH
 70
     0
  9
$DIMBLK1
  1

  9
$DIMBLK2
  1

  9
$DIMSTYLE
  2
TEAM
  9
$DIMCLRD
 70
     9
  9
$DIMCLRE
 70
     9
  9
$DIMCLRT
 70
    11
  9
$DIMTFAC
 40
1.0
  9
$DIMGAP
 40
7.0
  9
$LUNITS
 70
     2
  9
$LUPREC
 70
     1
  9
$SKETCHINC
 40
1.0
  9
$FILLETRAD
 40
30.0
  9
$AUNITS
 70
     0
  9
$AUPREC
 70
     0
  9
$MENU
  1
ROPLANS
  9
$ELEVATION
 40
0.0
  9
$PELEVATION
 40
0.0
  9
$THICKNESS
 40
0.0
  9
$LIMCHECK
 70
     0
  9
$BLIPMODE
 70
     1
  9
$CHAMFERA
 40
0.0
  9
$CHAMFERB
 40
0.0
  9
$SKPOLY
 70
     0
  9
$TDCREATE
 40
2450392.957851
  9
$TDUPDATE
 40
2456709.58553
  9
$TDINDWG
 40
2.183771
  9
$TDUSRTIMER
 40
2.183771
  9
$USRTIMER
 70
     1
  9
$ANGBASE
 50
0.0
  9
$ANGDIR
 70
     0
  9
$PDMODE
 70
     0
  9
$PDSIZE
 40
0.0
  9
$PLINEWID
 40
0.0
  9
$COORDS
 70
     2
  9
$SPLFRAME
 70
     0
  9
$SPLINETYPE
 70
     6
  9
$SPLINESEGS
 70
     8
  9
$ATTDIA
 70
     0
  9
$ATTREQ
 70
     0
  9
$HANDLING
 70
     1
  9
$HANDSEED
  5
10D
  9
$SURFTAB1
 70
    24
  9
$SURFTAB2
 70
    24
  9
$SURFTYPE
 70
     6
  9
$SURFU
 70
     6
  9
$SURFV
 70
     6
  9
$UCSNAME
  2

  9
$UCSORG
 10
0.0
 20
0.0
 30
0.0
  9
$UCSXDIR
 10
1.0
 20
0.0
 30
0.0
  9
$UCSYDIR
 10
0.0
 20
1.0
 30
0.0
  9
$PUCSNAME
  2

  9
$PUCSORG
 10
0.0
 20
0.0
 30
0.0
  9
$PUCSXDIR
 10
1.0
 20
0.0
 30
0.0
  9
$PUCSYDIR
 10
0.0
 20
1.0
 30
0.0
  9
$USERI1
 70
     0
  9
$USERI2
 70
     0
  9
$USERI3
 70
     0
  9
$USERI4
 70
     0
  9
$USERI5
 70
     0
  9
$USERR1
 40
0.0
  9
$USERR2
 40
0.0
  9
$USERR3
 40
0.0
  9
$USERR4
 40
0.0
  9
$USERR5
 40
0.0
  9
$WORLDVIEW
 70
     1
  9
$SHADEDGE
 70
     0
  9
$SHADEDIF
 70
    70
  9
$TILEMODE
 70
     1
  9
$MAXACTVP
 70
    16
  9
$PLIMCHECK
 70
     0
  9
$PEXTMIN
 10
-0.805942
 20
0.005011
 30
0.0
  9
$PEXTMAX
 10
20.250094
 20
11.356329
 30
0.0
  9
$PLIMMIN
 10
0.0
 20
0.0
  9
$PLIMMAX
 10
12.0
 20
9.0
  9
$UNITMODE
 70
     0
  9
$VISRETAIN
 70
     0
  9
$PLINEGEN
 70
     0
  9
$PSLTSCALE
 70
     0
  0
ENDSEC
  0
SECTION
  2
TABLES
  0
TABLE
  2
VPORT
 70
     7
  0
VPORT
  2
*ACTIVE
 70
     0
 10
0.0
 20
0.0
 11
1.0
 21
1.0
 12
39.977909
 22
509.534665
 13
0.0
 23
0.0
 14
1.0
 24
1.0
 15
50.0
 25
50.0
 16
0.0
 26
0.0
 36
1.0
 17
0.0
 27
0.0
 37
0.0
 40
1177.870483
 41
1.839268
 42
50.0
 43
0.0
 44
0.0
 50
0.0
 51
0.0
 71
     0
 72
   100
 73
     1
 74
     1
 75
     0
 76
     0
 77
     0
 78
     0
  0
ENDTAB
  0
TABLE
  2
LTYPE
 70
     3
  0
LTYPE
  2
CONTINUOUS
 70
     0
  3
Solid Line
 72
    65
 73
     0
 40
0.0
  0
LTYPE
  2
31
 70
     0
  3

 72
    65
 73
     4
 40
2.1
 49
1.5
 49
-0.3
 49
0.0
 49
-0.3
  0
LTYPE
  2
22
 70
     0
  3

 72
    65
 73
     2
 40
1.4
 49
1.2
 49
-0.2
  0
ENDTAB
  0
TABLE
  2
LAYER
 70
    12
  0
LAYER
  2
0
 70
     0
 62
     7
  6
CONTINUOUS
  0
LAYER
  2
DEFPOINTS
 70
     0
 62
     7
  6
CONTINUOUS
  0
LAYER
  2
TEAM-BODY
 70
     0
 62
     2
  6
CONTINUOUS
  0
LAYER
  2
TEAM-AXE
 70
     0
 62
    10
  6
31
  0
LAYER
  2
TEAM-MAS
 70
     0
 62
     9
  6
CONTINUOUS
  0
LAYER
  2
TEAM-TXT
 70
     0
 62
    11
  6
CONTINUOUS
  0
LAYER
  2
TEAM-COLD
 70
     0
 62
     3
  6
CONTINUOUS
  0
LAYER
  2
TEAM-HIDE
 70
     0
 62
     8
  6
22
  0
LAYER
  2
TEAM-KAN
 70
     0
 62
     6
  6
CONTINUOUS
  0
LAYER
  2
TEAM-DET3
 70
     0
 62
    14
  6
CONTINUOUS
  0
LAYER
  2
TEAM-WARM
 70
     0
 62
     1
  6
CONTINUOUS
  0
LAYER
  2
TEAM-INSP
 70
     0
 62
     5
  6
CONTINUOUS
  0
ENDTAB
  0
TABLE
  2
STYLE
 70
     2
  0
STYLE
  2
STANDARD
 70
     0
 40
0.0
 41
1.0
 50
0.0
 71
     0
 42
200.0
  3
txt
  4

  0
STYLE
  2
TEAM
 70
     0
 40
0.0
 41
0.8
 50
15.0
 71
     0
 42
7.0
  3
ROMANS.shx
  4

  0
ENDTAB
  0
TABLE
  2
VIEW
 70
     0
  0
ENDTAB
  0
TABLE
  2
UCS
 70
     0
  0
ENDTAB
  0
TABLE
  2
APPID
 70
     1
  0
APPID
  2
ACAD
 70
     0
  0
ENDTAB
  0
TABLE
  2
DIMSTYLE
 70
     1
  0
DIMSTYLE
  2
TEAM
 70
     0
  3

  4

  5

  6

  7

 40
0.0
 41
20.0
 42
10.0
 43
1.0
 44
1.0
 45
0.0
 46
0.0
 47
0.0
 48
0.0
140
35.0
141
1.0
142
0.0
143
25.4
144
1.0
145
0.0
146
1.0
147
7.0
 71
     0
 72
     0
 73
     0
 74
     0
 75
     0
 76
     0
 77
     0
 78
     0
170
     0
171
     2
172
     0
173
     0
174
     0
175
     0
176
     9
177
     9
178
    11
  0
ENDTAB
  0
ENDSEC
  0
SECTION
  2
BLOCKS
  0
BLOCK
  8
0
  2
$MODEL_SPACE
 70
     0
 10
0.0
 20
0.0
 30
0.0
  3
$MODEL_SPACE
  1

  0
ENDBLK
  5
6
  8
0
  0
BLOCK
 67
     1
  8
0
  2
$PAPER_SPACE
 70
     0
 10
0.0
 20
0.0
 30
0.0
  3
$PAPER_SPACE
  1

  0
ENDBLK
  5
9
 67
     1
  8
0
  0
BLOCK
  8
0
  2
*D0
 70
     1
 10
0.0
 20
0.0
 30
0.0
  3
*D0
  1

  0
LINE
  5
4C
  8
0
  6
BYBLOCK
 62
     9
 10
8069.0
 20
610.003522
 30
0.0
 11
8069.0
 21
459.332862
 31
0.0
  0
LINE
  5
4D
  8
0
  6
BYBLOCK
 62
     9
 10
7969.0
 20
610.22
 30
0.0
 11
7969.0
 21
459.332862
 31
0.0
  0
LINE
  5
4E
  8
0
  6
BYBLOCK
 62
     9
 10
8049.0
 20
460.332862
 30
0.0
 11
7989.0
 21
460.332862
 31
0.0
  0
TEXT
  8
0
  40
35
  5
102
  62
11
  72
0
  71
0
 10
7913.87
 20
429.196
 30
0.000000
  1
100.00-140
  0
SOLID
  5
50
  8
0
  6
BYBLOCK
 62
     9
 10
8049.0
 20
463.666195
 30
0.0
 11
8049.0
 21
456.999528
 31
0.0
 12
8069.0
 22
460.332862
 32
0.0
 13
8069.0
 23
460.332862
 33
0.0
  0
SOLID
  5
51
  8
0
  6
BYBLOCK
 62
     9
 10
7989.0
 20
463.666195
 30
0.0
 11
7989.0
 21
456.999528
 31
0.0
 12
7969.0
 22
460.332862
 32
0.0
 13
7969.0
 23
460.332862
 33
0.0
  0
POINT
  5
52
  8
DEFPOINTS
  6
BYBLOCK
 62
     0
 10
8069.0
 20
620.003522
 30
20.0
  0
POINT
  5
53
  8
DEFPOINTS
  6
BYBLOCK
 62
     0
 10
7969.0
 20
620.22
 30
20.0
  0
POINT
  5
54
  8
DEFPOINTS
  6
BYBLOCK
 62
     0
 10
7969.0
 20
460.332862
 30
0.0
  0
ENDBLK
  5
56
  8
0
  0
BLOCK
  8
0
  2
*D1
 70
     1
 10
0.0
 20
0.0
 30
0.0
  3
*D1
  1

  0
LINE
  5
3E
  8
0
  6
BYBLOCK
 62
     9
 10
8010.0
 20
0.0
 30
0.0
 11
8206.459663
 21
0.0
 31
0.0
  0
LINE
  5
3F
  8
0
  6
BYBLOCK
 62
     9
 10
8049.0
 20
550.0
 30
0.0
 11
8206.459663
 21
550.0
 31
0.0
  0
LINE
  5
40
  8
0
  6
BYBLOCK
 62
     9
 10
8205.459663
 20
20.0
 30
0.0
 11
8205.459663
 21
189.25
 31
0.0
  0
LINE
  5
41
  8
0
  6
BYBLOCK
 62
     9
 10
8205.459663
 20
530.0
 30
0.0
 11
8205.459663
 21
360.75
 31
0.0
  0
SOLID
  5
42
  8
0
  6
BYBLOCK
 62
     9
 10
8202.12633
 20
20.0
 30
0.0
 11
8208.792997
 21
20.0
 31
0.0
 12
8205.459663
 22
0.0
 32
0.0
 13
8205.459663
 23
0.0
 33
0.0
  0
SOLID
  5
43
  8
0
  6
BYBLOCK
 62
     9
 10
8202.12633
 20
530.0
 30
0.0
 11
8208.792997
 21
530.0
 31
0.0
 12
8205.459663
 22
550.0
 32
0.0
 13
8205.459663
 23
550.0
 33
0.0
  0
TEXT
  8
0
  40
35
  5
103
  62
11
  72
0
  71
0
 10
8135.46
 20
213.050
 30
0.000000
  1
550.00
  0
POINT
  5
45
  8
DEFPOINTS
  6
BYBLOCK
 62
     0
 10
8000.0
 20
0.0
 30
20.0
  0
POINT
  5
46
  8
DEFPOINTS
  6
BYBLOCK
 62
     0
 10
8039.0
 20
550.0
 30
0.0
  0
POINT
  5
47
  8
DEFPOINTS
  6
BYBLOCK
 62
     0
 10
8205.459663
 20
550.0
 30
20.0
  0
ENDBLK
  5
49
  8
0
  0
BLOCK
  8
0
  2
*D2
 70
     1
 10
0.0
 20
0.0
 30
0.0
  3
*D2
  1

  0
LINE
  5
DF
  8
0
  6
BYBLOCK
 62
     9
 10
8092.0
 20
429.0
 30
0.0
 11
8092.0
 21
391.908485
 31
0.0
  0
LINE
  5
E0
  8
0
  6
BYBLOCK
 62
     9
 10
7812.0
 20
429.0
 30
0.0
 11
7812.0
 21
391.908485
 31
0.0
  0
LINE
  5
E1
  8
0
  6
BYBLOCK
 62
     9
 10
8072.0
 20
392.908485
 30
0.0
 11
8037.75
 21
392.908485
 31
0.0
  0
LINE
  5
E2
  8
0
  6
BYBLOCK
 62
     9
 10
7832.0
 20
392.908485
 30
0.0
 11
7866.25
 21
392.908485
 31
0.0
  0
SOLID
  5
E3
  8
0
  6
BYBLOCK
 62
     9
 10
8072.0
 20
396.241818
 30
0.0
 11
8072.0
 21
389.575152
 31
0.0
 12
8092.0
 22
392.908485
 32
0.0
 13
8092.0
 23
392.908485
 33
0.0
  0
SOLID
  5
E4
  8
0
  6
BYBLOCK
 62
     9
 10
7832.0
 20
396.241818
 30
0.0
 11
7832.0
 21
389.575152
 31
0.0
 12
7812.0
 22
392.908485
 32
0.0
 13
7812.0
 23
392.908485
 33
0.0
  0
TEXT
  8
0
  40
35
  5
104
  62
11
  72
0
  71
0
 10
7882.00
 20
330.958
 30
0.000000
  1
280.00
  0
POINT
  5
E6
  8
DEFPOINTS
  6
BYBLOCK
 62
     0
 10
8092.0
 20
439.0
 30
0.0
  0
POINT
  5
E7
  8
DEFPOINTS
  6
BYBLOCK
 62
     0
 10
7812.0
 20
439.0
 30
0.0
  0
POINT
  5
E8
  8
DEFPOINTS
  6
BYBLOCK
 62
     0
 10
7812.0
 20
392.908485
 30
0.0
  0
ENDBLK
  5
EA
  8
0
  0
BLOCK
  8
0
  2
*D3
 70
     1
 10
0.0
 20
0.0
 30
0.0
  3
*D3
  1

  0
LINE
  5
31
  8
0
  6
BYBLOCK
 62
     9
 10
8019.0
 20
580.0
 30
0.0
 11
8019.0
 21
936.543441
 31
0.0
  0
LINE
  5
32
  8
0
  6
BYBLOCK
 62
     9
 10
8092.0
 20
868.0
 30
0.0
 11
8092.0
 21
936.543441
 31
0.0
  0
LINE
  5
33
  8
0
  6
BYBLOCK
 62
     9
 10
8039.0
 20
935.543441
 30
0.0
 11
8072.0
 21
935.543441
 31
0.0
  0
TEXT
  8
0
  40
35
  5
105
  62
11
  72
0
  71
0
 10
8075.51
 20
873.593
 30
0.000000
  1
73.00
  0
SOLID
  5
35
  8
0
  6
BYBLOCK
 62
     9
 10
8039.0
 20
938.876774
 30
0.0
 11
8039.0
 21
932.210107
 31
0.0
 12
8019.0
 22
935.543441
 32
0.0
 13
8019.0
 23
935.543441
 33
0.0
  0
SOLID
  5
36
  8
0
  6
BYBLOCK
 62
     9
 10
8072.0
 20
938.876774
 30
0.0
 11
8072.0
 21
932.210107
 31
0.0
 12
8092.0
 22
935.543441
 32
0.0
 13
8092.0
 23
935.543441
 33
0.0
  0
POINT
  5
37
  8
DEFPOINTS
  6
BYBLOCK
 62
     0
 10
8019.0
 20
570.0
 30
-20.0
  0
POINT
  5
38
  8
DEFPOINTS
  6
BYBLOCK
 62
     0
 10
8092.0
 20
858.0
 30
0.0
  0
POINT
  5
39
  8
DEFPOINTS
  6
BYBLOCK
 62
     0
 10
8092.0
 20
935.543441
 30
0.0
  0
ENDBLK
  5
3B
  8
0
  0
BLOCK
  8
0
  2
*D4
 70
     1
 10
0.0
 20
0.0
 30
0.0
  3
*D4
  1

  0
LINE
  5
CD
  8
0
  6
BYBLOCK
 62
     9
 10
7796.0
 20
445.0
 30
0.0
 11
7717.337442
 21
445.0
 31
0.0
  0
LINE
  5
CE
  8
0
  6
BYBLOCK
 62
     9
 10
7796.0
 20
852.0
 30
0.0
 11
7717.337442
 21
852.0
 31
0.0
  0
LINE
  5
CF
  8
0
  6
BYBLOCK
 62
     9
 10
7718.337442
 20
465.0
 30
0.0
 11
7718.337442
 21
562.75
 31
0.0
  0
LINE
  5
D0
  8
0
  6
BYBLOCK
 62
     9
 10
7718.337442
 20
832.0
 30
0.0
 11
7718.337442
 21
734.25
 31
0.0
  0
SOLID
  5
D1
  8
0
  6
BYBLOCK
 62
     9
 10
7715.004108
 20
465.0
 30
0.0
 11
7721.670775
 21
465.0
 31
0.0
 12
7718.337442
 22
445.0
 32
0.0
 13
7718.337442
 23
445.0
 33
0.0
  0
SOLID
  5
D2
  8
0
  6
BYBLOCK
 62
     9
 10
7715.004108
 20
832.0
 30
0.0
 11
7721.670775
 21
832.0
 31
0.0
 12
7718.337442
 22
852.0
 32
0.0
 13
7718.337442
 23
852.0
 33
0.0
  0
TEXT
  8
0
  40
35
  5
106
  62
11
  72
0
  71
0
 10
7648.34
 20
586.550
 30
0.000000
  1
407.00
  0
POINT
  5
D4
  8
DEFPOINTS
  6
BYBLOCK
 62
     0
 10
7806.0
 20
445.0
 30
0.0
  0
POINT
  5
D5
  8
DEFPOINTS
  6
BYBLOCK
 62
     0
 10
7806.0
 20
852.0
 30
0.0
  0
POINT
  5
D6
  8
DEFPOINTS
  6
BYBLOCK
 62
     0
 10
7718.337442
 20
852.0
 30
0.0
  0
ENDBLK
  5
D8
  8
0
  0
BLOCK
  8
0
  2
*D5
 70
     1
 10
0.0
 20
0.0
 30
0.0
  3
*D5
  1

  0
LINE
  5
91
  8
0
  6
BYBLOCK
 62
     9
 10
8010.0
 20
0.0
 30
0.0
 11
8254.209413
 21
0.0
 31
0.0
  0
LINE
  5
92
  8
0
  6
BYBLOCK
 62
     9
 10
8079.0
 20
620.003522
 30
0.0
 11
8254.209413
 21
620.003522
 31
0.0
  0
LINE
  5
93
  8
0
  6
BYBLOCK
 62
     9
 10
8253.209413
 20
20.0
 30
0.0
 11
8253.209413
 21
224.251761
 31
0.0
  0
LINE
  5
94
  8
0
  6
BYBLOCK
 62
     9
 10
8253.209413
 20
600.003522
 30
0.0
 11
8253.209413
 21
395.751761
 31
0.0
  0
SOLID
  5
95
  8
0
  6
BYBLOCK
 62
     9
 10
8249.87608
 20
20.0
 30
0.0
 11
8256.542746
 21
20.0
 31
0.0
 12
8253.209413
 22
0.0
 32
0.0
 13
8253.209413
 23
0.0
 33
0.0
  0
SOLID
  5
96
  8
0
  6
BYBLOCK
 62
     9
 10
8249.87608
 20
600.003522
 30
0.0
 11
8256.542746
 21
600.003522
 31
0.0
 12
8253.209413
 22
620.003522
 32
0.0
 13
8253.209413
 23
620.003522
 33
0.0
  0
TEXT
  8
0
  40
35
  5
107
  62
11
  72
0
  71
0
 10
8183.21
 20
248.052
 30
0.000000
  1
620.00
  0
POINT
  5
98
  8
DEFPOINTS
  6
BYBLOCK
 62
     0
 10
8000.0
 20
0.0
 30
0.0
  0
POINT
  5
99
  8
DEFPOINTS
  6
BYBLOCK
 62
     0
 10
8069.0
 20
620.003522
 30
0.0
  0
POINT
  5
9A
  8
DEFPOINTS
  6
BYBLOCK
 62
     0
 10
8253.209413
 20
620.003522
 30
0.0
  0
ENDBLK
  5
9C
  8
0
  0
BLOCK
  8
0
  2
*D6
 70
     1
 10
0.0
 20
0.0
 30
0.0
  3
*D6
  1

  0
LINE
  5
9F
  8
0
  6
BYBLOCK
 62
     9
 10
8010.0
 20
0.0
 30
0.0
 11
8349.263452
 21
0.0
 31
0.0
  0
LINE
  5
A0
  8
0
  6
BYBLOCK
 62
     9
 10
8230.0
 20
900.0
 30
0.0
 11
8349.263452
 21
900.0
 31
0.0
  0
LINE
  5
A1
  8
0
  6
BYBLOCK
 62
     9
 10
8348.263452
 20
20.0
 30
0.0
 11
8348.263452
 21
367.166667
 31
0.0
  0
LINE
  5
A2
  8
0
  6
BYBLOCK
 62
     9
 10
8348.263452
 20
880.0
 30
0.0
 11
8348.263452
 21
532.833333
 31
0.0
  0
SOLID
  5
A3
  8
0
  6
BYBLOCK
 62
     9
 10
8344.930118
 20
20.0
 30
0.0
 11
8351.596785
 21
20.0
 31
0.0
 12
8348.263452
 22
0.0
 32
0.0
 13
8348.263452
 23
0.0
 33
0.0
  0
SOLID
  5
A4
  8
0
  6
BYBLOCK
 62
     9
 10
8344.930118
 20
880.0
 30
0.0
 11
8351.596785
 21
880.0
 31
0.0
 12
8348.263452
 22
900.0
 32
0.0
 13
8348.263452
 23
900.0
 33
0.0
  0
TEXT
  8
0
  40
35
  5
108
  62
11
  72
0
  71
0
 10
8278.26
 20
388.050
 30
0.000000
  1
900.00
  0
POINT
  5
A6
  8
DEFPOINTS
  6
BYBLOCK
 62
     0
 10
8000.0
 20
0.0
 30
0.0
  0
POINT
  5
A7
  8
DEFPOINTS
  6
BYBLOCK
 62
     0
 10
8220.0
 20
900.0
 30
0.0
  0
POINT
  5
A8
  8
DEFPOINTS
  6
BYBLOCK
 62
     0
 10
8348.263452
 20
900.0
 30
0.0
  0
ENDBLK
  5
AA
  8
0
  0
BLOCK
  8
0
  2
*D7
 70
     1
 10
0.0
 20
0.0
 30
0.0
  3
*D7
  1

  0
LINE
  5
AD
  8
0
  6
BYBLOCK
 62
     9
 10
8010.0
 20
0.0
 30
0.0
 11
8303.096302
 21
0.0
 31
0.0
  0
LINE
  5
AE
  8
0
  6
BYBLOCK
 62
     9
 10
8108.0
 20
852.0
 30
0.0
 11
8303.096302
 21
852.0
 31
0.0
  0
LINE
  5
AF
  8
0
  6
BYBLOCK
 62
     9
 10
8302.096302
 20
20.0
 30
0.0
 11
8302.096302
 21
337.333333
 31
0.0
  0
LINE
  5
B0
  8
0
  6
BYBLOCK
 62
     9
 10
8302.096302
 20
832.0
 30
0.0
 11
8302.096302
 21
514.666667
 31
0.0
  0
SOLID
  5
B1
  8
0
  6
BYBLOCK
 62
     9
 10
8298.762969
 20
20.0
 30
0.0
 11
8305.429636
 21
20.0
 31
0.0
 12
8302.096302
 22
0.0
 32
0.0
 13
8302.096302
 23
0.0
 33
0.0
  0
SOLID
  5
B2
  8
0
  6
BYBLOCK
 62
     9
 10
8298.762969
 20
832.0
 30
0.0
 11
8305.429636
 21
832.0
 31
0.0
 12
8302.096302
 22
852.0
 32
0.0
 13
8302.096302
 23
852.0
 33
0.0
  0
TEXT
  8
0
  40
35
  5
109
  62
11
  72
0
  71
0
 10
8232.10
 20
364.050
 30
0.000000
  1
852.00
  0
POINT
  5
B4
  8
DEFPOINTS
  6
BYBLOCK
 62
     0
 10
8000.0
 20
0.0
 30
0.0
  0
POINT
  5
B5
  8
DEFPOINTS
  6
BYBLOCK
 62
     0
 10
8098.0
 20
852.0
 30
0.0
  0
POINT
  5
B6
  8
DEFPOINTS
  6
BYBLOCK
 62
     0
 10
8302.096302
 20
852.0
 30
0.0
  0
ENDBLK
  5
B8
  8
0
  0
BLOCK
  8
0
  2
*D8
 70
     1
 10
0.0
 20
0.0
 30
0.0
  3
*D8
  1

  0
LINE
  5
82
  8
0
  6
BYBLOCK
 62
     9
 10
7786.0
 20
852.0
 30
0.0
 11
7717.337442
 21
852.0
 31
0.0
  0
LINE
  5
83
  8
0
  6
BYBLOCK
 62
     9
 10
7910.0
 20
900.0
 30
0.0
 11
7717.337442
 21
900.0
 31
0.0
  0
LINE
  5
84
  8
0
  6
BYBLOCK
 62
     9
 10
7718.337442
 20
832.0
 30
0.0
 11
7718.337442
 21
812.0
 31
0.0
  0
LINE
  5
85
  8
0
  6
BYBLOCK
 62
     9
 10
7718.337442
 20
920.0
 30
0.0
 11
7718.337442
 21
940.0
 31
0.0
  0
TEXT
  8
0
  40
35
  5
10A
  62
11
  72
0
  71
0
 10
7619.34
 20
814.050
 30
0.000000
  1
48.00
  0
LINE
  5
87
  8
0
  6
BYBLOCK
 62
     9
 10
7718.337442
 20
852.0
 30
0.0
 11
7718.337442
 21
900.0
 31
0.0
  0
SOLID
  5
88
  8
0
  6
BYBLOCK
 62
     9
 10
7715.004108
 20
832.0
 30
0.0
 11
7721.670775
 21
832.0
 31
0.0
 12
7718.337442
 22
852.0
 32
0.0
 13
7718.337442
 23
852.0
 33
0.0
  0
SOLID
  5
89
  8
0
  6
BYBLOCK
 62
     9
 10
7715.004108
 20
920.0
 30
0.0
 11
7721.670775
 21
920.0
 31
0.0
 12
7718.337442
 22
900.0
 32
0.0
 13
7718.337442
 23
900.0
 33
0.0
  0
POINT
  5
8A
  8
DEFPOINTS
  6
BYBLOCK
 62
     0
 10
7796.0
 20
852.0
 30
0.0
  0
POINT
  5
8B
  8
DEFPOINTS
  6
BYBLOCK
 62
     0
 10
7920.0
 20
900.0
 30
0.0
  0
POINT
  5
8C
  8
DEFPOINTS
  6
BYBLOCK
 62
     0
 10
7718.337442
 20
900.0
 30
0.0
  0
ENDBLK
  5
8E
  8
0
  0
BLOCK
  8
0
  2
*D9
 70
     1
 10
0.0
 20
0.0
 30
0.0
  3
*D9
  1

  0
LINE
  5
22
  8
0
  6
BYBLOCK
 62
     9
 10
8221.0
 20
910.0
 30
0.0
 11
8221.0
 21
988.116301
 31
0.0
  0
LINE
  5
23
  8
0
  6
BYBLOCK
 62
     9
 10
8019.0
 20
580.0
 30
0.0
 11
8019.0
 21
988.116301
 31
0.0
  0
LINE
  5
24
  8
0
  6
BYBLOCK
 62
     9
 10
8241.0
 20
987.116301
 30
0.0
 11
8261.0
 21
987.116301
 31
0.0
  0
LINE
  5
25
  8
0
  6
BYBLOCK
 62
     9
 10
7999.0
 20
987.116301
 30
0.0
 11
7979.0
 21
987.116301
 31
0.0
  0
SOLID
  5
26
  8
0
  6
BYBLOCK
 62
     9
 10
8241.0
 20
990.449635
 30
0.0
 11
8241.0
 21
983.782968
 31
0.0
 12
8221.0
 22
987.116301
 32
0.0
 13
8221.0
 23
987.116301
 33
0.0
  0
SOLID
  5
27
  8
0
  6
BYBLOCK
 62
     9
 10
7999.0
 20
990.449635
 30
0.0
 11
7999.0
 21
983.782968
 31
0.0
 12
8019.0
 22
987.116301
 32
0.0
 13
8019.0
 23
987.116301
 33
0.0
  0
TEXT
  8
0
  40
35
  5
10B
  62
11
  72
0
  71
0
 10
8050.00
 20
925.166
 30
0.000000
  1
202.00
  0
POINT
  5
29
  8
DEFPOINTS
  6
BYBLOCK
 62
     0
 10
8221.0
 20
900.0
 30
0.0
  0
POINT
  5
2B
  8
DEFPOINTS
  6
BYBLOCK
 62
     0
 10
8019.0
 20
570.0
 30
-20.0
  0
POINT
  5
2C
  8
DEFPOINTS
  6
BYBLOCK
 62
     0
 10
8019.0
 20
987.116301
 30
0.0
  0
ENDBLK
  5
2E
  8
0
  0
BLOCK
  8
0
  2
*D10
 70
     1
 10
0.0
 20
0.0
 30
0.0
  3
*D10
  1

  0
LINE
  5
74
  8
0
  6
BYBLOCK
 62
     9
 10
8220.0
 20
910.0
 30
0.0
 11
8220.0
 21
1036.661898
 31
0.0
  0
LINE
  5
75
  8
0
  6
BYBLOCK
 62
     9
 10
7920.0
 20
910.0
 30
0.0
 11
7920.0
 21
1036.661898
 31
0.0
  0
LINE
  5
76
  8
0
  6
BYBLOCK
 62
     9
 10
8200.0
 20
1035.661898
 30
0.0
 11
8152.833333
 21
1035.661898
 31
0.0
  0
LINE
  5
77
  8
0
  6
BYBLOCK
 62
     9
 10
7940.0
 20
1035.661898
 30
0.0
 11
7987.166667
 21
1035.661898
 31
0.0
  0
SOLID
  5
78
  8
0
  6
BYBLOCK
 62
     9
 10
8200.0
 20
1038.995232
 30
0.0
 11
8200.0
 21
1032.328565
 31
0.0
 12
8220.0
 22
1035.661898
 32
0.0
 13
8220.0
 23
1035.661898
 33
0.0
  0
SOLID
  5
79
  8
0
  6
BYBLOCK
 62
     9
 10
7940.0
 20
1038.995232
 30
0.0
 11
7940.0
 21
1032.328565
 31
0.0
 12
7920.0
 22
1035.661898
 32
0.0
 13
7920.0
 23
1035.661898
 33
0.0
  0
TEXT
  8
0
  40
35
  5
10C
  62
11
  72
0
  71
0
 10
8000.00
 20
973.712
 30
0.000000
  1
300.00
  0
POINT
  5
7B
  8
DEFPOINTS
  6
BYBLOCK
 62
     0
 10
8220.0
 20
900.0
 30
0.0
  0
POINT
  5
7C
  8
DEFPOINTS
  6
BYBLOCK
 62
     0
 10
7920.0
 20
900.0
 30
0.0
  0
POINT
  5
7D
  8
DEFPOINTS
  6
BYBLOCK
 62
     0
 10
7920.0
 20
1035.661898
 30
0.0
  0
ENDBLK
  5
7F
  8
0
  0
ENDSEC
  0
SECTION
  2
ENTITIES
  0
DIMENSION
  5
20
  8
TEAM-MAS
  2
*D9
 10
19.0
 20
987.116301
 30
0.0
 11
120.0
 21
987.116301
 31
0.0
 12
-8000.0
 22
0.0
 32
0.0
 13
221.0
 23
900.0
 33
0.0
 14
19.0
 24
570.0
 34
-20.0
1001
ACAD
1000
DSTYLE
1002
{
1070
    40
1040
1.0
1002
}
  0
DIMENSION
  5
2F
  8
TEAM-MAS
  2
*D3
 10
92.0
 20
935.543441
 30
0.0
 11
145.510792
 21
935.543441
 31
0.0
 12
-8000.0
 22
0.0
 32
0.0
 70
   128
 13
19.0
 23
570.0
 33
-20.0
 14
92.0
 24
858.0
 34
0.0
1001
ACAD
1000
DSTYLE
1002
{
1070
    40
1040
1.0
1002
}
  0
DIMENSION
  5
3C
  8
TEAM-MAS
  2
*D1
 10
205.459663
 20
550.0
 30
0.0
 11
205.459663
 21
275.0
 31
-20.0
 12
-8000.0
 22
0.0
 32
-20.0
 13
0.0
 23
0.0
 33
0.0
 14
39.0
 24
550.0
 34
-20.0
 50
270.0
1001
ACAD
1000
DSTYLE
1002
{
1070
    40
1040
1.0
1002
}
  0
DIMENSION
  5
4A
  8
TEAM-MAS
  2
*D0
 10
-31.0
 20
460.332862
 30
-20.0
 11
-16.125265
 21
491.146368
 31
-20.0
 12
-8000.0
 22
0.0
 32
-20.0
 70
   128
  1
<>-140
 13
69.0
 23
620.003522
 33
0.0
 14
-31.0
 24
620.22
 34
0.0
1001
ACAD
1000
DSTYLE
1002
{
1070
    40
1040
1.0
1002
}
  0
CIRCLE
  5
57
  8
TEAM-KAN
 10
19.0
 20
550.0
 30
-20.0
 40
20.0
  0
LINE
  5
59
  8
TEAM-AXE
 10
-1.0
 20
550.0
 30
-20.0
 11
39.0
 21
550.0
 31
-20.0
  0
LINE
  5
5C
  8
TEAM-AXE
 10
19.0
 20
530.0
 30
-20.0
 11
19.0
 21
570.0
 31
-20.0
  0
CIRCLE
  5
5D
  8
TEAM-WARM
 10
-31.0
 20
620.22
 30
0.0
 40
10.0
  0
CIRCLE
  5
5F
  8
TEAM-COLD
 10
69.0
 20
620.003522
 30
0.0
 40
10.0
  0
LINE
  5
61
  8
TEAM-BODY
 10
-77.660687
 20
880.0
 30
0.0
 11
-220.0
 21
880.0
 31
0.0
  0
CIRCLE
  5
63
  8
TEAM-HIDE
 10
92.0
 20
852.0
 30
0.0
 40
5.0
  0
LINE
  5
66
  8
TEAM-AXE
 10
92.0
 20
858.0
 30
0.0
 11
92.0
 21
846.0
 31
0.0
  0
LINE
  5
67
  8
TEAM-AXE
 10
98.0
 20
852.0
 30
0.0
 11
86.0
 21
852.0
 31
0.0
  0
LINE
  5
68
  8
TEAM-BODY
 10
221.0
 20
900.0
 30
0.0
 11
-79.0
 21
900.0
 31
0.0
  0
ARC
  5
69
  8
TEAM-BODY
 10
71.0
 20
900.0
 30
0.0
 40
150.0
 50
180.0
 51
0.0
  0
ARC
  5
6A
  8
TEAM-KAN
 10
49.025556
 20
761.444411
 30
0.0
 40
15.26826
 50
237.877987
 51
264.755706
  0
LINE
  5
6B
  8
TEAM-KAN
 10
51.0
 20
746.240063
 30
0.0
 11
51.0
 21
746.967476
 31
0.0
  0
LINE
  5
6C
  8
TEAM-KAN
 10
47.63
 20
746.240063
 30
0.0
 11
94.37
 21
746.240063
 31
0.0
  0
ARC
  5
6D
  8
TEAM-KAN
 10
92.974444
 20
761.444411
 30
0.0
 40
15.26826
 50
275.244294
 51
302.122013
  0
LINE
  5
6E
  8
TEAM-KAN
 10
91.0
 20
746.240063
 30
0.0
 11
91.0
 21
746.967476
 31
0.0
  0
ARC
  5
6F
  8
TEAM-KAN
 10
44.124861
 20
759.301507
 30
0.0
 40
11.262514
 50
200.584456
 51
253.371045
  0
ARC
  5
70
  8
TEAM-KAN
 10
97.753349
 20
759.507439
 30
0.0
 40
11.494832
 50
286.916883
 51
338.009641
  0
LINE
  5
71
  8
TEAM-AXE
 10
70.980707
 20
712.114929
 30
0.0
 11
70.980707
 21
900.0
 31
0.0
  0
DIMENSION
  5
72
  8
TEAM-MAS
  2
*D10
 10
-79.0
 20
1035.661898
 30
0.0
 11
71.0
 21
1035.661898
 31
0.0
 12
-7999.0
 22
0.0
 32
0.0
 13
221.0
 23
900.0
 33
0.0
 14
-79.0
 24
900.0
 34
0.0
1001
ACAD
1000
DSTYLE
1002
{
1070
    40
1040
1.0
1002
}
  0
DIMENSION
  5
80
  8
TEAM-MAS
  2
*D8
 10
-281.662558
 20
900.0
 30
0.0
 11
-310.662558
 21
876.0
 31
0.0
 12
-8000.0
 22
0.0
 32
0.0
 13
-204.0
 23
852.0
 33
0.0
 14
-80.0
 24
900.0
 34
0.0
 50
90.0
1001
ACAD
1000
DSTYLE
1002
{
1070
    40
1040
1.0
1002
}
  0
DIMENSION
  5
8F
  8
TEAM-MAS
  2
*D5
 10
253.209413
 20
620.003522
 30
0.0
 11
253.209413
 21
310.001761
 31
0.0
 12
-8000.0
 22
0.0
 32
0.0
 13
0.0
 23
0.0
 33
0.0
 14
69.0
 24
620.003522
 34
0.0
 50
270.0
1001
ACAD
1000
DSTYLE
1002
{
1070
    40
1040
1.0
1002
}
  0
DIMENSION
  5
9D
  8
TEAM-MAS
  2
*D6
 10
348.263452
 20
900.0
 30
0.0
 11
348.263452
 21
450.0
 31
0.0
 12
-8000.0
 22
0.0
 32
0.0
 13
0.0
 23
0.0
 33
0.0
 14
220.0
 24
900.0
 34
0.0
 50
270.0
1001
ACAD
1000
DSTYLE
1002
{
1070
    40
1040
1.0
1002
}
  0
DIMENSION
  5
AB
  8
TEAM-MAS
  2
*D7
 10
302.096302
 20
852.0
 30
0.0
 11
302.096302
 21
426.0
 31
0.0
 12
-8000.0
 22
0.0
 32
0.0
 13
0.0
 23
0.0
 33
0.0
 14
98.0
 24
852.0
 34
0.0
 50
270.0
1001
ACAD
1000
DSTYLE
1002
{
1070
    40
1040
1.0
1002
}
  0
CIRCLE
  5
B9
  8
TEAM-INSP
 10
0.0
 20
0.0
 30
0.0
 40
10.0
  0
CIRCLE
  5
BB
  8
TEAM-HIDE
 10
92.0
 20
445.0
 30
0.0
 40
5.0
  0
LINE
  5
BC
  8
TEAM-AXE
 10
92.0
 20
451.0
 30
0.0
 11
92.0
 21
439.0
 31
0.0
  0
LINE
  5
BD
  8
TEAM-AXE
 10
98.0
 20
445.0
 30
0.0
 11
86.0
 21
445.0
 31
0.0
  0
LINE
  5
BE
  8
TEAM-AXE
 10
-31.0
 20
610.22
 30
0.0
 11
-31.0
 21
630.22
 31
0.0
  0
LINE
  5
BF
  8
TEAM-AXE
 10
-40.949874
 20
620.22
 30
0.0
 11
-21.050126
 21
620.22
 31
0.0
  0
LINE
  5
C0
  8
TEAM-AXE
 10
59.050126
 20
620.003522
 30
0.0
 11
78.949874
 21
620.003522
 31
0.0
  0
LINE
  5
C1
  8
TEAM-AXE
 10
69.0
 20
610.003522
 30
0.0
 11
69.0
 21
630.003522
 31
0.0
  0
POLYLINE
  5
C2
  8
TEAM-DET3
 66
     1
 10
0.0
 20
0.0
 30
0.0
 70
     1
  0
VERTEX
  5
F2
  8
TEAM-DET3
 10
-220.0
 20
780.0
 30
0.0
  0
VERTEX
  5
F3
  8
TEAM-DET3
 10
-265.0
 20
780.0
 30
0.0
  0
VERTEX
  5
F4
  8
TEAM-DET3
 10
-265.0
 20
830.0
 30
0.0
  0
VERTEX
  5
F5
  8
TEAM-DET3
 10
-220.0
 20
830.0
 30
0.0
  0
SEQEND
  5
F6
  8
TEAM-DET3
  0
POLYLINE
  5
C4
  8
TEAM-DET3
 66
     1
 10
0.0
 20
0.0
 30
0.0
  0
VERTEX
  5
F7
  8
TEAM-DET3
 10
-265.0
 20
830.0
 30
0.0
  0
VERTEX
  5
F8
  8
TEAM-DET3
 10
-260.0
 20
830.0
 30
0.0
  0
VERTEX
  5
F9
  8
TEAM-DET3
 10
-260.0
 20
780.0
 30
0.0
  0
VERTEX
  5
FA
  8
TEAM-DET3
 10
-265.0
 20
780.0
 30
0.0
  0
SEQEND
  5
FB
  8
TEAM-DET3
  0
CIRCLE
  5
C5
  8
TEAM-HIDE
 10
-188.0
 20
852.0
 30
0.0
 40
5.0
  0
LINE
  5
C6
  8
TEAM-AXE
 10
-188.0
 20
858.0
 30
0.0
 11
-188.0
 21
846.0
 31
0.0
  0
LINE
  5
C7
  8
TEAM-AXE
 10
-182.0
 20
852.0
 30
0.0
 11
-194.0
 21
852.0
 31
0.0
  0
CIRCLE
  5
C8
  8
TEAM-HIDE
 10
-188.0
 20
445.0
 30
0.0
 40
5.0
  0
LINE
  5
C9
  8
TEAM-AXE
 10
-188.0
 20
451.0
 30
0.0
 11
-188.0
 21
439.0
 31
0.0
  0
LINE
  5
CA
  8
TEAM-AXE
 10
-182.0
 20
445.0
 30
0.0
 11
-194.0
 21
445.0
 31
0.0
  0
DIMENSION
  5
CB
  8
TEAM-MAS
  2
*D4
 10
-281.662558
 20
852.0
 30
0.0
 11
-281.662558
 21
648.5
 31
0.0
 12
-8000.0
 22
0.0
 32
0.0
 13
-194.0
 23
445.0
 33
0.0
 14
-194.0
 24
852.0
 34
0.0
 50
270.0
1001
ACAD
1000
DSTYLE
1002
{
1070
    40
1040
1.0
1002
}
  0
TEXT
  5
D9
  8
TEAM-TXT
 10
-218.779504
 20
712.598292
 30
0.0
 40
30.0
  1
team 217026
 41
0.8
 51
15.0
  7
TEAM
  0
POLYLINE
  5
DC
  8
TEAM-BODY
 66
     1
 10
0.0
 20
0.0
 30
0.0
  0
VERTEX
  5
FC
  8
TEAM-BODY
 10
-220.0
 20
880.0
 30
0.0
  0
VERTEX
  5
FD
  8
TEAM-BODY
 10
-220.0
 20
430.0
 30
0.0
  0
VERTEX
  5
FE
  8
TEAM-BODY
 10
124.0
 20
430.0
 30
0.0
  0
VERTEX
  5
FF
  8
TEAM-BODY
 10
124.0
 20
760.057155
 30
0.0
  0
SEQEND
  5
100
  8
TEAM-BODY
  0
DIMENSION
  5
DD
  8
TEAM-MAS
  2
*D2
 10
-188.0
 20
392.908485
 30
0.0
 11
-48.0
 21
392.908485
 31
0.0
 12
-8000.0
 22
0.0
 32
0.0
 13
92.0
 23
439.0
 33
0.0
 14
-188.0
 24
439.0
 34
0.0
1001
ACAD
1000
DSTYLE
1002
{
1070
    40
1040
1.0
1002
}
  0
ENDSEC
  0
EOF
