  0
SECTION
  2
HEADER
  9
$ACADVER
  1
AC1009
  9
$INSBASE
 10
0.0
 20
0.0
 30
0.0
  9
$EXTMIN
 10
-249.787012
 20
-531.170203
 30
-0.000008
  9
$EXTMAX
 10
312.052032
 20
40.014854
 30
0.000001
  9
$LIMMIN
 10
-249.787012
 20
-531.170203
  9
$LIMMAX
 10
312.052032
 20
40.014854
  9
$ORTHOMODE
 70
     1
  9
$REGENMODE
 70
     1
  9
$FILLMODE
 70
     1
  9
$QTEXTMODE
 70
     0
  9
$MIRRTEXT
 70
     0
  9
$DRAGMODE
 70
     2
  9
$LTSCALE
 40
50.0
  9
$OSMODE
 70
     0
  9
$ATTMODE
 70
     1
  9
$TEXTSIZE
 40
200.0
  9
$TRACEWID
 40
1.0
  9
$TEXTSTYLE
  7
STANDARD
  9
$CLAYER
  8
TEAM-MAS
  9
$CELTYPE
  6
BYLAYER
  9
$CECOLOR
 62
   256
  9
$DIMSCALE
 40
0.0
  9
$DIMASZ
 40
20.0
  9
$DIMEXO
 40
10.0
  9
$DIMDLI
 40
1.0
  9
$DIMRND
 40
0.0
  9
$DIMDLE
 40
0.0
  9
$DIMEXE
 40
1.0
  9
$DIMTP
 40
0.0
  9
$DIMTM
 40
0.0
  9
$DIMTXT
 40
35.0
  9
$DIMCEN
 40
1.0
  9
$DIMTSZ
 40
0.0
  9
$DIMTOL
 70
     0
  9
$DIMLIM
 70
     0
  9
$DIMTIH
 70
     0
  9
$DIMTOH
 70
     0
  9
$DIMSE1
 70
     0
  9
$DIMSE2
 70
     0
  9
$DIMTAD
 70
     0
  9
$DIMZIN
 70
     0
  9
$DIMBLK
  1

  9
$DIMASO
 70
     1
  9
$DIMSHO
 70
     0
  9
$DIMPOST
  1

  9
$DIMAPOST
  1

  9
$DIMALT
 70
     0
  9
$DIMALTD
 70
     2
  9
$DIMALTF
 40
25.4
  9
$DIMLFAC
 40
1.0
  9
$DIMTOFL
 70
     0
  9
$DIMTVP
 40
0.0
  9
$DIMTIX
 70
     0
  9
$DIMSOXD
 70
     0
  9
$DIMSAH
 70
     0
  9
$DIMBLK1
  1

  9
$DIMBLK2
  1

  9
$DIMSTYLE
  2
TEAM
  9
$DIMCLRD
 70
     9
  9
$DIMCLRE
 70
     9
  9
$DIMCLRT
 70
    11
  9
$DIMTFAC
 40
1.0
  9
$DIMGAP
 40
7.0
  9
$LUNITS
 70
     2
  9
$LUPREC
 70
     1
  9
$SKETCHINC
 40
1.0
  9
$FILLETRAD
 40
50.0
  9
$AUNITS
 70
     0
  9
$AUPREC
 70
     0
  9
$MENU
  1
ROPLANS
  9
$ELEVATION
 40
0.0
  9
$PELEVATION
 40
0.0
  9
$THICKNESS
 40
0.0
  9
$LIMCHECK
 70
     0
  9
$BLIPMODE
 70
     1
  9
$CHAMFERA
 40
0.0
  9
$CHAMFERB
 40
0.0
  9
$SKPOLY
 70
     0
  9
$TDCREATE
 40
2450392.957851
  9
$TDUPDATE
 40
2456190.73555
  9
$TDINDWG
 40
2.153799
  9
$TDUSRTIMER
 40
2.153799
  9
$USRTIMER
 70
     1
  9
$ANGBASE
 50
0.0
  9
$ANGDIR
 70
     0
  9
$PDMODE
 70
     0
  9
$PDSIZE
 40
0.0
  9
$PLINEWID
 40
0.0
  9
$COORDS
 70
     2
  9
$SPLFRAME
 70
     0
  9
$SPLINETYPE
 70
     6
  9
$SPLINESEGS
 70
     8
  9
$ATTDIA
 70
     0
  9
$ATTREQ
 70
     0
  9
$HANDLING
 70
     1
  9
$HANDSEED
  5
168
  9
$SURFTAB1
 70
    36
  9
$SURFTAB2
 70
    36
  9
$SURFTYPE
 70
     6
  9
$SURFU
 70
     6
  9
$SURFV
 70
     6
  9
$UCSNAME
  2

  9
$UCSORG
 10
0.0
 20
0.0
 30
0.0
  9
$UCSXDIR
 10
1.0
 20
0.0
 30
0.0
  9
$UCSYDIR
 10
0.0
 20
1.0
 30
0.0
  9
$PUCSNAME
  2

  9
$PUCSORG
 10
0.0
 20
0.0
 30
0.0
  9
$PUCSXDIR
 10
1.0
 20
0.0
 30
0.0
  9
$PUCSYDIR
 10
0.0
 20
1.0
 30
0.0
  9
$USERI1
 70
     0
  9
$USERI2
 70
     0
  9
$USERI3
 70
     0
  9
$USERI4
 70
     0
  9
$USERI5
 70
     0
  9
$USERR1
 40
0.0
  9
$USERR2
 40
0.0
  9
$USERR3
 40
0.0
  9
$USERR4
 40
0.0
  9
$USERR5
 40
0.0
  9
$WORLDVIEW
 70
     1
  9
$SHADEDGE
 70
     0
  9
$SHADEDIF
 70
    70
  9
$TILEMODE
 70
     1
  9
$MAXACTVP
 70
    16
  9
$PLIMCHECK
 70
     0
  9
$PEXTMIN
 10
-0.805942
 20
0.005011
 30
0.0
  9
$PEXTMAX
 10
20.250094
 20
11.356329
 30
0.0
  9
$PLIMMIN
 10
0.0
 20
0.0
  9
$PLIMMAX
 10
12.0
 20
9.0
  9
$UNITMODE
 70
     0
  9
$VISRETAIN
 70
     0
  9
$PLINEGEN
 70
     0
  9
$PSLTSCALE
 70
     0
  0
ENDSEC
  0
SECTION
  2
TABLES
  0
TABLE
  2
VPORT
 70
     2
  0
VPORT
  2
*ACTIVE
 70
     0
 10
0.0
 20
0.0
 11
1.0
 21
1.0
 12
31.13251
 22
-245.577675
 13
0.0
 23
0.0
 14
1.0
 24
1.0
 15
50.0
 25
50.0
 16
0.0
 26
0.0
 36
1.0
 17
0.0
 27
0.0
 37
0.0
 40
574.781185
 41
1.911765
 42
50.0
 43
0.0
 44
0.0
 50
0.0
 51
0.0
 71
     0
 72
   100
 73
     1
 74
     1
 75
     0
 76
     0
 77
     0
 78
     0
  0
ENDTAB
  0
TABLE
  2
LTYPE
 70
     2
  0
LTYPE
  2
CONTINUOUS
 70
     0
  3
Solid Line
 72
    65
 73
     0
 40
0.0
  0
LTYPE
  2
31
 70
     0
  3

 72
    65
 73
     4
 40
2.1
 49
1.5
 49
-0.3
 49
0.0
 49
-0.3
  0
ENDTAB
  0
TABLE
  2
LAYER
 70
     8
  0
LAYER
  2
0
 70
     0
 62
     7
  6
CONTINUOUS
  0
LAYER
  2
DEFPOINTS
 70
     0
 62
     7
  6
CONTINUOUS
  0
LAYER
  2
TEAM-BODY
 70
     0
 62
     2
  6
CONTINUOUS
  0
LAYER
  2
TEAM-AXE
 70
     0
 62
    10
  6
31
  0
LAYER
  2
TEAM-MAS
 70
     0
 62
     9
  6
CONTINUOUS
  0
LAYER
  2
TEAM-TXT
 70
     0
 62
    11
  6
CONTINUOUS
  0
LAYER
  2
TEAM-DET1
 70
     0
 62
     4
  6
CONTINUOUS
  0
LAYER
  2
TEAM-INSP
 70
     0
 62
     5
  6
CONTINUOUS
  0
ENDTAB
  0
TABLE
  2
STYLE
 70
     2
  0
STYLE
  2
STANDARD
 70
     0
 40
0.0
 41
1.0
 50
0.0
 71
     0
 42
200.0
  3
txt
  4

  0
STYLE
  2
TEAM
 70
     0
 40
0.0
 41
0.8
 50
15.0
 71
     0
 42
7.0
  3
ROMANS.shx
  4

  0
ENDTAB
  0
TABLE
  2
VIEW
 70
     0
  0
ENDTAB
  0
TABLE
  2
UCS
 70
     0
  0
ENDTAB
  0
TABLE
  2
APPID
 70
     1
  0
APPID
  2
ACAD
 70
     0
  0
ENDTAB
  0
TABLE
  2
DIMSTYLE
 70
     1
  0
DIMSTYLE
  2
TEAM
 70
     0
  3

  4

  5

  6

  7

 40
0.0
 41
20.0
 42
10.0
 43
1.0
 44
1.0
 45
0.0
 46
0.0
 47
0.0
 48
0.0
140
35.0
141
1.0
142
0.0
143
25.4
144
1.0
145
0.0
146
1.0
147
7.0
 71
     0
 72
     0
 73
     0
 74
     0
 75
     0
 76
     0
 77
     0
 78
     0
170
     0
171
     2
172
     0
173
     0
174
     0
175
     0
176
     9
177
     9
178
    11
  0
ENDTAB
  0
ENDSEC
  0
SECTION
  2
BLOCKS
  0
BLOCK
  8
0
  2
$MODEL_SPACE
 70
     0
 10
0.0
 20
0.0
 30
0.0
  3
$MODEL_SPACE
  1

  0
ENDBLK
  5
138
  8
0
  0
BLOCK
 67
     1
  8
0
  2
$PAPER_SPACE
 70
     0
 10
0.0
 20
0.0
 30
0.0
  3
$PAPER_SPACE
  1

  0
ENDBLK
  5
136
 67
     1
  8
0
  0
BLOCK
  8
0
  2
*D0
 70
     1
 10
0.0
 20
0.0
 30
0.0
  3
*D0
  1

  0
LINE
  5
91
  8
0
  6
BYBLOCK
 62
     9
 10
3827.5
 20
28000.0
 30
0.0
 11
3795.745782
 21
28000.0
 31
0.0
  0
LINE
  5
92
  8
0
  6
BYBLOCK
 62
     9
 10
3970.0
 20
27952.6
 30
0.0
 11
3795.745782
 21
27952.6
 31
0.0
  0
LINE
  5
93
  8
0
  6
BYBLOCK
 62
     9
 10
3796.745782
 20
28020.0
 30
0.0
 11
3796.745782
 21
28040.0
 31
0.0
  0
LINE
  5
94
  8
0
  6
BYBLOCK
 62
     9
 10
3796.745782
 20
27932.6
 30
0.0
 11
3796.745782
 21
27912.6
 31
0.0
  0
TEXT
  5
95
  8
0
  6
BYBLOCK
 62
    11
 10
3785.245782
 20
27923.8
 30
0.0
 40
35.0
  1
47.5
 50
90.0
  0
LINE
  5
96
  8
0
  6
BYBLOCK
 62
     9
 10
3796.745782
 20
28000.0
 30
0.0
 11
3796.745782
 21
27952.6
 31
0.0
  0
SOLID
  5
97
  8
0
  6
BYBLOCK
 62
     9
 10
3793.412448
 20
28020.0
 30
0.0
 11
3800.079115
 21
28020.0
 31
0.0
 12
3796.745782
 22
28000.0
 32
0.0
 13
3796.745782
 23
28000.0
 33
0.0
  0
SOLID
  5
98
  8
0
  6
BYBLOCK
 62
     9
 10
3793.412448
 20
27932.6
 30
0.0
 11
3800.079115
 21
27932.6
 31
0.0
 12
3796.745782
 22
27952.6
 32
0.0
 13
3796.745782
 23
27952.6
 33
0.0
  0
POINT
  5
99
  8
DEFPOINTS
  6
BYBLOCK
 62
     0
 10
3837.5
 20
28000.0
 30
0.0
  0
POINT
  5
9A
  8
DEFPOINTS
  6
BYBLOCK
 62
     0
 10
3980.0
 20
27952.6
 30
0.0
  0
POINT
  5
9B
  8
DEFPOINTS
  6
BYBLOCK
 62
     0
 10
3796.745782
 20
27952.6
 30
0.0
  0
ENDBLK
  5
9D
  8
0
  0
BLOCK
  8
0
  2
*D1
 70
     1
 10
0.0
 20
0.0
 30
0.0
  3
*D1
  1

  0
LINE
  5
85
  8
0
  6
BYBLOCK
 62
     9
 10
3970.129572
 20
27929.010481
 30
0.0
 11
3954.408294
 21
27916.647576
 31
0.0
  0
TEXT
  5
86
  8
0
  6
BYBLOCK
 62
    11
 10
4051.806825
 20
27926.181466
 30
0.0
 40
35.0
  1
%%c36
 50
38.180817
  0
SOLID
  5
87
  8
0
  6
BYBLOCK
 62
     9
 10
4027.809944
 20
27978.609732
 30
0.0
 11
4031.930912
 21
27973.369306
 31
0.0
 12
4014.14915
 22
27963.626614
 32
0.0
 13
4014.14915
 23
27963.626614
 33
0.0
  0
SOLID
  5
88
  8
0
  6
BYBLOCK
 62
     9
 10
3968.069088
 20
27931.630694
 30
0.0
 11
3972.190056
 21
27926.390268
 31
0.0
 12
3985.85085
 22
27941.373386
 32
0.0
 13
3985.85085
 23
27941.373386
 33
0.0
  0
LINE
  5
89
  8
0
  6
BYBLOCK
 62
     9
 10
3999.0
 20
27952.5
 30
0.0
 11
4001.0
 21
27952.5
 31
0.0
  0
LINE
  5
8A
  8
0
  6
BYBLOCK
 62
     9
 10
4000.0
 20
27951.5
 30
0.0
 11
4000.0
 21
27953.5
 31
0.0
  0
POINT
  5
8B
  8
DEFPOINTS
  6
BYBLOCK
 62
     0
 10
3985.85085
 20
27941.373386
 30
0.0
  0
POINT
  5
8C
  8
DEFPOINTS
  6
BYBLOCK
 62
     0
 10
4014.14915
 20
27963.626614
 30
0.0
  0
ENDBLK
  5
8E
  8
0
  0
BLOCK
  8
0
  2
*D2
 70
     1
 10
0.0
 20
0.0
 30
0.0
  3
*D2
  1

  0
LINE
  5
77
  8
0
  6
BYBLOCK
 62
     9
 10
4172.5
 20
27615.0
 30
0.0
 11
4295.523847
 21
27615.0
 31
0.0
  0
LINE
  5
78
  8
0
  6
BYBLOCK
 62
     9
 10
4010.0
 20
28000.0
 30
0.0
 11
4295.523847
 21
28000.0
 31
0.0
  0
LINE
  5
79
  8
0
  6
BYBLOCK
 62
     9
 10
4294.523847
 20
27635.0
 30
0.0
 11
4294.523847
 21
27753.833333
 31
0.0
  0
LINE
  5
7A
  8
0
  6
BYBLOCK
 62
     9
 10
4294.523847
 20
27980.0
 30
0.0
 11
4294.523847
 21
27861.166667
 31
0.0
  0
SOLID
  5
7B
  8
0
  6
BYBLOCK
 62
     9
 10
4291.190514
 20
27635.0
 30
0.0
 11
4297.85718
 21
27635.0
 31
0.0
 12
4294.523847
 22
27615.0
 32
0.0
 13
4294.523847
 23
27615.0
 33
0.0
  0
SOLID
  5
7C
  8
0
  6
BYBLOCK
 62
     9
 10
4291.190514
 20
27980.0
 30
0.0
 11
4297.85718
 21
27980.0
 31
0.0
 12
4294.523847
 22
28000.0
 32
0.0
 13
4294.523847
 23
28000.0
 33
0.0
  0
TEXT
  5
7D
  8
0
  6
BYBLOCK
 62
    11
 10
4312.023847
 20
27760.833333
 30
0.0
 40
35.0
  1
385
 50
90.0
  0
POINT
  5
7E
  8
DEFPOINTS
  6
BYBLOCK
 62
     0
 10
4162.5
 20
27615.0
 30
0.0
  0
POINT
  5
7F
  8
DEFPOINTS
  6
BYBLOCK
 62
     0
 10
4000.0
 20
28000.0
 30
0.0
  0
POINT
  5
80
  8
DEFPOINTS
  6
BYBLOCK
 62
     0
 10
4294.523847
 20
28000.0
 30
0.0
  0
ENDBLK
  5
82
  8
0
  0
BLOCK
  8
0
  2
*D3
 70
     1
 10
0.0
 20
0.0
 30
0.0
  3
*D3
  1

  0
LINE
  5
69
  8
0
  6
BYBLOCK
 62
     9
 10
4135.0
 20
27652.5
 30
0.0
 11
4249.404222
 21
27652.5
 31
0.0
  0
LINE
  5
6A
  8
0
  6
BYBLOCK
 62
     9
 10
4135.0
 20
27902.5
 30
0.0
 11
4249.404222
 21
27902.5
 31
0.0
  0
LINE
  5
6B
  8
0
  6
BYBLOCK
 62
     9
 10
4248.404222
 20
27672.5
 30
0.0
 11
4248.404222
 21
27726.75
 31
0.0
  0
LINE
  5
6C
  8
0
  6
BYBLOCK
 62
     9
 10
4248.404222
 20
27882.5
 30
0.0
 11
4248.404222
 21
27828.25
 31
0.0
  0
SOLID
  5
6D
  8
0
  6
BYBLOCK
 62
     9
 10
4245.070889
 20
27672.5
 30
0.0
 11
4251.737555
 21
27672.5
 31
0.0
 12
4248.404222
 22
27652.5
 32
0.0
 13
4248.404222
 23
27652.5
 33
0.0
  0
SOLID
  5
6E
  8
0
  6
BYBLOCK
 62
     9
 10
4245.070889
 20
27882.5
 30
0.0
 11
4251.737555
 21
27882.5
 31
0.0
 12
4248.404222
 22
27902.5
 32
0.0
 13
4248.404222
 23
27902.5
 33
0.0
  0
TEXT
  5
6F
  8
0
  6
BYBLOCK
 62
    11
 10
4265.904222
 20
27733.75
 30
0.0
 40
35.0
  1
250
 50
90.0
  0
POINT
  5
70
  8
DEFPOINTS
  6
BYBLOCK
 62
     0
 10
4125.0
 20
27652.5
 30
0.0
  0
POINT
  5
71
  8
DEFPOINTS
  6
BYBLOCK
 62
     0
 10
4125.0
 20
27902.5
 30
0.0
  0
POINT
  5
72
  8
DEFPOINTS
  6
BYBLOCK
 62
     0
 10
4248.404222
 20
27902.5
 30
0.0
  0
ENDBLK
  5
74
  8
0
  0
BLOCK
  8
0
  2
*D4
 70
     1
 10
0.0
 20
0.0
 30
0.0
  3
*D4
  1

  0
LINE
  5
5B
  8
0
  6
BYBLOCK
 62
     9
 10
4172.5
 20
28000.0
 30
0.0
 11
4204.195049
 21
28000.0
 31
0.0
  0
LINE
  5
5C
  8
0
  6
BYBLOCK
 62
     9
 10
4048.5
 20
27777.6
 30
0.0
 11
4204.195049
 21
27777.6
 31
0.0
  0
LINE
  5
5D
  8
0
  6
BYBLOCK
 62
     9
 10
4203.195049
 20
27980.0
 30
0.0
 11
4203.195049
 21
27935.75
 31
0.0
  0
LINE
  5
5E
  8
0
  6
BYBLOCK
 62
     9
 10
4203.195049
 20
27797.6
 30
0.0
 11
4203.195049
 21
27804.6
 31
0.0
  0
TEXT
  5
5F
  8
0
  6
BYBLOCK
 62
    11
 10
4220.695049
 20
27788.75
 30
0.0
 40
35.0
  1
222.5
 50
90.0
  0
SOLID
  5
60
  8
0
  6
BYBLOCK
 62
     9
 10
4199.861716
 20
27980.0
 30
0.0
 11
4206.528382
 21
27980.0
 31
0.0
 12
4203.195049
 22
28000.0
 32
0.0
 13
4203.195049
 23
28000.0
 33
0.0
  0
SOLID
  5
61
  8
0
  6
BYBLOCK
 62
     9
 10
4199.861716
 20
27797.6
 30
0.0
 11
4206.528382
 21
27797.6
 31
0.0
 12
4203.195049
 22
27777.6
 32
0.0
 13
4203.195049
 23
27777.6
 33
0.0
  0
POINT
  5
62
  8
DEFPOINTS
  6
BYBLOCK
 62
     0
 10
4162.5
 20
28000.0
 30
0.0
  0
POINT
  5
63
  8
DEFPOINTS
  6
BYBLOCK
 62
     0
 10
4038.5
 20
27777.6
 30
0.0
  0
POINT
  5
64
  8
DEFPOINTS
  6
BYBLOCK
 62
     0
 10
4203.195049
 20
27777.6
 30
0.0
  0
ENDBLK
  5
66
  8
0
  0
BLOCK
  8
0
  2
*D5
 70
     1
 10
0.0
 20
0.0
 30
0.0
  3
*D5
  1

  0
LINE
  5
4D
  8
0
  6
BYBLOCK
 62
     9
 10
3837.5
 20
27605.0
 30
0.0
 11
3837.5
 21
27485.352508
 31
0.0
  0
LINE
  5
4E
  8
0
  6
BYBLOCK
 62
     9
 10
4162.5
 20
27605.0
 30
0.0
 11
4162.5
 21
27485.352508
 31
0.0
  0
LINE
  5
4F
  8
0
  6
BYBLOCK
 62
     9
 10
3857.5
 20
27486.352508
 30
0.0
 11
3946.333333
 21
27486.352508
 31
0.0
  0
LINE
  5
50
  8
0
  6
BYBLOCK
 62
     9
 10
4142.5
 20
27486.352508
 30
0.0
 11
4053.666667
 21
27486.352508
 31
0.0
  0
SOLID
  5
51
  8
0
  6
BYBLOCK
 62
     9
 10
3857.5
 20
27489.685841
 30
0.0
 11
3857.5
 21
27483.019175
 31
0.0
 12
3837.5
 22
27486.352508
 32
0.0
 13
3837.5
 23
27486.352508
 33
0.0
  0
SOLID
  5
52
  8
0
  6
BYBLOCK
 62
     9
 10
4142.5
 20
27489.685841
 30
0.0
 11
4142.5
 21
27483.019175
 31
0.0
 12
4162.5
 22
27486.352508
 32
0.0
 13
4162.5
 23
27486.352508
 33
0.0
  0
TEXT
  5
53
  8
0
  6
BYBLOCK
 62
    11
 10
3953.333333
 20
27468.852508
 30
0.0
 40
35.0
  1
325
  0
POINT
  5
54
  8
DEFPOINTS
  6
BYBLOCK
 62
     0
 10
3837.5
 20
27615.0
 30
0.0
  0
POINT
  5
55
  8
DEFPOINTS
  6
BYBLOCK
 62
     0
 10
4162.5
 20
27615.0
 30
0.0
  0
POINT
  5
56
  8
DEFPOINTS
  6
BYBLOCK
 62
     0
 10
4162.5
 20
27486.352508
 30
0.0
  0
ENDBLK
  5
58
  8
0
  0
BLOCK
  8
0
  2
*D6
 70
     1
 10
0.0
 20
0.0
 30
0.0
  3
*D6
  1

  0
LINE
  5
3F
  8
0
  6
BYBLOCK
 62
     9
 10
3875.0
 20
27647.5
 30
0.0
 11
3875.0
 21
27532.227163
 31
0.0
  0
LINE
  5
40
  8
0
  6
BYBLOCK
 62
     9
 10
4125.0
 20
27647.5
 30
0.0
 11
4125.0
 21
27532.227163
 31
0.0
  0
LINE
  5
41
  8
0
  6
BYBLOCK
 62
     9
 10
3895.0
 20
27533.227163
 30
0.0
 11
3949.25
 21
27533.227163
 31
0.0
  0
LINE
  5
42
  8
0
  6
BYBLOCK
 62
     9
 10
4105.0
 20
27533.227163
 30
0.0
 11
4050.75
 21
27533.227163
 31
0.0
  0
SOLID
  5
43
  8
0
  6
BYBLOCK
 62
     9
 10
3895.0
 20
27536.560496
 30
0.0
 11
3895.0
 21
27529.893829
 31
0.0
 12
3875.0
 22
27533.227163
 32
0.0
 13
3875.0
 23
27533.227163
 33
0.0
  0
SOLID
  5
44
  8
0
  6
BYBLOCK
 62
     9
 10
4105.0
 20
27536.560496
 30
0.0
 11
4105.0
 21
27529.893829
 31
0.0
 12
4125.0
 22
27533.227163
 32
0.0
 13
4125.0
 23
27533.227163
 33
0.0
  0
TEXT
  5
45
  8
0
  6
BYBLOCK
 62
    11
 10
3956.25
 20
27515.727163
 30
0.0
 40
35.0
  1
250
  0
POINT
  5
46
  8
DEFPOINTS
  6
BYBLOCK
 62
     0
 10
3875.0
 20
27657.5
 30
0.0
  0
POINT
  5
47
  8
DEFPOINTS
  6
BYBLOCK
 62
     0
 10
4125.0
 20
27657.5
 30
0.0
  0
POINT
  5
48
  8
DEFPOINTS
  6
BYBLOCK
 62
     0
 10
4125.0
 20
27533.227163
 30
0.0
  0
ENDBLK
  5
4A
  8
0
  0
BLOCK
  8
0
  2
*D7
 70
     1
 10
0.0
 20
0.0
 30
0.0
  3
*D7
  1

  0
LINE
  5
31
  8
0
  6
BYBLOCK
 62
     9
 10
3961.5
 20
27734.0
 30
0.0
 11
3961.5
 21
27581.012358
 31
0.0
  0
LINE
  5
32
  8
0
  6
BYBLOCK
 62
     9
 10
4038.5
 20
27734.0
 30
0.0
 11
4038.5
 21
27581.012358
 31
0.0
  0
LINE
  5
33
  8
0
  6
BYBLOCK
 62
     9
 10
3981.5
 20
27582.012358
 30
0.0
 11
3988.5
 21
27582.012358
 31
0.0
  0
LINE
  5
34
  8
0
  6
BYBLOCK
 62
     9
 10
4018.5
 20
27582.012358
 30
0.0
 11
4011.5
 21
27582.012358
 31
0.0
  0
TEXT
  5
35
  8
0
  6
BYBLOCK
 62
    11
 10
3970.833333
 20
27564.512358
 30
0.0
 40
35.0
  1
77
  0
SOLID
  5
36
  8
0
  6
BYBLOCK
 62
     9
 10
3981.5
 20
27585.345691
 30
0.0
 11
3981.5
 21
27578.679025
 31
0.0
 12
3961.5
 22
27582.012358
 32
0.0
 13
3961.5
 23
27582.012358
 33
0.0
  0
SOLID
  5
37
  8
0
  6
BYBLOCK
 62
     9
 10
4018.5
 20
27585.345691
 30
0.0
 11
4018.5
 21
27578.679025
 31
0.0
 12
4038.5
 22
27582.012358
 32
0.0
 13
4038.5
 23
27582.012358
 33
0.0
  0
POINT
  5
38
  8
DEFPOINTS
  6
BYBLOCK
 62
     0
 10
3961.5
 20
27744.0
 30
0.0
  0
POINT
  5
39
  8
DEFPOINTS
  6
BYBLOCK
 62
     0
 10
4038.5
 20
27744.0
 30
0.0
  0
POINT
  5
3A
  8
DEFPOINTS
  6
BYBLOCK
 62
     0
 10
4038.5
 20
27582.012358
 30
0.0
  0
ENDBLK
  5
3C
  8
0
  0
BLOCK
  8
0
  2
*D8
 70
     1
 10
0.0
 20
0.0
 30
0.0
  3
*D8
  1

  0
LINE
  5
22
  8
0
  6
BYBLOCK
 62
     9
 10
3956.5
 20
27816.0
 30
0.0
 11
3795.504773
 21
27816.0
 31
0.0
  0
LINE
  5
23
  8
0
  6
BYBLOCK
 62
     9
 10
3956.5
 20
27739.0
 30
0.0
 11
3795.504773
 21
27739.0
 31
0.0
  0
LINE
  5
24
  8
0
  6
BYBLOCK
 62
     9
 10
3796.504773
 20
27836.0
 30
0.0
 11
3796.504773
 21
27856.0
 31
0.0
  0
LINE
  5
25
  8
0
  6
BYBLOCK
 62
     9
 10
3796.504773
 20
27719.0
 30
0.0
 11
3796.504773
 21
27699.0
 31
0.0
  0
SOLID
  5
26
  8
0
  6
BYBLOCK
 62
     9
 10
3793.17144
 20
27836.0
 30
0.0
 11
3799.838106
 21
27836.0
 31
0.0
 12
3796.504773
 22
27816.0
 32
0.0
 13
3796.504773
 23
27816.0
 33
0.0
  0
SOLID
  5
27
  8
0
  6
BYBLOCK
 62
     9
 10
3793.17144
 20
27719.0
 30
0.0
 11
3799.838106
 21
27719.0
 31
0.0
 12
3796.504773
 22
27739.0
 32
0.0
 13
3796.504773
 23
27739.0
 33
0.0
  0
TEXT
  5
28
  8
0
  6
BYBLOCK
 62
    11
 10
3814.004773
 20
27748.333333
 30
0.0
 40
35.0
  1
77
 50
90.0
  0
POINT
  5
29
  8
DEFPOINTS
  6
BYBLOCK
 62
     0
 10
3966.5
 20
27816.0
 30
0.0
  0
POINT
  5
2B
  8
DEFPOINTS
  6
BYBLOCK
 62
     0
 10
3966.5
 20
27739.0
 30
0.0
  0
POINT
  5
2C
  8
DEFPOINTS
  6
BYBLOCK
 62
     0
 10
3796.504773
 20
27739.0
 30
0.0
  0
ENDBLK
  5
2E
  8
0
  0
ENDSEC
  0
SECTION
  2
ENTITIES
  0
DIMENSION
  5
20
  8
TEAM-MAS
  2
*D8
 10
-203.495227
 20
-261.0
 30
0.0
 11
-203.495227
 21
-222.5
 31
0.0
 12
-4000.0
 22
-28000.0
 32
0.0
 13
-33.5
 23
-184.0
 33
0.0
 14
-33.5
 24
-261.0
 34
0.0
 50
90.0
1001
ACAD
1000
DSTYLE
1002
{
1070
    40
1040
1.0
1002
}
  0
DIMENSION
  5
2F
  8
TEAM-MAS
  2
*D7
 10
38.5
 20
-417.987642
 30
0.0
 11
0.0
 21
-417.987642
 31
0.0
 12
-4000.0
 22
-28000.0
 32
0.0
 70
   128
 13
-38.5
 23
-256.0
 33
0.0
 14
38.5
 24
-256.0
 34
0.0
1001
ACAD
1000
DSTYLE
1002
{
1070
    40
1040
1.0
1002
}
  0
DIMENSION
  5
3D
  8
TEAM-MAS
  2
*D6
 10
125.0
 20
-466.772837
 30
0.0
 11
0.0
 21
-466.772837
 31
0.0
 12
-4000.0
 22
-28000.0
 32
0.0
 13
-125.0
 23
-342.5
 33
0.0
 14
125.0
 24
-342.5
 34
0.0
1001
ACAD
1000
DSTYLE
1002
{
1070
    40
1040
1.0
1002
}
  0
DIMENSION
  5
4B
  8
TEAM-MAS
  2
*D5
 10
162.5
 20
-513.647492
 30
0.0
 11
0.0
 21
-513.647492
 31
0.0
 12
-4000.0
 22
-28000.0
 32
0.0
 13
-162.5
 23
-385.0
 33
0.0
 14
162.5
 24
-385.0
 34
0.0
1001
ACAD
1000
DSTYLE
1002
{
1070
    40
1040
1.0
1002
}
  0
DIMENSION
  5
59
  8
TEAM-MAS
  2
*D4
 10
203.195049
 20
-222.4
 30
0.0
 11
203.195049
 21
-141.25
 31
0.0
 12
-4000.0
 22
-28000.0
 32
0.0
 70
   128
  1
<>.5
 13
162.5
 23
0.0
 33
0.0
 14
38.5
 24
-222.4
 34
0.0
 50
90.0
1001
ACAD
1000
DSTYLE
1002
{
1070
    40
1040
1.0
1002
}
  0
DIMENSION
  5
67
  8
TEAM-MAS
  2
*D3
 10
248.404222
 20
-97.5
 30
0.0
 11
248.404222
 21
-222.5
 31
0.0
 12
-4000.0
 22
-28000.0
 32
0.0
 13
125.0
 23
-347.5
 33
0.0
 14
125.0
 24
-97.5
 34
0.0
 50
90.0
1001
ACAD
1000
DSTYLE
1002
{
1070
    40
1040
1.0
1002
}
  0
DIMENSION
  5
75
  8
TEAM-MAS
  2
*D2
 10
294.523847
 20
0.0
 30
0.0
 11
294.523847
 21
-192.5
 31
0.0
 12
-4000.0
 22
-28000.0
 32
0.0
 13
162.5
 23
-385.0
 33
0.0
 14
0.0
 24
0.0
 34
0.0
 50
90.0
1001
ACAD
1000
DSTYLE
1002
{
1070
    40
1040
1.0
1002
}
  0
DIMENSION
  5
83
  8
TEAM-MAS
  2
*D1
 10
14.14915
 20
-36.373386
 30
0.0
 11
77.672265
 21
-31.215637
 31
0.0
 12
-4000.0
 22
-28000.0
 32
0.0
 70
   131
 15
-14.14915
 25
-58.626614
 35
0.0
 40
0.0
1001
ACAD
1000
DSTYLE
1002
{
1070
   288
1070
     1
1070
    40
1040
1.0
1002
}
  0
DIMENSION
  5
8F
  8
TEAM-MAS
  2
*D0
 10
-203.254218
 20
-47.4
 30
0.0
 11
-232.254218
 21
-23.7
 31
0.0
 12
-4000.0
 22
-28000.0
 32
0.0
  1
<>.5
 13
-162.5
 23
0.0
 33
0.0
 14
-20.0
 24
-47.4
 34
0.0
 50
90.0
1001
ACAD
1000
DSTYLE
1002
{
1070
    40
1040
1.0
1002
}
  0
LINE
  5
9E
  8
TEAM-AXE
 10
-20.0
 20
-47.5
 30
0.0
 11
20.0
 21
-47.5
 31
0.0
  0
LINE
  5
A1
  8
TEAM-AXE
 10
0.0
 20
-67.5
 30
0.0
 11
0.0
 21
-27.5
 31
0.0
  0
CIRCLE
  5
A2
  8
TEAM-DET1
 10
0.0
 20
-47.5
 30
0.0
 40
18.0
  0
CIRCLE
  5
A4
  8
TEAM-INSP
 10
0.0
 20
0.0
 30
0.0
 40
10.0
  0
POLYLINE
  5
A6
  8
TEAM-DET1
 66
     1
 10
0.0
 20
0.0
 30
0.0
 70
     1
  0
VERTEX
  5
13E
  8
TEAM-DET1
 10
-28.5
 20
-256.0
 30
0.0
  0
VERTEX
  5
13F
  8
TEAM-DET1
 10
28.5
 20
-256.0
 30
0.0
 42
0.414214
  0
VERTEX
  5
140
  8
TEAM-DET1
 10
33.5
 20
-251.0
 30
0.0
  0
VERTEX
  5
141
  8
TEAM-DET1
 10
33.5
 20
-194.0
 30
0.0
 42
0.414214
  0
VERTEX
  5
142
  8
TEAM-DET1
 10
28.5
 20
-189.0
 30
0.0
  0
VERTEX
  5
143
  8
TEAM-DET1
 10
-28.5
 20
-189.0
 30
0.0
 42
0.414214
  0
VERTEX
  5
144
  8
TEAM-DET1
 10
-33.5
 20
-194.0
 30
0.0
  0
VERTEX
  5
145
  8
TEAM-DET1
 10
-33.5
 20
-251.0
 30
0.0
 42
0.414214
  0
SEQEND
  5
146
  8
TEAM-DET1
  0
POLYLINE
  5
A7
  8
TEAM-BODY
 66
     1
 10
0.0
 20
0.0
 30
0.0
 70
     1
  0
VERTEX
  5
147
  8
TEAM-BODY
 10
-23.0
 20
-250.5
 30
0.0
  0
VERTEX
  5
148
  8
TEAM-BODY
 10
23.0
 20
-250.5
 30
0.0
 42
0.414214
  0
VERTEX
  5
149
  8
TEAM-BODY
 10
28.0
 20
-245.5
 30
0.0
  0
VERTEX
  5
14A
  8
TEAM-BODY
 10
28.0
 20
-199.5
 30
0.0
 42
0.414214
  0
VERTEX
  5
14B
  8
TEAM-BODY
 10
23.0
 20
-194.5
 30
0.0
  0
VERTEX
  5
14C
  8
TEAM-BODY
 10
-23.0
 20
-194.5
 30
0.0
 42
0.414214
  0
VERTEX
  5
14D
  8
TEAM-BODY
 10
-28.0
 20
-199.5
 30
0.0
  0
VERTEX
  5
14E
  8
TEAM-BODY
 10
-28.0
 20
-245.5
 30
0.0
 42
0.414214
  0
SEQEND
  5
14F
  8
TEAM-BODY
  0
POLYLINE
  5
A9
  8
TEAM-BODY
 66
     1
 10
0.0
 20
0.0
 30
0.0
 70
     1
  0
VERTEX
  5
150
  8
TEAM-BODY
 10
-33.5
 20
-261.0
 30
0.0
  0
VERTEX
  5
151
  8
TEAM-BODY
 10
33.5
 20
-261.0
 30
0.0
 42
0.414214
  0
VERTEX
  5
152
  8
TEAM-BODY
 10
38.5
 20
-256.0
 30
0.0
  0
VERTEX
  5
153
  8
TEAM-BODY
 10
38.5
 20
-189.0
 30
0.0
 42
0.414214
  0
VERTEX
  5
154
  8
TEAM-BODY
 10
33.5
 20
-184.0
 30
0.0
  0
VERTEX
  5
155
  8
TEAM-BODY
 10
-33.5
 20
-184.0
 30
0.0
 42
0.414214
  0
VERTEX
  5
156
  8
TEAM-BODY
 10
-38.5
 20
-189.0
 30
0.0
  0
VERTEX
  5
157
  8
TEAM-BODY
 10
-38.5
 20
-256.0
 30
0.0
 42
0.414214
  0
SEQEND
  5
158
  8
TEAM-BODY
  0
POLYLINE
  5
AA
  8
TEAM-BODY
 66
     1
 10
0.0
 20
0.0
 30
0.0
 70
     1
  0
VERTEX
  5
159
  8
TEAM-BODY
 10
-120.0
 20
-347.5
 30
0.0
  0
VERTEX
  5
15A
  8
TEAM-BODY
 10
120.0
 20
-347.5
 30
0.0
 42
0.414214
  0
VERTEX
  5
15B
  8
TEAM-BODY
 10
125.0
 20
-342.5
 30
0.0
  0
VERTEX
  5
15C
  8
TEAM-BODY
 10
125.0
 20
-102.5
 30
0.0
 42
0.414214
  0
VERTEX
  5
15D
  8
TEAM-BODY
 10
120.0
 20
-97.5
 30
0.0
  0
VERTEX
  5
15E
  8
TEAM-BODY
 10
-120.0
 20
-97.5
 30
0.0
 42
0.414214
  0
VERTEX
  5
15F
  8
TEAM-BODY
 10
-125.0
 20
-102.5
 30
0.0
  0
VERTEX
  5
160
  8
TEAM-BODY
 10
-125.0
 20
-342.5
 30
0.0
 42
0.414214
  0
SEQEND
  5
161
  8
TEAM-BODY
  0
POLYLINE
  5
AB
  8
TEAM-BODY
 66
     1
 10
0.0
 20
0.0
 30
0.0
 70
     1
  0
VERTEX
  5
162
  8
TEAM-BODY
 10
-162.5
 20
-385.0
 30
0.0
  0
VERTEX
  5
163
  8
TEAM-BODY
 10
162.5
 20
-385.0
 30
0.0
  0
VERTEX
  5
164
  8
TEAM-BODY
 10
162.5
 20
0.0
 30
0.0
  0
VERTEX
  5
165
  8
TEAM-BODY
 10
-162.5
 20
0.0
 30
0.0
  0
SEQEND
  5
166
  8
TEAM-BODY
  0
TEXT
  5
AC
  8
TEAM-TXT
 10
-139.185
 20
-148.162304
 30
0.0
 40
30.0
  1
team 217041
 41
0.8
 51
15.0
  7
TEAM
  0
ENDSEC
  0
EOF
