  0
SECTION
  2
HEADER
  9
$ACADVER
  1
AC1009
  9
$INSBASE
 10
0.0
 20
0.0
 30
0.0
  9
$EXTMIN
 10
-218.121012
 20
-511.187541
 30
-0.000008
  9
$EXTMAX
 10
312.039633
 20
66.943639
 30
0.000001
  9
$LIMMIN
 10
-218.121012
 20
-511.187541
  9
$LIMMAX
 10
312.039633
 20
66.943639
  9
$ORTHOMODE
 70
     1
  9
$REGENMODE
 70
     1
  9
$FILLMODE
 70
     1
  9
$QTEXTMODE
 70
     0
  9
$MIRRTEXT
 70
     0
  9
$DRAGMODE
 70
     2
  9
$LTSCALE
 40
50.0
  9
$OSMODE
 70
     0
  9
$ATTMODE
 70
     1
  9
$TEXTSIZE
 40
200.0
  9
$TRACEWID
 40
1.0
  9
$TEXTSTYLE
  7
STANDARD
  9
$CLAYER
  8
TEAM-MAS
  9
$CELTYPE
  6
BYLAYER
  9
$CECOLOR
 62
   256
  9
$DIMSCALE
 40
0.0
  9
$DIMASZ
 40
20.0
  9
$DIMEXO
 40
10.0
  9
$DIMDLI
 40
1.0
  9
$DIMRND
 40
0.0
  9
$DIMDLE
 40
0.0
  9
$DIMEXE
 40
1.0
  9
$DIMTP
 40
0.0
  9
$DIMTM
 40
0.0
  9
$DIMTXT
 40
35.0
  9
$DIMCEN
 40
1.0
  9
$DIMTSZ
 40
0.0
  9
$DIMTOL
 70
     0
  9
$DIMLIM
 70
     0
  9
$DIMTIH
 70
     0
  9
$DIMTOH
 70
     0
  9
$DIMSE1
 70
     0
  9
$DIMSE2
 70
     0
  9
$DIMTAD
 70
     0
  9
$DIMZIN
 70
     0
  9
$DIMBLK
  1

  9
$DIMASO
 70
     1
  9
$DIMSHO
 70
     0
  9
$DIMPOST
  1

  9
$DIMAPOST
  1

  9
$DIMALT
 70
     0
  9
$DIMALTD
 70
     2
  9
$DIMALTF
 40
25.4
  9
$DIMLFAC
 40
1.0
  9
$DIMTOFL
 70
     0
  9
$DIMTVP
 40
0.0
  9
$DIMTIX
 70
     0
  9
$DIMSOXD
 70
     0
  9
$DIMSAH
 70
     0
  9
$DIMBLK1
  1

  9
$DIMBLK2
  1

  9
$DIMSTYLE
  2
TEAM
  9
$DIMCLRD
 70
     9
  9
$DIMCLRE
 70
     9
  9
$DIMCLRT
 70
    11
  9
$DIMTFAC
 40
1.0
  9
$DIMGAP
 40
7.0
  9
$LUNITS
 70
     2
  9
$LUPREC
 70
     1
  9
$SKETCHINC
 40
1.0
  9
$FILLETRAD
 40
50.0
  9
$AUNITS
 70
     0
  9
$AUPREC
 70
     0
  9
$MENU
  1
ROPLANS
  9
$ELEVATION
 40
0.0
  9
$PELEVATION
 40
0.0
  9
$THICKNESS
 40
0.0
  9
$LIMCHECK
 70
     0
  9
$BLIPMODE
 70
     1
  9
$CHAMFERA
 40
0.0
  9
$CHAMFERB
 40
0.0
  9
$SKPOLY
 70
     0
  9
$TDCREATE
 40
2450392.957851
  9
$TDUPDATE
 40
2456190.73555
  9
$TDINDWG
 40
2.153799
  9
$TDUSRTIMER
 40
2.153799
  9
$USRTIMER
 70
     1
  9
$ANGBASE
 50
0.0
  9
$ANGDIR
 70
     0
  9
$PDMODE
 70
     0
  9
$PDSIZE
 40
0.0
  9
$PLINEWID
 40
0.0
  9
$COORDS
 70
     2
  9
$SPLFRAME
 70
     0
  9
$SPLINETYPE
 70
     6
  9
$SPLINESEGS
 70
     8
  9
$ATTDIA
 70
     0
  9
$ATTREQ
 70
     0
  9
$HANDLING
 70
     1
  9
$HANDSEED
  5
156
  9
$SURFTAB1
 70
    36
  9
$SURFTAB2
 70
    36
  9
$SURFTYPE
 70
     6
  9
$SURFU
 70
     6
  9
$SURFV
 70
     6
  9
$UCSNAME
  2

  9
$UCSORG
 10
0.0
 20
0.0
 30
0.0
  9
$UCSXDIR
 10
1.0
 20
0.0
 30
0.0
  9
$UCSYDIR
 10
0.0
 20
1.0
 30
0.0
  9
$PUCSNAME
  2

  9
$PUCSORG
 10
0.0
 20
0.0
 30
0.0
  9
$PUCSXDIR
 10
1.0
 20
0.0
 30
0.0
  9
$PUCSYDIR
 10
0.0
 20
1.0
 30
0.0
  9
$USERI1
 70
     0
  9
$USERI2
 70
     0
  9
$USERI3
 70
     0
  9
$USERI4
 70
     0
  9
$USERI5
 70
     0
  9
$USERR1
 40
0.0
  9
$USERR2
 40
0.0
  9
$USERR3
 40
0.0
  9
$USERR4
 40
0.0
  9
$USERR5
 40
0.0
  9
$WORLDVIEW
 70
     1
  9
$SHADEDGE
 70
     0
  9
$SHADEDIF
 70
    70
  9
$TILEMODE
 70
     1
  9
$MAXACTVP
 70
    16
  9
$PLIMCHECK
 70
     0
  9
$PEXTMIN
 10
-0.805942
 20
0.005011
 30
0.0
  9
$PEXTMAX
 10
20.250094
 20
11.356329
 30
0.0
  9
$PLIMMIN
 10
0.0
 20
0.0
  9
$PLIMMAX
 10
12.0
 20
9.0
  9
$UNITMODE
 70
     0
  9
$VISRETAIN
 70
     0
  9
$PLINEGEN
 70
     0
  9
$PSLTSCALE
 70
     0
  0
ENDSEC
  0
SECTION
  2
TABLES
  0
TABLE
  2
VPORT
 70
     2
  0
VPORT
  2
*ACTIVE
 70
     0
 10
0.0
 20
0.0
 11
1.0
 21
1.0
 12
46.959311
 22
-222.121951
 13
0.0
 23
0.0
 14
1.0
 24
1.0
 15
50.0
 25
50.0
 16
0.0
 26
0.0
 36
1.0
 17
0.0
 27
0.0
 37
0.0
 40
581.77104
 41
1.911765
 42
50.0
 43
0.0
 44
0.0
 50
0.0
 51
0.0
 71
     0
 72
   100
 73
     1
 74
     1
 75
     0
 76
     0
 77
     0
 78
     0
  0
ENDTAB
  0
TABLE
  2
LTYPE
 70
     1
  0
LTYPE
  2
CONTINUOUS
 70
     0
  3
Solid Line
 72
    65
 73
     0
 40
0.0
  0
ENDTAB
  0
TABLE
  2
LAYER
 70
     7
  0
LAYER
  2
0
 70
     0
 62
     7
  6
CONTINUOUS
  0
LAYER
  2
DEFPOINTS
 70
     0
 62
     7
  6
CONTINUOUS
  0
LAYER
  2
TEAM-BODY
 70
     0
 62
     2
  6
CONTINUOUS
  0
LAYER
  2
TEAM-MAS
 70
     0
 62
     9
  6
CONTINUOUS
  0
LAYER
  2
TEAM-TXT
 70
     0
 62
    11
  6
CONTINUOUS
  0
LAYER
  2
TEAM-DET1
 70
     0
 62
     4
  6
CONTINUOUS
  0
LAYER
  2
TEAM-INSP
 70
     0
 62
     5
  6
CONTINUOUS
  0
ENDTAB
  0
TABLE
  2
STYLE
 70
     2
  0
STYLE
  2
STANDARD
 70
     0
 40
0.0
 41
1.0
 50
0.0
 71
     0
 42
200.0
  3
txt
  4

  0
STYLE
  2
TEAM
 70
     0
 40
0.0
 41
0.8
 50
15.0
 71
     0
 42
7.0
  3
ROMANS.shx
  4

  0
ENDTAB
  0
TABLE
  2
VIEW
 70
     0
  0
ENDTAB
  0
TABLE
  2
UCS
 70
     0
  0
ENDTAB
  0
TABLE
  2
APPID
 70
     1
  0
APPID
  2
ACAD
 70
     0
  0
ENDTAB
  0
TABLE
  2
DIMSTYLE
 70
     1
  0
DIMSTYLE
  2
TEAM
 70
     0
  3

  4

  5

  6

  7

 40
0.0
 41
20.0
 42
10.0
 43
1.0
 44
1.0
 45
0.0
 46
0.0
 47
0.0
 48
0.0
140
35.0
141
1.0
142
0.0
143
25.4
144
1.0
145
0.0
146
1.0
147
7.0
 71
     0
 72
     0
 73
     0
 74
     0
 75
     0
 76
     0
 77
     0
 78
     0
170
     0
171
     2
172
     0
173
     0
174
     0
175
     0
176
     9
177
     9
178
    11
  0
ENDTAB
  0
ENDSEC
  0
SECTION
  2
BLOCKS
  0
BLOCK
  8
0
  2
$MODEL_SPACE
 70
     0
 10
0.0
 20
0.0
 30
0.0
  3
$MODEL_SPACE
  1

  0
ENDBLK
  5
126
  8
0
  0
BLOCK
 67
     1
  8
0
  2
$PAPER_SPACE
 70
     0
 10
0.0
 20
0.0
 30
0.0
  3
$PAPER_SPACE
  1

  0
ENDBLK
  5
124
 67
     1
  8
0
  0
BLOCK
  8
0
  2
*D0
 70
     1
 10
0.0
 20
0.0
 30
0.0
  3
*D0
  1

  0
LINE
  5
85
  8
0
  6
BYBLOCK
 62
     9
 10
4172.5
 20
47635.0
 30
0.0
 11
4295.523847
 21
47635.0
 31
0.0
  0
LINE
  5
86
  8
0
  6
BYBLOCK
 62
     9
 10
4010.0
 20
48000.0
 30
0.0
 11
4295.523847
 21
48000.0
 31
0.0
  0
LINE
  5
87
  8
0
  6
BYBLOCK
 62
     9
 10
4294.523847
 20
47655.0
 30
0.0
 11
4294.523847
 21
47763.833333
 31
0.0
  0
LINE
  5
88
  8
0
  6
BYBLOCK
 62
     9
 10
4294.523847
 20
47980.0
 30
0.0
 11
4294.523847
 21
47871.166667
 31
0.0
  0
SOLID
  5
89
  8
0
  6
BYBLOCK
 62
     9
 10
4291.190514
 20
47655.0
 30
0.0
 11
4297.85718
 21
47655.0
 31
0.0
 12
4294.523847
 22
47635.0
 32
0.0
 13
4294.523847
 23
47635.0
 33
0.0
  0
SOLID
  5
8A
  8
0
  6
BYBLOCK
 62
     9
 10
4291.190514
 20
47980.0
 30
0.0
 11
4297.85718
 21
47980.0
 31
0.0
 12
4294.523847
 22
48000.0
 32
0.0
 13
4294.523847
 23
48000.0
 33
0.0
  0
TEXT
  5
8B
  8
0
  6
BYBLOCK
 62
    11
 10
4312.023847
 20
47770.833333
 30
0.0
 40
35.0
  1
365
 50
90.0
  0
POINT
  5
8C
  8
DEFPOINTS
  6
BYBLOCK
 62
     0
 10
4162.5
 20
47635.0
 30
0.0
  0
POINT
  5
8D
  8
DEFPOINTS
  6
BYBLOCK
 62
     0
 10
4000.0
 20
48000.0
 30
0.0
  0
POINT
  5
8E
  8
DEFPOINTS
  6
BYBLOCK
 62
     0
 10
4294.523847
 20
48000.0
 30
0.0
  0
ENDBLK
  5
90
  8
0
  0
BLOCK
  8
0
  2
*D1
 70
     1
 10
0.0
 20
0.0
 30
0.0
  3
*D1
  1

  0
LINE
  5
77
  8
0
  6
BYBLOCK
 62
     9
 10
4135.0
 20
47672.5
 30
0.0
 11
4249.404222
 21
47672.5
 31
0.0
  0
LINE
  5
78
  8
0
  6
BYBLOCK
 62
     9
 10
4135.0
 20
47922.5
 30
0.0
 11
4249.404222
 21
47922.5
 31
0.0
  0
LINE
  5
79
  8
0
  6
BYBLOCK
 62
     9
 10
4248.404222
 20
47692.5
 30
0.0
 11
4248.404222
 21
47746.75
 31
0.0
  0
LINE
  5
7A
  8
0
  6
BYBLOCK
 62
     9
 10
4248.404222
 20
47902.5
 30
0.0
 11
4248.404222
 21
47848.25
 31
0.0
  0
SOLID
  5
7B
  8
0
  6
BYBLOCK
 62
     9
 10
4245.070889
 20
47692.5
 30
0.0
 11
4251.737555
 21
47692.5
 31
0.0
 12
4248.404222
 22
47672.5
 32
0.0
 13
4248.404222
 23
47672.5
 33
0.0
  0
SOLID
  5
7C
  8
0
  6
BYBLOCK
 62
     9
 10
4245.070889
 20
47902.5
 30
0.0
 11
4251.737555
 21
47902.5
 31
0.0
 12
4248.404222
 22
47922.5
 32
0.0
 13
4248.404222
 23
47922.5
 33
0.0
  0
TEXT
  5
7D
  8
0
  6
BYBLOCK
 62
    11
 10
4265.904222
 20
47753.75
 30
0.0
 40
35.0
  1
250
 50
90.0
  0
POINT
  5
7E
  8
DEFPOINTS
  6
BYBLOCK
 62
     0
 10
4125.0
 20
47672.5
 30
0.0
  0
POINT
  5
7F
  8
DEFPOINTS
  6
BYBLOCK
 62
     0
 10
4125.0
 20
47922.5
 30
0.0
  0
POINT
  5
80
  8
DEFPOINTS
  6
BYBLOCK
 62
     0
 10
4248.404222
 20
47922.5
 30
0.0
  0
ENDBLK
  5
82
  8
0
  0
BLOCK
  8
0
  2
*D2
 70
     1
 10
0.0
 20
0.0
 30
0.0
  3
*D2
  1

  0
LINE
  5
69
  8
0
  6
BYBLOCK
 62
     9
 10
4010.0
 20
48000.0
 30
0.0
 11
4204.195049
 21
48000.0
 31
0.0
  0
LINE
  5
6A
  8
0
  6
BYBLOCK
 62
     9
 10
4048.5
 20
47797.6
 30
0.0
 11
4204.195049
 21
47797.6
 31
0.0
  0
LINE
  5
6B
  8
0
  6
BYBLOCK
 62
     9
 10
4203.195049
 20
47980.0
 30
0.0
 11
4203.195049
 21
47952.833333
 31
0.0
  0
LINE
  5
6C
  8
0
  6
BYBLOCK
 62
     9
 10
4203.195049
 20
47817.6
 30
0.0
 11
4203.195049
 21
47824.6
 31
0.0
  0
TEXT
  5
6D
  8
0
  6
BYBLOCK
 62
    11
 10
4220.695049
 20
47811.666667
 30
0.0
 40
35.0
  1
202.5
 50
90.0
  0
SOLID
  5
6E
  8
0
  6
BYBLOCK
 62
     9
 10
4199.861716
 20
47980.0
 30
0.0
 11
4206.528382
 21
47980.0
 31
0.0
 12
4203.195049
 22
48000.0
 32
0.0
 13
4203.195049
 23
48000.0
 33
0.0
  0
SOLID
  5
6F
  8
0
  6
BYBLOCK
 62
     9
 10
4199.861716
 20
47817.6
 30
0.0
 11
4206.528382
 21
47817.6
 31
0.0
 12
4203.195049
 22
47797.6
 32
0.0
 13
4203.195049
 23
47797.6
 33
0.0
  0
POINT
  5
70
  8
DEFPOINTS
  6
BYBLOCK
 62
     0
 10
4000.0
 20
48000.0
 30
0.0
  0
POINT
  5
71
  8
DEFPOINTS
  6
BYBLOCK
 62
     0
 10
4038.5
 20
47797.6
 30
0.0
  0
POINT
  5
72
  8
DEFPOINTS
  6
BYBLOCK
 62
     0
 10
4203.195049
 20
47797.6
 30
0.0
  0
ENDBLK
  5
74
  8
0
  0
BLOCK
  8
0
  2
*D3
 70
     1
 10
0.0
 20
0.0
 30
0.0
  3
*D3
  1

  0
LINE
  5
5B
  8
0
  6
BYBLOCK
 62
     9
 10
3837.5
 20
47625.0
 30
0.0
 11
3837.5
 21
47505.352508
 31
0.0
  0
LINE
  5
5C
  8
0
  6
BYBLOCK
 62
     9
 10
4162.5
 20
47625.0
 30
0.0
 11
4162.5
 21
47505.352508
 31
0.0
  0
LINE
  5
5D
  8
0
  6
BYBLOCK
 62
     9
 10
3857.5
 20
47506.352508
 30
0.0
 11
3946.333333
 21
47506.352508
 31
0.0
  0
LINE
  5
5E
  8
0
  6
BYBLOCK
 62
     9
 10
4142.5
 20
47506.352508
 30
0.0
 11
4053.666667
 21
47506.352508
 31
0.0
  0
SOLID
  5
5F
  8
0
  6
BYBLOCK
 62
     9
 10
3857.5
 20
47509.685841
 30
0.0
 11
3857.5
 21
47503.019175
 31
0.0
 12
3837.5
 22
47506.352508
 32
0.0
 13
3837.5
 23
47506.352508
 33
0.0
  0
SOLID
  5
60
  8
0
  6
BYBLOCK
 62
     9
 10
4142.5
 20
47509.685841
 30
0.0
 11
4142.5
 21
47503.019175
 31
0.0
 12
4162.5
 22
47506.352508
 32
0.0
 13
4162.5
 23
47506.352508
 33
0.0
  0
TEXT
  5
61
  8
0
  6
BYBLOCK
 62
    11
 10
3953.333333
 20
47488.852508
 30
0.0
 40
35.0
  1
325
  0
POINT
  5
62
  8
DEFPOINTS
  6
BYBLOCK
 62
     0
 10
3837.5
 20
47635.0
 30
0.0
  0
POINT
  5
63
  8
DEFPOINTS
  6
BYBLOCK
 62
     0
 10
4162.5
 20
47635.0
 30
0.0
  0
POINT
  5
64
  8
DEFPOINTS
  6
BYBLOCK
 62
     0
 10
4162.5
 20
47506.352508
 30
0.0
  0
ENDBLK
  5
66
  8
0
  0
BLOCK
  8
0
  2
*D4
 70
     1
 10
0.0
 20
0.0
 30
0.0
  3
*D4
  1

  0
LINE
  5
4D
  8
0
  6
BYBLOCK
 62
     9
 10
3875.0
 20
47667.5
 30
0.0
 11
3875.0
 21
47552.227163
 31
0.0
  0
LINE
  5
4E
  8
0
  6
BYBLOCK
 62
     9
 10
4125.0
 20
47667.5
 30
0.0
 11
4125.0
 21
47552.227163
 31
0.0
  0
LINE
  5
4F
  8
0
  6
BYBLOCK
 62
     9
 10
3895.0
 20
47553.227163
 30
0.0
 11
3949.25
 21
47553.227163
 31
0.0
  0
LINE
  5
50
  8
0
  6
BYBLOCK
 62
     9
 10
4105.0
 20
47553.227163
 30
0.0
 11
4050.75
 21
47553.227163
 31
0.0
  0
SOLID
  5
51
  8
0
  6
BYBLOCK
 62
     9
 10
3895.0
 20
47556.560496
 30
0.0
 11
3895.0
 21
47549.893829
 31
0.0
 12
3875.0
 22
47553.227163
 32
0.0
 13
3875.0
 23
47553.227163
 33
0.0
  0
SOLID
  5
52
  8
0
  6
BYBLOCK
 62
     9
 10
4105.0
 20
47556.560496
 30
0.0
 11
4105.0
 21
47549.893829
 31
0.0
 12
4125.0
 22
47553.227163
 32
0.0
 13
4125.0
 23
47553.227163
 33
0.0
  0
TEXT
  5
53
  8
0
  6
BYBLOCK
 62
    11
 10
3956.25
 20
47535.727163
 30
0.0
 40
35.0
  1
250
  0
POINT
  5
54
  8
DEFPOINTS
  6
BYBLOCK
 62
     0
 10
3875.0
 20
47677.5
 30
0.0
  0
POINT
  5
55
  8
DEFPOINTS
  6
BYBLOCK
 62
     0
 10
4125.0
 20
47677.5
 30
0.0
  0
POINT
  5
56
  8
DEFPOINTS
  6
BYBLOCK
 62
     0
 10
4125.0
 20
47553.227163
 30
0.0
  0
ENDBLK
  5
58
  8
0
  0
BLOCK
  8
0
  2
*D5
 70
     1
 10
0.0
 20
0.0
 30
0.0
  3
*D5
  1

  0
LINE
  5
3F
  8
0
  6
BYBLOCK
 62
     9
 10
3961.5
 20
47754.0
 30
0.0
 11
3961.5
 21
47601.012358
 31
0.0
  0
LINE
  5
40
  8
0
  6
BYBLOCK
 62
     9
 10
4038.5
 20
47754.0
 30
0.0
 11
4038.5
 21
47601.012358
 31
0.0
  0
LINE
  5
41
  8
0
  6
BYBLOCK
 62
     9
 10
3981.5
 20
47602.012358
 30
0.0
 11
3988.5
 21
47602.012358
 31
0.0
  0
LINE
  5
42
  8
0
  6
BYBLOCK
 62
     9
 10
4018.5
 20
47602.012358
 30
0.0
 11
4011.5
 21
47602.012358
 31
0.0
  0
TEXT
  5
43
  8
0
  6
BYBLOCK
 62
    11
 10
3970.833333
 20
47584.512358
 30
0.0
 40
35.0
  1
77
  0
SOLID
  5
44
  8
0
  6
BYBLOCK
 62
     9
 10
3981.5
 20
47605.345691
 30
0.0
 11
3981.5
 21
47598.679025
 31
0.0
 12
3961.5
 22
47602.012358
 32
0.0
 13
3961.5
 23
47602.012358
 33
0.0
  0
SOLID
  5
45
  8
0
  6
BYBLOCK
 62
     9
 10
4018.5
 20
47605.345691
 30
0.0
 11
4018.5
 21
47598.679025
 31
0.0
 12
4038.5
 22
47602.012358
 32
0.0
 13
4038.5
 23
47602.012358
 33
0.0
  0
POINT
  5
46
  8
DEFPOINTS
  6
BYBLOCK
 62
     0
 10
3961.5
 20
47764.0
 30
0.0
  0
POINT
  5
47
  8
DEFPOINTS
  6
BYBLOCK
 62
     0
 10
4038.5
 20
47764.0
 30
0.0
  0
POINT
  5
48
  8
DEFPOINTS
  6
BYBLOCK
 62
     0
 10
4038.5
 20
47602.012358
 30
0.0
  0
ENDBLK
  5
4A
  8
0
  0
BLOCK
  8
0
  2
*D6
 70
     1
 10
0.0
 20
0.0
 30
0.0
  3
*D6
  1

  0
LINE
  5
31
  8
0
  6
BYBLOCK
 62
     9
 10
3956.5
 20
47836.0
 30
0.0
 11
3798.412011
 21
47836.0
 31
0.0
  0
LINE
  5
32
  8
0
  6
BYBLOCK
 62
     9
 10
3956.5
 20
47759.0
 30
0.0
 11
3798.412011
 21
47759.0
 31
0.0
  0
LINE
  5
33
  8
0
  6
BYBLOCK
 62
     9
 10
3799.412011
 20
47856.0
 30
0.0
 11
3799.412011
 21
47876.0
 31
0.0
  0
LINE
  5
34
  8
0
  6
BYBLOCK
 62
     9
 10
3799.412011
 20
47739.0
 30
0.0
 11
3799.412011
 21
47719.0
 31
0.0
  0
SOLID
  5
35
  8
0
  6
BYBLOCK
 62
     9
 10
3796.078677
 20
47856.0
 30
0.0
 11
3802.745344
 21
47856.0
 31
0.0
 12
3799.412011
 22
47836.0
 32
0.0
 13
3799.412011
 23
47836.0
 33
0.0
  0
SOLID
  5
36
  8
0
  6
BYBLOCK
 62
     9
 10
3796.078677
 20
47739.0
 30
0.0
 11
3802.745344
 21
47739.0
 31
0.0
 12
3799.412011
 22
47759.0
 32
0.0
 13
3799.412011
 23
47759.0
 33
0.0
  0
TEXT
  5
37
  8
0
  6
BYBLOCK
 62
    11
 10
3816.912011
 20
47768.333333
 30
0.0
 40
35.0
  1
77
 50
90.0
  0
POINT
  5
38
  8
DEFPOINTS
  6
BYBLOCK
 62
     0
 10
3966.5
 20
47836.0
 30
0.0
  0
POINT
  5
39
  8
DEFPOINTS
  6
BYBLOCK
 62
     0
 10
3966.5
 20
47759.0
 30
0.0
  0
POINT
  5
3A
  8
DEFPOINTS
  6
BYBLOCK
 62
     0
 10
3799.412011
 20
47759.0
 30
0.0
  0
ENDBLK
  5
3C
  8
0
  0
BLOCK
  8
0
  2
*D7
 70
     1
 10
0.0
 20
0.0
 30
0.0
  3
*D7
  1

  0
LINE
  5
22
  8
0
  6
BYBLOCK
 62
     9
 10
3927.0
 20
48010.0
 30
0.0
 11
3927.0
 21
48050.404554
 31
0.0
  0
LINE
  5
23
  8
0
  6
BYBLOCK
 62
     9
 10
4073.0
 20
48010.0
 30
0.0
 11
4073.0
 21
48050.404554
 31
0.0
  0
LINE
  5
24
  8
0
  6
BYBLOCK
 62
     9
 10
3947.0
 20
48049.404554
 30
0.0
 11
3954.0
 21
48049.404554
 31
0.0
  0
LINE
  5
25
  8
0
  6
BYBLOCK
 62
     9
 10
4053.0
 20
48049.404554
 30
0.0
 11
4046.0
 21
48049.404554
 31
0.0
  0
TEXT
  5
26
  8
0
  6
BYBLOCK
 62
    11
 10
3959.166667
 20
48031.904554
 30
0.0
 40
35.0
  1
146
  0
SOLID
  5
27
  8
0
  6
BYBLOCK
 62
     9
 10
3947.0
 20
48052.737888
 30
0.0
 11
3947.0
 21
48046.071221
 31
0.0
 12
3927.0
 22
48049.404554
 32
0.0
 13
3927.0
 23
48049.404554
 33
0.0
  0
SOLID
  5
28
  8
0
  6
BYBLOCK
 62
     9
 10
4053.0
 20
48052.737888
 30
0.0
 11
4053.0
 21
48046.071221
 31
0.0
 12
4073.0
 22
48049.404554
 32
0.0
 13
4073.0
 23
48049.404554
 33
0.0
  0
POINT
  5
29
  8
DEFPOINTS
  6
BYBLOCK
 62
     0
 10
3927.0
 20
48000.0
 30
0.0
  0
POINT
  5
2B
  8
DEFPOINTS
  6
BYBLOCK
 62
     0
 10
4073.0
 20
48000.0
 30
0.0
  0
POINT
  5
2C
  8
DEFPOINTS
  6
BYBLOCK
 62
     0
 10
4073.0
 20
48049.404554
 30
0.0
  0
ENDBLK
  5
2E
  8
0
  0
ENDSEC
  0
SECTION
  2
ENTITIES
  0
DIMENSION
  5
20
  8
TEAM-MAS
  2
*D7
 10
73.0
 20
49.404554
 30
0.0
 11
0.0
 21
49.404554
 31
0.0
 12
-4000.0
 22
-48000.0
 32
0.0
 70
   128
 13
-73.0
 23
0.0
 33
0.0
 14
73.0
 24
0.0
 34
0.0
1001
ACAD
1000
DSTYLE
1002
{
1070
    40
1040
1.0
1002
}
  0
DIMENSION
  5
2F
  8
TEAM-MAS
  2
*D6
 10
-200.587989
 20
-241.0
 30
0.0
 11
-200.587989
 21
-202.5
 31
0.0
 12
-4000.0
 22
-48000.0
 32
0.0
 13
-33.5
 23
-164.0
 33
0.0
 14
-33.5
 24
-241.0
 34
0.0
 50
90.0
1001
ACAD
1000
DSTYLE
1002
{
1070
    40
1040
1.0
1002
}
  0
DIMENSION
  5
3D
  8
TEAM-MAS
  2
*D5
 10
38.5
 20
-397.987642
 30
0.0
 11
0.0
 21
-397.987642
 31
0.0
 12
-4000.0
 22
-48000.0
 32
0.0
 70
   128
 13
-38.5
 23
-236.0
 33
0.0
 14
38.5
 24
-236.0
 34
0.0
1001
ACAD
1000
DSTYLE
1002
{
1070
    40
1040
1.0
1002
}
  0
DIMENSION
  5
4B
  8
TEAM-MAS
  2
*D4
 10
125.0
 20
-446.772837
 30
0.0
 11
0.0
 21
-446.772837
 31
0.0
 12
-4000.0
 22
-48000.0
 32
0.0
 13
-125.0
 23
-322.5
 33
0.0
 14
125.0
 24
-322.5
 34
0.0
1001
ACAD
1000
DSTYLE
1002
{
1070
    40
1040
1.0
1002
}
  0
DIMENSION
  5
59
  8
TEAM-MAS
  2
*D3
 10
162.5
 20
-493.647492
 30
0.0
 11
0.0
 21
-493.647492
 31
0.0
 12
-4000.0
 22
-48000.0
 32
0.0
 13
-162.5
 23
-365.0
 33
0.0
 14
162.5
 24
-365.0
 34
0.0
1001
ACAD
1000
DSTYLE
1002
{
1070
    40
1040
1.0
1002
}
  0
DIMENSION
  5
67
  8
TEAM-MAS
  2
*D2
 10
203.195049
 20
-202.4
 30
0.0
 11
203.195049
 21
-121.25
 31
0.0
 12
-4000.0
 22
-48000.0
 32
0.0
 70
   128
  1
<>.5
 13
0.0
 23
0.0
 33
0.0
 14
38.5
 24
-202.4
 34
0.0
 50
90.0
1001
ACAD
1000
DSTYLE
1002
{
1070
    40
1040
1.0
1002
}
  0
DIMENSION
  5
75
  8
TEAM-MAS
  2
*D1
 10
248.404222
 20
-77.5
 30
0.0
 11
248.404222
 21
-202.5
 31
0.0
 12
-4000.0
 22
-48000.0
 32
0.0
 13
125.0
 23
-327.5
 33
0.0
 14
125.0
 24
-77.5
 34
0.0
 50
90.0
1001
ACAD
1000
DSTYLE
1002
{
1070
    40
1040
1.0
1002
}
  0
DIMENSION
  5
83
  8
TEAM-MAS
  2
*D0
 10
294.523847
 20
0.0
 30
0.0
 11
294.523847
 21
-182.5
 31
0.0
 12
-4000.0
 22
-48000.0
 32
0.0
 13
162.5
 23
-365.0
 33
0.0
 14
0.0
 24
0.0
 34
0.0
 50
90.0
1001
ACAD
1000
DSTYLE
1002
{
1070
    40
1040
1.0
1002
}
  0
LINE
  5
91
  8
TEAM-BODY
 10
73.0
 20
0.0
 30
0.0
 11
73.0
 21
-40.0
 31
0.0
  0
LINE
  5
93
  8
TEAM-BODY
 10
73.0
 20
0.0
 30
0.0
 11
-73.0
 21
0.0
 31
0.0
  0
LINE
  5
94
  8
TEAM-BODY
 10
-73.0
 20
0.0
 30
0.0
 11
-73.0
 21
-40.0
 31
0.0
  0
POLYLINE
  5
95
  8
TEAM-DET1
 66
     1
 10
0.0
 20
0.0
 30
0.0
 70
     1
  0
VERTEX
  5
12C
  8
TEAM-DET1
 10
-28.5
 20
-236.0
 30
0.0
  0
VERTEX
  5
12D
  8
TEAM-DET1
 10
28.5
 20
-236.0
 30
0.0
 42
0.414214
  0
VERTEX
  5
12E
  8
TEAM-DET1
 10
33.5
 20
-231.0
 30
0.0
  0
VERTEX
  5
12F
  8
TEAM-DET1
 10
33.5
 20
-174.0
 30
0.0
 42
0.414214
  0
VERTEX
  5
130
  8
TEAM-DET1
 10
28.5
 20
-169.0
 30
0.0
  0
VERTEX
  5
131
  8
TEAM-DET1
 10
-28.5
 20
-169.0
 30
0.0
 42
0.414214
  0
VERTEX
  5
132
  8
TEAM-DET1
 10
-33.5
 20
-174.0
 30
0.0
  0
VERTEX
  5
133
  8
TEAM-DET1
 10
-33.5
 20
-231.0
 30
0.0
 42
0.414214
  0
SEQEND
  5
134
  8
TEAM-DET1
  0
POLYLINE
  5
97
  8
TEAM-BODY
 66
     1
 10
0.0
 20
0.0
 30
0.0
 70
     1
  0
VERTEX
  5
135
  8
TEAM-BODY
 10
-23.0
 20
-230.5
 30
0.0
  0
VERTEX
  5
136
  8
TEAM-BODY
 10
23.0
 20
-230.5
 30
0.0
 42
0.414214
  0
VERTEX
  5
137
  8
TEAM-BODY
 10
28.0
 20
-225.5
 30
0.0
  0
VERTEX
  5
138
  8
TEAM-BODY
 10
28.0
 20
-179.5
 30
0.0
 42
0.414214
  0
VERTEX
  5
139
  8
TEAM-BODY
 10
23.0
 20
-174.5
 30
0.0
  0
VERTEX
  5
13A
  8
TEAM-BODY
 10
-23.0
 20
-174.5
 30
0.0
 42
0.414214
  0
VERTEX
  5
13B
  8
TEAM-BODY
 10
-28.0
 20
-179.5
 30
0.0
  0
VERTEX
  5
13C
  8
TEAM-BODY
 10
-28.0
 20
-225.5
 30
0.0
 42
0.414214
  0
SEQEND
  5
13D
  8
TEAM-BODY
  0
POLYLINE
  5
98
  8
TEAM-BODY
 66
     1
 10
0.0
 20
0.0
 30
0.0
 70
     1
  0
VERTEX
  5
13E
  8
TEAM-BODY
 10
-33.5
 20
-241.0
 30
0.0
  0
VERTEX
  5
13F
  8
TEAM-BODY
 10
33.5
 20
-241.0
 30
0.0
 42
0.414214
  0
VERTEX
  5
140
  8
TEAM-BODY
 10
38.5
 20
-236.0
 30
0.0
  0
VERTEX
  5
141
  8
TEAM-BODY
 10
38.5
 20
-169.0
 30
0.0
 42
0.414214
  0
VERTEX
  5
142
  8
TEAM-BODY
 10
33.5
 20
-164.0
 30
0.0
  0
VERTEX
  5
143
  8
TEAM-BODY
 10
-33.5
 20
-164.0
 30
0.0
 42
0.414214
  0
VERTEX
  5
144
  8
TEAM-BODY
 10
-38.5
 20
-169.0
 30
0.0
  0
VERTEX
  5
145
  8
TEAM-BODY
 10
-38.5
 20
-236.0
 30
0.0
 42
0.414214
  0
SEQEND
  5
146
  8
TEAM-BODY
  0
CIRCLE
  5
99
  8
TEAM-INSP
 10
0.0
 20
0.0
 30
0.0
 40
10.0
  0
TEXT
  5
9B
  8
TEAM-TXT
 10
-139.185
 20
-128.162304
 30
0.0
 40
30.0
  1
team 217053
 41
0.8
 51
15.0
  7
TEAM
  0
POLYLINE
  5
9E
  8
TEAM-BODY
 66
     1
 10
0.0
 20
0.0
 30
0.0
 70
     1
  0
VERTEX
  5
147
  8
TEAM-BODY
 10
-120.0
 20
-327.5
 30
0.0
  0
VERTEX
  5
148
  8
TEAM-BODY
 10
120.0
 20
-327.5
 30
0.0
 42
0.414214
  0
VERTEX
  5
149
  8
TEAM-BODY
 10
125.0
 20
-322.5
 30
0.0
  0
VERTEX
  5
14A
  8
TEAM-BODY
 10
125.0
 20
-82.5
 30
0.0
 42
0.414214
  0
VERTEX
  5
14B
  8
TEAM-BODY
 10
120.0
 20
-77.5
 30
0.0
  0
VERTEX
  5
14C
  8
TEAM-BODY
 10
-120.0
 20
-77.5
 30
0.0
 42
0.414214
  0
VERTEX
  5
14D
  8
TEAM-BODY
 10
-125.0
 20
-82.5
 30
0.0
  0
VERTEX
  5
14E
  8
TEAM-BODY
 10
-125.0
 20
-322.5
 30
0.0
 42
0.414214
  0
SEQEND
  5
14F
  8
TEAM-BODY
  0
POLYLINE
  5
9F
  8
TEAM-BODY
 66
     1
 10
0.0
 20
0.0
 30
0.0
 70
     1
  0
VERTEX
  5
150
  8
TEAM-BODY
 10
-162.5
 20
-365.0
 30
0.0
  0
VERTEX
  5
151
  8
TEAM-BODY
 10
162.5
 20
-365.0
 30
0.0
  0
VERTEX
  5
152
  8
TEAM-BODY
 10
162.5
 20
-40.0
 30
0.0
  0
VERTEX
  5
153
  8
TEAM-BODY
 10
-162.5
 20
-40.0
 30
0.0
  0
SEQEND
  5
154
  8
TEAM-BODY
  0
ENDSEC
  0
EOF
