  0
SECTION
  2
HEADER
  9
$ACADVER
  1
AC1009
  9
$INSBASE
 10
0.0
 20
0.0
 30
0.0
  9
$EXTMIN
 10
-555.020491
 20
-504.127262
 30
-0.000006
  9
$EXTMAX
 10
549.55422
 20
10.003598
 30
0.0
  9
$LIMMIN
 10
-555.020491
 20
-504.127262
  9
$LIMMAX
 10
549.55422
 20
10.003598
  9
$ORTHOMODE
 70
     1
  9
$REGENMODE
 70
     1
  9
$FILLMODE
 70
     1
  9
$QTEXTMODE
 70
     0
  9
$MIRRTEXT
 70
     0
  9
$DRAGMODE
 70
     2
  9
$LTSCALE
 40
50.0
  9
$OSMODE
 70
     7
  9
$ATTMODE
 70
     1
  9
$TEXTSIZE
 40
200.0
  9
$TRACEWID
 40
1.0
  9
$TEXTSTYLE
  7
STANDARD
  9
$CLAYER
  8
TEAM-MAS
  9
$CELTYPE
  6
BYLAYER
  9
$CECOLOR
 62
   256
  9
$DIMSCALE
 40
1.0
  9
$DIMASZ
 40
20.0
  9
$DIMEXO
 40
10.0
  9
$DIMDLI
 40
1.0
  9
$DIMRND
 40
0.0
  9
$DIMDLE
 40
0.0
  9
$DIMEXE
 40
1.0
  9
$DIMTP
 40
0.0
  9
$DIMTM
 40
0.0
  9
$DIMTXT
 40
35.0
  9
$DIMCEN
 40
1.0
  9
$DIMTSZ
 40
0.0
  9
$DIMTOL
 70
     0
  9
$DIMLIM
 70
     0
  9
$DIMTIH
 70
     0
  9
$DIMTOH
 70
     0
  9
$DIMSE1
 70
     0
  9
$DIMSE2
 70
     0
  9
$DIMTAD
 70
     0
  9
$DIMZIN
 70
     0
  9
$DIMBLK
  1

  9
$DIMASO
 70
     1
  9
$DIMSHO
 70
     0
  9
$DIMPOST
  1

  9
$DIMAPOST
  1

  9
$DIMALT
 70
     0
  9
$DIMALTD
 70
     2
  9
$DIMALTF
 40
25.4
  9
$DIMLFAC
 40
1.0
  9
$DIMTOFL
 70
     0
  9
$DIMTVP
 40
0.0
  9
$DIMTIX
 70
     0
  9
$DIMSOXD
 70
     0
  9
$DIMSAH
 70
     0
  9
$DIMBLK1
  1

  9
$DIMBLK2
  1

  9
$DIMSTYLE
  2
TEAM
  9
$DIMCLRD
 70
     9
  9
$DIMCLRE
 70
     9
  9
$DIMCLRT
 70
    11
  9
$DIMTFAC
 40
1.0
  9
$DIMGAP
 40
7.0
  9
$LUNITS
 70
     2
  9
$LUPREC
 70
     1
  9
$SKETCHINC
 40
1.0
  9
$FILLETRAD
 40
44.0
  9
$AUNITS
 70
     0
  9
$AUPREC
 70
     0
  9
$MENU
  1
ROPLANS
  9
$ELEVATION
 40
0.0
  9
$PELEVATION
 40
0.0
  9
$THICKNESS
 40
0.0
  9
$LIMCHECK
 70
     0
  9
$BLIPMODE
 70
     1
  9
$CHAMFERA
 40
0.0
  9
$CHAMFERB
 40
0.0
  9
$SKPOLY
 70
     0
  9
$TDCREATE
 40
2450392.957851
  9
$TDUPDATE
 40
2455981.928629
  9
$TDINDWG
 40
3.777306
  9
$TDUSRTIMER
 40
3.777306
  9
$USRTIMER
 70
     1
  9
$ANGBASE
 50
0.0
  9
$ANGDIR
 70
     0
  9
$PDMODE
 70
     0
  9
$PDSIZE
 40
0.0
  9
$PLINEWID
 40
0.0
  9
$COORDS
 70
     2
  9
$SPLFRAME
 70
     0
  9
$SPLINETYPE
 70
     6
  9
$SPLINESEGS
 70
     8
  9
$ATTDIA
 70
     0
  9
$ATTREQ
 70
     0
  9
$HANDLING
 70
     1
  9
$HANDSEED
  5
10E
  9
$SURFTAB1
 70
    36
  9
$SURFTAB2
 70
    36
  9
$SURFTYPE
 70
     6
  9
$SURFU
 70
     6
  9
$SURFV
 70
     6
  9
$UCSNAME
  2

  9
$UCSORG
 10
0.0
 20
0.0
 30
0.0
  9
$UCSXDIR
 10
1.0
 20
0.0
 30
0.0
  9
$UCSYDIR
 10
0.0
 20
1.0
 30
0.0
  9
$PUCSNAME
  2

  9
$PUCSORG
 10
0.0
 20
0.0
 30
0.0
  9
$PUCSXDIR
 10
1.0
 20
0.0
 30
0.0
  9
$PUCSYDIR
 10
0.0
 20
1.0
 30
0.0
  9
$USERI1
 70
     0
  9
$USERI2
 70
     0
  9
$USERI3
 70
     0
  9
$USERI4
 70
     0
  9
$USERI5
 70
     0
  9
$USERR1
 40
0.0
  9
$USERR2
 40
0.0
  9
$USERR3
 40
0.0
  9
$USERR4
 40
0.0
  9
$USERR5
 40
0.0
  9
$WORLDVIEW
 70
     1
  9
$SHADEDGE
 70
     0
  9
$SHADEDIF
 70
    70
  9
$TILEMODE
 70
     1
  9
$MAXACTVP
 70
    16
  9
$PLIMCHECK
 70
     0
  9
$PEXTMIN
 10
-0.805942
 20
0.005011
 30
0.0
  9
$PEXTMAX
 10
20.250094
 20
11.356329
 30
0.0
  9
$PLIMMIN
 10
0.0
 20
0.0
  9
$PLIMMAX
 10
12.0
 20
9.0
  9
$UNITMODE
 70
     0
  9
$VISRETAIN
 70
     0
  9
$PLINEGEN
 70
     0
  9
$PSLTSCALE
 70
     0
  0
ENDSEC
  0
SECTION
  2
TABLES
  0
TABLE
  2
VPORT
 70
     2
  0
VPORT
  2
*ACTIVE
 70
     0
 10
0.0
 20
0.0
 11
1.0
 21
1.0
 12
-2.733135
 22
-247.061832
 13
0.0
 23
0.0
 14
1.0
 24
1.0
 15
50.0
 25
50.0
 16
0.0
 26
0.0
 36
1.0
 17
0.0
 27
0.0
 37
0.0
 40
582.115943
 41
1.903766
 42
50.0
 43
0.0
 44
0.0
 50
0.0
 51
0.0
 71
     0
 72
   100
 73
     1
 74
     1
 75
     0
 76
     0
 77
     0
 78
     0
  0
ENDTAB
  0
TABLE
  2
LTYPE
 70
     2
  0
LTYPE
  2
CONTINUOUS
 70
     0
  3
Solid Line
 72
    65
 73
     0
 40
0.0
  0
LTYPE
  2
31
 70
     0
  3

 72
    65
 73
     4
 40
2.1
 49
1.5
 49
-0.3
 49
0.0
 49
-0.3
  0
ENDTAB
  0
TABLE
  2
LAYER
 70
     9
  0
LAYER
  2
0
 70
     0
 62
     7
  6
CONTINUOUS
  0
LAYER
  2
DEFPOINTS
 70
     0
 62
     7
  6
CONTINUOUS
  0
LAYER
  2
TEAM-BODY
 70
     0
 62
     2
  6
CONTINUOUS
  0
LAYER
  2
TEAM-AXE
 70
     0
 62
    10
  6
31
  0
LAYER
  2
TEAM-MAS
 70
     0
 62
     9
  6
CONTINUOUS
  0
LAYER
  2
TEAM-TXT
 70
     0
 62
    11
  6
CONTINUOUS
  0
LAYER
  2
TEAM-DET1
 70
     0
 62
     4
  6
CONTINUOUS
  0
LAYER
  2
TEAM-KAN
 70
     0
 62
     6
  6
CONTINUOUS
  0
LAYER
  2
TEAM-INSP
 70
     0
 62
     5
  6
CONTINUOUS
  0
ENDTAB
  0
TABLE
  2
STYLE
 70
     2
  0
STYLE
  2
STANDARD
 70
     0
 40
0.0
 41
1.0
 50
0.0
 71
     0
 42
200.0
  3
txt
  4

  0
STYLE
  2
TEAM
 70
     0
 40
0.0
 41
0.8
 50
15.0
 71
     0
 42
7.0
  3
ROMANS.shx
  4

  0
ENDTAB
  0
TABLE
  2
VIEW
 70
     0
  0
ENDTAB
  0
TABLE
  2
UCS
 70
     0
  0
ENDTAB
  0
TABLE
  2
APPID
 70
     1
  0
APPID
  2
ACAD
 70
     0
  0
ENDTAB
  0
TABLE
  2
DIMSTYLE
 70
     1
  0
DIMSTYLE
  2
TEAM
 70
     0
  3

  4

  5

  6

  7

 40
1.0
 41
20.0
 42
10.0
 43
1.0
 44
1.0
 45
0.0
 46
0.0
 47
0.0
 48
0.0
140
35.0
141
1.0
142
0.0
143
25.4
144
1.0
145
0.0
146
1.0
147
7.0
 71
     0
 72
     0
 73
     0
 74
     0
 75
     0
 76
     0
 77
     0
 78
     0
170
     0
171
     2
172
     0
173
     0
174
     0
175
     0
176
     9
177
     9
178
    11
  0
ENDTAB
  0
ENDSEC
  0
SECTION
  2
BLOCKS
  0
BLOCK
  8
0
  2
$MODEL_SPACE
 70
     0
 10
0.0
 20
0.0
 30
0.0
  3
$MODEL_SPACE
  1

  0
ENDBLK
  5
F4
  8
0
  0
BLOCK
 67
     1
  8
0
  2
$PAPER_SPACE
 70
     0
 10
0.0
 20
0.0
 30
0.0
  3
$PAPER_SPACE
  1

  0
ENDBLK
  5
F2
 67
     1
  8
0
  0
BLOCK
  8
0
  2
*D0
 70
     1
 10
0.0
 20
0.0
 30
0.0
  3
*D0
  1

  0
LINE
  5
47
  8
0
  6
BYBLOCK
 62
     9
 10
4410.0
 20
36000.0
 30
0.0
 11
4441.695049
 21
36000.0
 31
0.0
  0
LINE
  5
48
  8
0
  6
BYBLOCK
 62
     9
 10
3902.5
 20
35825.0
 30
0.0
 11
4441.695049
 21
35825.0
 31
0.0
  0
LINE
  5
49
  8
0
  6
BYBLOCK
 62
     9
 10
4440.695049
 20
35980.0
 30
0.0
 11
4440.695049
 21
35960.333333
 31
0.0
  0
LINE
  5
4A
  8
0
  6
BYBLOCK
 62
     9
 10
4440.695049
 20
35845.0
 30
0.0
 11
4440.695049
 21
35864.666667
 31
0.0
  0
SOLID
  5
4B
  8
0
  6
BYBLOCK
 62
     9
 10
4437.361716
 20
35980.0
 30
0.0
 11
4444.028382
 21
35980.0
 31
0.0
 12
4440.695049
 22
36000.0
 32
0.0
 13
4440.695049
 23
36000.0
 33
0.0
  0
SOLID
  5
4C
  8
0
  6
BYBLOCK
 62
     9
 10
4437.361716
 20
35845.0
 30
0.0
 11
4444.028382
 21
35845.0
 31
0.0
 12
4440.695049
 22
35825.0
 32
0.0
 13
4440.695049
 23
35825.0
 33
0.0
  0
TEXT
  5
4D
  8
0
  6
BYBLOCK
 62
    11
 10
4458.195049
 20
35871.666667
 30
0.0
 40
35.0
  1
175
 50
90.0
  0
POINT
  5
4E
  8
DEFPOINTS
  6
BYBLOCK
 62
     0
 10
4400.0
 20
36000.0
 30
0.0
  0
POINT
  5
4F
  8
DEFPOINTS
  6
BYBLOCK
 62
     0
 10
3892.5
 20
35825.0
 30
0.0
  0
POINT
  5
50
  8
DEFPOINTS
  6
BYBLOCK
 62
     0
 10
4440.695049
 20
35825.0
 30
0.0
  0
ENDBLK
  5
52
  8
0
  0
BLOCK
  8
0
  2
*D1
 70
     1
 10
0.0
 20
0.0
 30
0.0
  3
*D1
  1

  0
LINE
  5
38
  8
0
  6
BYBLOCK
 62
     9
 10
3600.0
 20
35585.0
 30
0.0
 11
3600.0
 21
35512.376107
 31
0.0
  0
LINE
  5
39
  8
0
  6
BYBLOCK
 62
     9
 10
4400.0
 20
35585.0
 30
0.0
 11
4400.0
 21
35512.376107
 31
0.0
  0
LINE
  5
3A
  8
0
  6
BYBLOCK
 62
     9
 10
3620.0
 20
35513.376107
 30
0.0
 11
3952.166667
 21
35513.376107
 31
0.0
  0
LINE
  5
3B
  8
0
  6
BYBLOCK
 62
     9
 10
4380.0
 20
35513.376107
 30
0.0
 11
4047.833333
 21
35513.376107
 31
0.0
  0
SOLID
  5
3C
  8
0
  6
BYBLOCK
 62
     9
 10
3620.0
 20
35516.70944
 30
0.0
 11
3620.0
 21
35510.042773
 31
0.0
 12
3600.0
 22
35513.376107
 32
0.0
 13
3600.0
 23
35513.376107
 33
0.0
  0
SOLID
  5
3D
  8
0
  6
BYBLOCK
 62
     9
 10
4380.0
 20
35516.70944
 30
0.0
 11
4380.0
 21
35510.042773
 31
0.0
 12
4400.0
 22
35513.376107
 32
0.0
 13
4400.0
 23
35513.376107
 33
0.0
  0
TEXT
  5
3E
  8
0
  6
BYBLOCK
 62
    11
 10
3959.166667
 20
35495.876107
 30
0.0
 40
35.0
  1
800
  0
POINT
  5
3F
  8
DEFPOINTS
  6
BYBLOCK
 62
     0
 10
3600.0
 20
35595.0
 30
0.0
  0
POINT
  5
40
  8
DEFPOINTS
  6
BYBLOCK
 62
     0
 10
4400.0
 20
35595.0
 30
0.0
  0
POINT
  5
41
  8
DEFPOINTS
  6
BYBLOCK
 62
     0
 10
4400.0
 20
35513.376107
 30
0.0
  0
ENDBLK
  5
43
  8
0
  0
BLOCK
  8
0
  2
*D2
 70
     1
 10
0.0
 20
0.0
 30
0.0
  3
*D2
  1

  0
LINE
  5
27
  8
0
  6
BYBLOCK
 62
     9
 10
3642.5
 20
35650.0
 30
0.0
 11
3642.5
 21
35559.250761
 31
0.0
  0
LINE
  5
28
  8
0
  6
BYBLOCK
 62
     9
 10
4142.5
 20
35650.0
 30
0.0
 11
4142.5
 21
35559.250761
 31
0.0
  0
LINE
  5
29
  8
0
  6
BYBLOCK
 62
     9
 10
3662.5
 20
35560.250761
 30
0.0
 11
3844.666667
 21
35560.250761
 31
0.0
  0
LINE
  5
2A
  8
0
  6
BYBLOCK
 62
     9
 10
4122.5
 20
35560.250761
 30
0.0
 11
3940.333333
 21
35560.250761
 31
0.0
  0
SOLID
  5
2B
  8
0
  6
BYBLOCK
 62
     9
 10
3662.5
 20
35563.584095
 30
0.0
 11
3662.5
 21
35556.917428
 31
0.0
 12
3642.5
 22
35560.250761
 32
0.0
 13
3642.5
 23
35560.250761
 33
0.0
  0
SOLID
  5
2C
  8
0
  6
BYBLOCK
 62
     9
 10
4122.5
 20
35563.584095
 30
0.0
 11
4122.5
 21
35556.917428
 31
0.0
 12
4142.5
 22
35560.250761
 32
0.0
 13
4142.5
 23
35560.250761
 33
0.0
  0
TEXT
  5
2D
  8
0
  6
BYBLOCK
 62
    11
 10
3851.666667
 20
35542.750761
 30
0.0
 40
35.0
  1
500
  0
POINT
  5
2E
  8
DEFPOINTS
  6
BYBLOCK
 62
     0
 10
3642.5
 20
35660.0
 30
0.0
  0
POINT
  5
30
  8
DEFPOINTS
  6
BYBLOCK
 62
     0
 10
4142.5
 20
35660.0
 30
0.0
  0
POINT
  5
31
  8
DEFPOINTS
  6
BYBLOCK
 62
     0
 10
4142.5
 20
35560.250761
 30
0.0
  0
ENDBLK
  5
33
  8
0
  0
BLOCK
  8
0
  2
*D3
 70
     1
 10
0.0
 20
0.0
 30
0.0
  3
*D3
  1

  0
LINE
  5
5F
  8
0
  6
BYBLOCK
 62
     9
 10
3642.5
 20
35650.0
 30
0.0
 11
3642.5
 21
35559.250761
 31
0.0
  0
LINE
  5
60
  8
0
  6
BYBLOCK
 62
     9
 10
3600.1
 20
35585.0
 30
0.0
 11
3600.1
 21
35559.250761
 31
0.0
  0
LINE
  5
61
  8
0
  6
BYBLOCK
 62
     9
 10
3662.5
 20
35560.250761
 30
0.0
 11
3682.5
 21
35560.250761
 31
0.0
  0
LINE
  5
62
  8
0
  6
BYBLOCK
 62
     9
 10
3580.1
 20
35560.250761
 30
0.0
 11
3560.1
 21
35560.250761
 31
0.0
  0
TEXT
  5
63
  8
0
  6
BYBLOCK
 62
    11
 10
3444.994535
 20
35542.750761
 30
0.0
 40
35.0
  1
42.5
  0
LINE
  5
64
  8
0
  6
BYBLOCK
 62
     9
 10
3642.5
 20
35560.250761
 30
0.0
 11
3600.1
 21
35560.250761
 31
0.0
  0
SOLID
  5
65
  8
0
  6
BYBLOCK
 62
     9
 10
3662.5
 20
35563.584095
 30
0.0
 11
3662.5
 21
35556.917428
 31
0.0
 12
3642.5
 22
35560.250761
 32
0.0
 13
3642.5
 23
35560.250761
 33
0.0
  0
SOLID
  5
66
  8
0
  6
BYBLOCK
 62
     9
 10
3580.1
 20
35563.584095
 30
0.0
 11
3580.1
 21
35556.917428
 31
0.0
 12
3600.1
 22
35560.250761
 32
0.0
 13
3600.1
 23
35560.250761
 33
0.0
  0
POINT
  5
67
  8
DEFPOINTS
  6
BYBLOCK
 62
     0
 10
3642.5
 20
35660.0
 30
0.0
  0
POINT
  5
68
  8
DEFPOINTS
  6
BYBLOCK
 62
     0
 10
3600.1
 20
35595.0
 30
0.0
  0
POINT
  5
69
  8
DEFPOINTS
  6
BYBLOCK
 62
     0
 10
3600.1
 20
35560.250761
 30
0.0
  0
ENDBLK
  5
6B
  8
0
  0
BLOCK
  8
0
  2
*D4
 70
     1
 10
0.0
 20
0.0
 30
0.0
  3
*D4
  1

  0
LINE
  5
8C
  8
0
  6
BYBLOCK
 62
     9
 10
4142.5
 20
35650.0
 30
0.0
 11
4142.5
 21
35559.250761
 31
0.0
  0
LINE
  5
8D
  8
0
  6
BYBLOCK
 62
     9
 10
4399.9
 20
35585.0
 30
0.0
 11
4399.9
 21
35559.250761
 31
0.0
  0
LINE
  5
8E
  8
0
  6
BYBLOCK
 62
     9
 10
4162.5
 20
35560.250761
 30
0.0
 11
4194.2
 21
35560.250761
 31
0.0
  0
LINE
  5
8F
  8
0
  6
BYBLOCK
 62
     9
 10
4379.9
 20
35560.250761
 30
0.0
 11
4348.2
 21
35560.250761
 31
0.0
  0
SOLID
  5
90
  8
0
  6
BYBLOCK
 62
     9
 10
4162.5
 20
35563.584095
 30
0.0
 11
4162.5
 21
35556.917428
 31
0.0
 12
4142.5
 22
35560.250761
 32
0.0
 13
4142.5
 23
35560.250761
 33
0.0
  0
SOLID
  5
91
  8
0
  6
BYBLOCK
 62
     9
 10
4379.9
 20
35563.584095
 30
0.0
 11
4379.9
 21
35556.917428
 31
0.0
 12
4399.9
 22
35560.250761
 32
0.0
 13
4399.9
 23
35560.250761
 33
0.0
  0
TEXT
  5
92
  8
0
  6
BYBLOCK
 62
    11
 10
4201.2
 20
35542.750761
 30
0.0
 40
35.0
  1
257.5
  0
POINT
  5
93
  8
DEFPOINTS
  6
BYBLOCK
 62
     0
 10
4142.5
 20
35660.0
 30
0.0
  0
POINT
  5
94
  8
DEFPOINTS
  6
BYBLOCK
 62
     0
 10
4399.9
 20
35595.0
 30
0.0
  0
POINT
  5
95
  8
DEFPOINTS
  6
BYBLOCK
 62
     0
 10
4399.9
 20
35560.250761
 30
0.0
  0
ENDBLK
  5
97
  8
0
  0
BLOCK
  8
0
  2
*D5
 70
     1
 10
0.0
 20
0.0
 30
0.0
  3
*D5
  1

  0
LINE
  5
7E
  8
0
  6
BYBLOCK
 62
     9
 10
4410.0
 20
35595.0
 30
0.0
 11
4533.023847
 21
35595.0
 31
0.0
  0
LINE
  5
7F
  8
0
  6
BYBLOCK
 62
     9
 10
4010.0
 20
36000.0
 30
0.0
 11
4533.023847
 21
36000.0
 31
0.0
  0
LINE
  5
80
  8
0
  6
BYBLOCK
 62
     9
 10
4532.023847
 20
35615.0
 30
0.0
 11
4532.023847
 21
35746.75
 31
0.0
  0
LINE
  5
81
  8
0
  6
BYBLOCK
 62
     9
 10
4532.023847
 20
35980.0
 30
0.0
 11
4532.023847
 21
35848.25
 31
0.0
  0
SOLID
  5
82
  8
0
  6
BYBLOCK
 62
     9
 10
4528.690514
 20
35615.0
 30
0.0
 11
4535.35718
 21
35615.0
 31
0.0
 12
4532.023847
 22
35595.0
 32
0.0
 13
4532.023847
 23
35595.0
 33
0.0
  0
SOLID
  5
83
  8
0
  6
BYBLOCK
 62
     9
 10
4528.690514
 20
35980.0
 30
0.0
 11
4535.35718
 21
35980.0
 31
0.0
 12
4532.023847
 22
36000.0
 32
0.0
 13
4532.023847
 23
36000.0
 33
0.0
  0
TEXT
  5
84
  8
0
  6
BYBLOCK
 62
    11
 10
4549.523847
 20
35753.75
 30
0.0
 40
35.0
  1
405
 50
90.0
  0
POINT
  5
85
  8
DEFPOINTS
  6
BYBLOCK
 62
     0
 10
4400.0
 20
35595.0
 30
0.0
  0
POINT
  5
86
  8
DEFPOINTS
  6
BYBLOCK
 62
     0
 10
4000.0
 20
36000.0
 30
0.0
  0
POINT
  5
87
  8
DEFPOINTS
  6
BYBLOCK
 62
     0
 10
4532.023847
 20
36000.0
 30
0.0
  0
ENDBLK
  5
89
  8
0
  0
BLOCK
  8
0
  2
*D6
 70
     1
 10
0.0
 20
0.0
 30
0.0
  3
*D6
  1

  0
LINE
  5
6E
  8
0
  6
BYBLOCK
 62
     9
 10
4132.5
 20
35640.0
 30
0.0
 11
4486.904222
 21
35640.0
 31
0.0
  0
LINE
  5
6F
  8
0
  6
BYBLOCK
 62
     9
 10
4132.5
 20
35900.0
 30
0.0
 11
4486.904222
 21
35900.0
 31
0.0
  0
LINE
  5
70
  8
0
  6
BYBLOCK
 62
     9
 10
4485.904222
 20
35660.0
 30
0.0
 11
4485.904222
 21
35719.25
 31
0.0
  0
LINE
  5
71
  8
0
  6
BYBLOCK
 62
     9
 10
4485.904222
 20
35880.0
 30
0.0
 11
4485.904222
 21
35820.75
 31
0.0
  0
SOLID
  5
72
  8
0
  6
BYBLOCK
 62
     9
 10
4482.570889
 20
35660.0
 30
0.0
 11
4489.237555
 21
35660.0
 31
0.0
 12
4485.904222
 22
35640.0
 32
0.0
 13
4485.904222
 23
35640.0
 33
0.0
  0
SOLID
  5
73
  8
0
  6
BYBLOCK
 62
     9
 10
4482.570889
 20
35880.0
 30
0.0
 11
4489.237555
 21
35880.0
 31
0.0
 12
4485.904222
 22
35900.0
 32
0.0
 13
4485.904222
 23
35900.0
 33
0.0
  0
TEXT
  5
74
  8
0
  6
BYBLOCK
 62
    11
 10
4503.404222
 20
35726.25
 30
0.0
 40
35.0
  1
260
 50
90.0
  0
POINT
  5
75
  8
DEFPOINTS
  6
BYBLOCK
 62
     0
 10
4122.5
 20
35640.0
 30
0.0
  0
POINT
  5
76
  8
DEFPOINTS
  6
BYBLOCK
 62
     0
 10
4122.5
 20
35900.0
 30
0.0
  0
POINT
  5
77
  8
DEFPOINTS
  6
BYBLOCK
 62
     0
 10
4485.904222
 20
35900.0
 30
0.0
  0
ENDBLK
  5
79
  8
0
  0
ENDSEC
  0
SECTION
  2
ENTITIES
  0
TEXT
  5
20
  8
TEAM-TXT
 10
-329.481147
 20
-307.186333
 30
0.0
 40
30.0
  1
team 217055
 41
0.8
 51
15.0
  7
TEAM
  0
POLYLINE
  5
23
  8
TEAM-BODY
 66
     1
 10
0.0
 20
0.0
 30
0.0
 70
     1
  0
VERTEX
  5
FA
  8
TEAM-BODY
 10
-337.5
 20
-360.0
 30
0.0
  0
VERTEX
  5
FB
  8
TEAM-BODY
 10
122.5
 20
-360.0
 30
0.0
 42
0.414214
  0
VERTEX
  5
FC
  8
TEAM-BODY
 10
142.5
 20
-340.0
 30
0.0
  0
VERTEX
  5
FD
  8
TEAM-BODY
 10
142.5
 20
-120.0
 30
0.0
 42
0.414214
  0
VERTEX
  5
FE
  8
TEAM-BODY
 10
122.5
 20
-100.0
 30
0.0
  0
VERTEX
  5
FF
  8
TEAM-BODY
 10
-337.5
 20
-100.0
 30
0.0
 42
0.414214
  0
VERTEX
  5
100
  8
TEAM-BODY
 10
-357.5
 20
-120.0
 30
0.0
  0
VERTEX
  5
101
  8
TEAM-BODY
 10
-357.5
 20
-340.0
 30
0.0
 42
0.414214
  0
SEQEND
  5
102
  8
TEAM-BODY
  0
DIMENSION
  5
25
  8
TEAM-MAS
  2
*D2
 10
142.5
 20
-439.749239
 30
0.0
 11
-107.5
 21
-439.749239
 31
0.0
 12
-4000.0
 22
-36000.0
 32
0.0
 13
-357.5
 23
-340.0
 33
0.0
 14
142.5
 24
-340.0
 34
0.0
1001
ACAD
1000
DSTYLE
1002
{
1070
    40
1040
1.0
1002
}
  0
POLYLINE
  5
34
  8
TEAM-DET1
 66
     1
 10
0.0
 20
0.0
 30
0.0
 70
     1
  0
VERTEX
  5
103
  8
TEAM-DET1
 10
-352.5
 20
-335.0
 30
0.0
  0
VERTEX
  5
104
  8
TEAM-DET1
 10
137.5
 20
-335.0
 30
0.0
  0
VERTEX
  5
105
  8
TEAM-DET1
 10
137.5
 20
-125.0
 30
0.0
  0
VERTEX
  5
106
  8
TEAM-DET1
 10
-352.5
 20
-125.0
 30
0.0
  0
SEQEND
  5
107
  8
TEAM-DET1
  0
DIMENSION
  5
36
  8
TEAM-MAS
  2
*D1
 10
400.0
 20
-486.623893
 30
0.0
 11
0.0
 21
-486.623893
 31
0.0
 12
-4000.0
 22
-36000.0
 32
0.0
 13
-400.0
 23
-405.0
 33
0.0
 14
400.0
 24
-405.0
 34
0.0
1001
ACAD
1000
DSTYLE
1002
{
1070
    40
1040
1.0
1002
}
  0
POLYLINE
  5
44
  8
TEAM-BODY
 66
     1
 10
0.0
 20
0.0
 30
0.0
 70
     1
  0
VERTEX
  5
108
  8
TEAM-BODY
 10
-400.0
 20
-405.0
 30
0.0
  0
VERTEX
  5
109
  8
TEAM-BODY
 10
400.0
 20
-405.0
 30
0.0
  0
VERTEX
  5
10A
  8
TEAM-BODY
 10
400.0
 20
0.0
 30
0.0
  0
VERTEX
  5
10B
  8
TEAM-BODY
 10
-400.0
 20
0.0
 30
0.0
  0
SEQEND
  5
10C
  8
TEAM-BODY
  0
DIMENSION
  5
45
  8
TEAM-MAS
  2
*D0
 10
440.695049
 20
-175.0
 30
0.0
 11
440.695049
 21
-87.5
 31
0.0
 12
-4000.0
 22
-36000.0
 32
0.0
 13
400.0
 23
0.0
 33
0.0
 14
-107.5
 24
-175.0
 34
0.0
 50
90.0
1001
ACAD
1000
DSTYLE
1002
{
1070
    40
1040
1.0
1002
}
  0
LINE
  5
53
  8
TEAM-AXE
 10
-142.5
 20
-175.0
 30
0.0
 11
-72.5
 21
-175.0
 31
0.0
  0
LINE
  5
56
  8
TEAM-AXE
 10
-107.5
 20
-70.0
 30
0.0
 11
-107.5
 21
-30.0
 31
0.0
  0
LINE
  5
57
  8
TEAM-AXE
 10
-127.5
 20
-50.0
 30
0.0
 11
-87.5
 21
-50.0
 31
0.0
  0
CIRCLE
  5
58
  8
TEAM-DET1
 10
-107.5
 20
-50.0
 30
0.0
 40
18.0
  0
CIRCLE
  5
59
  8
TEAM-DET1
 10
-107.5
 20
-175.0
 30
0.0
 40
30.0
  0
CIRCLE
  5
5A
  8
TEAM-KAN
 10
-107.5
 20
-175.0
 30
0.0
 40
20.0
  0
LINE
  5
5C
  8
TEAM-AXE
 10
-107.5
 20
-210.0
 30
0.0
 11
-107.5
 21
-140.0
 31
0.0
  0
DIMENSION
  5
5D
  8
TEAM-MAS
  2
*D3
 10
-399.9
 20
-439.749239
 30
0.0
 11
-502.505465
 21
-439.749239
 31
0.0
 12
-4000.0
 22
-36000.0
 32
0.0
 70
   128
  1
<>.5
 13
-357.5
 23
-340.0
 33
0.0
 14
-399.9
 24
-405.0
 34
0.0
1001
ACAD
1000
DSTYLE
1002
{
1070
    40
1040
1.0
1002
}
  0
DIMENSION
  5
6C
  8
TEAM-MAS
  2
*D6
 10
485.904222
 20
-100.0
 30
0.0
 11
485.904222
 21
-230.0
 31
0.0
 12
-4000.0
 22
-36000.0
 32
0.0
 13
122.5
 23
-360.0
 33
0.0
 14
122.5
 24
-100.0
 34
0.0
 50
90.0
1001
ACAD
1000
DSTYLE
1002
{
1070
    40
1040
1.0
1002
}
  0
CIRCLE
  5
7A
  8
TEAM-INSP
 10
0.0
 20
0.0
 30
0.0
 40
10.0
  0
DIMENSION
  5
7C
  8
TEAM-MAS
  2
*D5
 10
532.023847
 20
0.0
 30
0.0
 11
532.023847
 21
-202.5
 31
0.0
 12
-4000.0
 22
-36000.0
 32
0.0
 13
400.0
 23
-405.0
 33
0.0
 14
0.0
 24
0.0
 34
0.0
 50
90.0
1001
ACAD
1000
DSTYLE
1002
{
1070
    40
1040
1.0
1002
}
  0
DIMENSION
  5
8A
  8
TEAM-MAS
  2
*D4
 10
399.9
 20
-439.749239
 30
0.0
 11
271.2
 21
-439.749239
 31
0.0
 12
-4000.0
 22
-36000.0
 32
0.0
  1
<>.5
 13
142.5
 23
-340.0
 33
0.0
 14
399.9
 24
-405.0
 34
0.0
1001
ACAD
1000
DSTYLE
1002
{
1070
    40
1040
1.0
1002
}
  0
ENDSEC
  0
EOF
