  0
SECTION
  2
HEADER
  9
$ACADVER
  1
AC1009
  9
$INSBASE
 10
0.0
 20
0.0
 30
0.0
  9
$EXTMIN
 10
-462.723608
 20
-10.067447
 30
-20.001464
  9
$EXTMAX
 10
549.943598
 20
946.895203
 30
20.002605
  9
$LIMMIN
 10
-462.723608
 20
-10.067447
  9
$LIMMAX
 10
549.943598
 20
946.895203
  9
$ORTHOMODE
 70
     1
  9
$REGENMODE
 70
     1
  9
$FILLMODE
 70
     1
  9
$QTEXTMODE
 70
     0
  9
$MIRRTEXT
 70
     0
  9
$DRAGMODE
 70
     2
  9
$LTSCALE
 40
50.0
  9
$OSMODE
 70
     7
  9
$ATTMODE
 70
     1
  9
$TEXTSIZE
 40
200.0
  9
$TRACEWID
 40
1.0
  9
$TEXTSTYLE
  7
STANDARD
  9
$CLAYER
  8
TEAM-MAS
  9
$CELTYPE
  6
BYLAYER
  9
$CECOLOR
 62
   256
  9
$DIMSCALE
 40
0.0
  9
$DIMASZ
 40
20.0
  9
$DIMEXO
 40
10.0
  9
$DIMDLI
 40
1.0
  9
$DIMRND
 40
0.0
  9
$DIMDLE
 40
0.0
  9
$DIMEXE
 40
1.0
  9
$DIMTP
 40
0.0
  9
$DIMTM
 40
0.0
  9
$DIMTXT
 40
35.0
  9
$DIMCEN
 40
1.0
  9
$DIMTSZ
 40
0.0
  9
$DIMTOL
 70
     0
  9
$DIMLIM
 70
     0
  9
$DIMTIH
 70
     0
  9
$DIMTOH
 70
     0
  9
$DIMSE1
 70
     0
  9
$DIMSE2
 70
     0
  9
$DIMTAD
 70
     0
  9
$DIMZIN
 70
     0
  9
$DIMBLK
  1

  9
$DIMASO
 70
     1
  9
$DIMSHO
 70
     0
  9
$DIMPOST
  1

  9
$DIMAPOST
  1

  9
$DIMALT
 70
     0
  9
$DIMALTD
 70
     2
  9
$DIMALTF
 40
25.4
  9
$DIMLFAC
 40
1.0
  9
$DIMTOFL
 70
     0
  9
$DIMTVP
 40
0.0
  9
$DIMTIX
 70
     0
  9
$DIMSOXD
 70
     0
  9
$DIMSAH
 70
     0
  9
$DIMBLK1
  1

  9
$DIMBLK2
  1

  9
$DIMSTYLE
  2
TEAM
  9
$DIMCLRD
 70
     9
  9
$DIMCLRE
 70
     9
  9
$DIMCLRT
 70
    11
  9
$DIMTFAC
 40
1.0
  9
$DIMGAP
 40
7.0
  9
$LUNITS
 70
     2
  9
$LUPREC
 70
     1
  9
$SKETCHINC
 40
1.0
  9
$FILLETRAD
 40
50.0
  9
$AUNITS
 70
     0
  9
$AUPREC
 70
     0
  9
$MENU
  1
ROPLANS
  9
$ELEVATION
 40
0.0
  9
$PELEVATION
 40
0.0
  9
$THICKNESS
 40
0.0
  9
$LIMCHECK
 70
     0
  9
$BLIPMODE
 70
     1
  9
$CHAMFERA
 40
0.0
  9
$CHAMFERB
 40
0.0
  9
$SKPOLY
 70
     0
  9
$TDCREATE
 40
2450392.957851
  9
$TDUPDATE
 40
2456007.443441
  9
$TDINDWG
 40
2.426484
  9
$TDUSRTIMER
 40
2.426484
  9
$USRTIMER
 70
     1
  9
$ANGBASE
 50
0.0
  9
$ANGDIR
 70
     0
  9
$PDMODE
 70
     0
  9
$PDSIZE
 40
0.0
  9
$PLINEWID
 40
0.0
  9
$COORDS
 70
     2
  9
$SPLFRAME
 70
     0
  9
$SPLINETYPE
 70
     6
  9
$SPLINESEGS
 70
     8
  9
$ATTDIA
 70
     0
  9
$ATTREQ
 70
     0
  9
$HANDLING
 70
     1
  9
$HANDSEED
  5
178
  9
$SURFTAB1
 70
    24
  9
$SURFTAB2
 70
    24
  9
$SURFTYPE
 70
     6
  9
$SURFU
 70
     6
  9
$SURFV
 70
     6
  9
$UCSNAME
  2

  9
$UCSORG
 10
0.0
 20
0.0
 30
0.0
  9
$UCSXDIR
 10
1.0
 20
0.0
 30
0.0
  9
$UCSYDIR
 10
0.0
 20
1.0
 30
0.0
  9
$PUCSNAME
  2

  9
$PUCSORG
 10
0.0
 20
0.0
 30
0.0
  9
$PUCSXDIR
 10
1.0
 20
0.0
 30
0.0
  9
$PUCSYDIR
 10
0.0
 20
1.0
 30
0.0
  9
$USERI1
 70
     0
  9
$USERI2
 70
     0
  9
$USERI3
 70
     0
  9
$USERI4
 70
     0
  9
$USERI5
 70
     0
  9
$USERR1
 40
0.0
  9
$USERR2
 40
0.0
  9
$USERR3
 40
0.0
  9
$USERR4
 40
0.0
  9
$USERR5
 40
0.0
  9
$WORLDVIEW
 70
     1
  9
$SHADEDGE
 70
     0
  9
$SHADEDIF
 70
    70
  9
$TILEMODE
 70
     1
  9
$MAXACTVP
 70
    16
  9
$PLIMCHECK
 70
     0
  9
$PEXTMIN
 10
-0.805942
 20
0.005011
 30
0.0
  9
$PEXTMAX
 10
20.250094
 20
11.356329
 30
0.0
  9
$PLIMMIN
 10
0.0
 20
0.0
  9
$PLIMMAX
 10
12.0
 20
9.0
  9
$UNITMODE
 70
     0
  9
$VISRETAIN
 70
     0
  9
$PLINEGEN
 70
     0
  9
$PSLTSCALE
 70
     0
  0
ENDSEC
  0
SECTION
  2
TABLES
  0
TABLE
  2
VPORT
 70
     2
  0
VPORT
  2
*ACTIVE
 70
     0
 10
0.0
 20
0.0
 11
1.0
 21
1.0
 12
43.609995
 22
468.413878
 13
0.0
 23
0.0
 14
1.0
 24
1.0
 15
50.0
 25
50.0
 16
0.0
 26
0.0
 36
1.0
 17
0.0
 27
0.0
 37
0.0
 40
962.962416
 41
1.903766
 42
50.0
 43
0.0
 44
0.0
 50
0.0
 51
0.0
 71
     0
 72
   100
 73
     1
 74
     1
 75
     0
 76
     0
 77
     0
 78
     0
  0
ENDTAB
  0
TABLE
  2
LTYPE
 70
     3
  0
LTYPE
  2
CONTINUOUS
 70
     0
  3
Solid Line
 72
    65
 73
     0
 40
0.0
  0
LTYPE
  2
31
 70
     0
  3

 72
    65
 73
     4
 40
2.1
 49
1.5
 49
-0.3
 49
0.0
 49
-0.3
  0
LTYPE
  2
22
 70
     0
  3

 72
    65
 73
     2
 40
1.4
 49
1.2
 49
-0.2
  0
ENDTAB
  0
TABLE
  2
LAYER
 70
    12
  0
LAYER
  2
0
 70
     0
 62
     7
  6
CONTINUOUS
  0
LAYER
  2
DEFPOINTS
 70
     0
 62
     7
  6
CONTINUOUS
  0
LAYER
  2
TEAM-BODY
 70
     0
 62
     2
  6
CONTINUOUS
  0
LAYER
  2
TEAM-AXE
 70
     0
 62
    10
  6
31
  0
LAYER
  2
TEAM-MAS
 70
     0
 62
     9
  6
CONTINUOUS
  0
LAYER
  2
TEAM-TXT
 70
     0
 62
    11
  6
CONTINUOUS
  0
LAYER
  2
TEAM-COLD
 70
     0
 62
     3
  6
CONTINUOUS
  0
LAYER
  2
TEAM-HIDE
 70
     0
 62
     8
  6
22
  0
LAYER
  2
TEAM-KAN
 70
     0
 62
     6
  6
CONTINUOUS
  0
LAYER
  2
TEAM-WARM
 70
     0
 62
     1
  6
CONTINUOUS
  0
LAYER
  2
TEAM-NET
 70
     0
 62
    15
  6
CONTINUOUS
  0
LAYER
  2
TEAM-INSP
 70
     0
 62
     5
  6
CONTINUOUS
  0
ENDTAB
  0
TABLE
  2
STYLE
 70
     2
  0
STYLE
  2
STANDARD
 70
     0
 40
0.0
 41
1.0
 50
0.0
 71
     0
 42
200.0
  3
txt
  4

  0
STYLE
  2
TEAM
 70
     0
 40
0.0
 41
0.8
 50
15.0
 71
     0
 42
7.0
  3
ROMANS.shx
  4

  0
ENDTAB
  0
TABLE
  2
VIEW
 70
     0
  0
ENDTAB
  0
TABLE
  2
UCS
 70
     0
  0
ENDTAB
  0
TABLE
  2
APPID
 70
     1
  0
APPID
  2
ACAD
 70
     0
  0
ENDTAB
  0
TABLE
  2
DIMSTYLE
 70
     1
  0
DIMSTYLE
  2
TEAM
 70
     0
  3

  4

  5

  6

  7

 40
0.0
 41
20.0
 42
10.0
 43
1.0
 44
1.0
 45
0.0
 46
0.0
 47
0.0
 48
0.0
140
35.0
141
1.0
142
0.0
143
25.4
144
1.0
145
0.0
146
1.0
147
7.0
 71
     0
 72
     0
 73
     0
 74
     0
 75
     0
 76
     0
 77
     0
 78
     0
170
     0
171
     2
172
     0
173
     0
174
     0
175
     0
176
     9
177
     9
178
    11
  0
ENDTAB
  0
ENDSEC
  0
SECTION
  2
BLOCKS
  0
BLOCK
  8
0
  2
$MODEL_SPACE
 70
     0
 10
0.0
 20
0.0
 30
0.0
  3
$MODEL_SPACE
  1

  0
ENDBLK
  5
167
  8
0
  0
BLOCK
 67
     1
  8
0
  2
$PAPER_SPACE
 70
     0
 10
0.0
 20
0.0
 30
0.0
  3
$PAPER_SPACE
  1

  0
ENDBLK
  5
165
 67
     1
  8
0
  0
BLOCK
  8
0
  2
*D0
 70
     1
 10
0.0
 20
0.0
 30
0.0
  3
*D0
  1

  0
LINE
  5
59
  8
0
  6
BYBLOCK
 62
     9
 10
-22.5
 20
12600.0
 30
0.0
 11
443.940139
 21
12600.0
 31
0.0
  0
LINE
  5
5A
  8
0
  6
BYBLOCK
 62
     9
 10
10.0
 20
12000.0
 30
0.0
 11
443.940139
 21
12000.0
 31
0.0
  0
LINE
  5
5B
  8
0
  6
BYBLOCK
 62
     9
 10
442.940139
 20
12580.0
 30
0.0
 11
442.940139
 21
12414.916667
 31
0.0
  0
LINE
  5
5C
  8
0
  6
BYBLOCK
 62
     9
 10
442.940139
 20
12020.0
 30
0.0
 11
442.940139
 21
12185.083333
 31
0.0
  0
SOLID
  5
5D
  8
0
  6
BYBLOCK
 62
     9
 10
439.606805
 20
12580.0
 30
0.0
 11
446.273472
 21
12580.0
 31
0.0
 12
442.940139
 22
12600.0
 32
0.0
 13
442.940139
 23
12600.0
 33
0.0
  0
SOLID
  5
5E
  8
0
  6
BYBLOCK
 62
     9
 10
439.606805
 20
12020.0
 30
0.0
 11
446.273472
 21
12020.0
 31
0.0
 12
442.940139
 22
12000.0
 32
0.0
 13
442.940139
 23
12000.0
 33
0.0
  0
TEXT
  5
5F
  8
0
  6
BYBLOCK
 62
    11
 10
460.440139
 20
12192.083333
 30
0.0
 40
35.0
  1
600-640
 50
90.0
  0
POINT
  5
60
  8
DEFPOINTS
  6
BYBLOCK
 62
     0
 10
-32.5
 20
12600.0
 30
0.0
  0
POINT
  5
61
  8
DEFPOINTS
  6
BYBLOCK
 62
     0
 10
0.0
 20
12000.0
 30
0.0
  0
POINT
  5
62
  8
DEFPOINTS
  6
BYBLOCK
 62
     0
 10
442.940139
 20
12000.0
 30
20.0
  0
ENDBLK
  5
64
  8
0
  0
BLOCK
  8
0
  2
*D1
 70
     1
 10
0.0
 20
0.0
 30
0.0
  3
*D1
  1

  0
LINE
  5
75
  8
0
  6
BYBLOCK
 62
     9
 10
-97.5
 20
12550.0
 30
0.0
 11
488.828228
 21
12550.0
 31
0.0
  0
LINE
  5
76
  8
0
  6
BYBLOCK
 62
     9
 10
10.0
 20
12000.0
 30
0.0
 11
488.828228
 21
12000.0
 31
0.0
  0
LINE
  5
77
  8
0
  6
BYBLOCK
 62
     9
 10
487.828228
 20
12530.0
 30
0.0
 11
487.828228
 21
12325.75
 31
0.0
  0
LINE
  5
78
  8
0
  6
BYBLOCK
 62
     9
 10
487.828228
 20
12020.0
 30
0.0
 11
487.828228
 21
12224.25
 31
0.0
  0
SOLID
  5
79
  8
0
  6
BYBLOCK
 62
     9
 10
484.494894
 20
12530.0
 30
0.0
 11
491.161561
 21
12530.0
 31
0.0
 12
487.828228
 22
12550.0
 32
0.0
 13
487.828228
 23
12550.0
 33
0.0
  0
SOLID
  5
7A
  8
0
  6
BYBLOCK
 62
     9
 10
484.494894
 20
12020.0
 30
0.0
 11
491.161561
 21
12020.0
 31
0.0
 12
487.828228
 22
12000.0
 32
0.0
 13
487.828228
 23
12000.0
 33
0.0
  0
TEXT
  5
7B
  8
0
  6
BYBLOCK
 62
    11
 10
505.328228
 20
12231.25
 30
0.0
 40
35.0
  1
550
 50
90.0
  0
POINT
  5
7C
  8
DEFPOINTS
  6
BYBLOCK
 62
     0
 10
-107.5
 20
12550.0
 30
10.0
  0
POINT
  5
7D
  8
DEFPOINTS
  6
BYBLOCK
 62
     0
 10
0.0
 20
12000.0
 30
10.0
  0
POINT
  5
7E
  8
DEFPOINTS
  6
BYBLOCK
 62
     0
 10
487.828228
 20
12000.0
 30
10.0
  0
ENDBLK
  5
80
  8
0
  0
BLOCK
  8
0
  2
*D2
 70
     1
 10
0.0
 20
0.0
 30
0.0
  3
*D2
  1

  0
LINE
  5
4B
  8
0
  6
BYBLOCK
 62
     9
 10
410.0
 20
12900.0
 30
0.0
 11
531.328228
 21
12900.0
 31
0.0
  0
LINE
  5
4C
  8
0
  6
BYBLOCK
 62
     9
 10
-97.5
 20
12550.0
 30
0.0
 11
531.328228
 21
12550.0
 31
0.0
  0
LINE
  5
4D
  8
0
  6
BYBLOCK
 62
     9
 10
530.328228
 20
12880.0
 30
0.0
 11
530.328228
 21
12775.75
 31
0.0
  0
LINE
  5
4E
  8
0
  6
BYBLOCK
 62
     9
 10
530.328228
 20
12570.0
 30
0.0
 11
530.328228
 21
12674.25
 31
0.0
  0
SOLID
  5
4F
  8
0
  6
BYBLOCK
 62
     9
 10
526.994894
 20
12880.0
 30
0.0
 11
533.661561
 21
12880.0
 31
0.0
 12
530.328228
 22
12900.0
 32
0.0
 13
530.328228
 23
12900.0
 33
0.0
  0
SOLID
  5
50
  8
0
  6
BYBLOCK
 62
     9
 10
526.994894
 20
12570.0
 30
0.0
 11
533.661561
 21
12570.0
 31
0.0
 12
530.328228
 22
12550.0
 32
0.0
 13
530.328228
 23
12550.0
 33
0.0
  0
TEXT
  5
51
  8
0
  6
BYBLOCK
 62
    11
 10
547.828228
 20
12681.25
 30
0.0
 40
35.0
  1
350
 50
90.0
  0
POINT
  5
52
  8
DEFPOINTS
  6
BYBLOCK
 62
     0
 10
400.0
 20
12900.0
 30
10.0
  0
POINT
  5
53
  8
DEFPOINTS
  6
BYBLOCK
 62
     0
 10
-107.5
 20
12550.0
 30
10.0
  0
POINT
  5
54
  8
DEFPOINTS
  6
BYBLOCK
 62
     0
 10
530.328228
 20
12550.0
 30
20.0
  0
ENDBLK
  5
56
  8
0
  0
BLOCK
  8
0
  2
*D3
 70
     1
 10
0.0
 20
0.0
 30
0.0
  3
*D3
  1

  0
LINE
  5
3E
  8
0
  6
BYBLOCK
 62
     9
 10
-182.5
 20
12590.0
 30
0.0
 11
-182.5
 21
12479.205675
 31
0.0
  0
LINE
  5
3F
  8
0
  6
BYBLOCK
 62
     9
 10
-32.5
 20
12590.0
 30
0.0
 11
-32.5
 21
12479.205675
 31
0.0
  0
LINE
  5
40
  8
0
  6
BYBLOCK
 62
     9
 10
-162.5
 20
12480.205675
 30
0.0
 11
-52.5
 21
12480.205675
 31
0.0
  0
TEXT
  5
41
  8
0
  6
BYBLOCK
 62
    11
 10
-195.0
 20
12436.814744
 30
0.0
 40
35.0
  1
80-150
  0
SOLID
  5
42
  8
0
  6
BYBLOCK
 62
     9
 10
-162.5
 20
12483.539009
 30
0.0
 11
-162.5
 21
12476.872342
 31
0.0
 12
-182.5
 22
12480.205675
 32
0.0
 13
-182.5
 23
12480.205675
 33
0.0
  0
SOLID
  5
43
  8
0
  6
BYBLOCK
 62
     9
 10
-52.5
 20
12483.539009
 30
0.0
 11
-52.5
 21
12476.872342
 31
0.0
 12
-32.5
 22
12480.205675
 32
0.0
 13
-32.5
 23
12480.205675
 33
0.0
  0
POINT
  5
44
  8
DEFPOINTS
  6
BYBLOCK
 62
     0
 10
-182.5
 20
12600.0
 30
20.0
  0
POINT
  5
45
  8
DEFPOINTS
  6
BYBLOCK
 62
     0
 10
-32.5
 20
12600.0
 30
20.0
  0
POINT
  5
46
  8
DEFPOINTS
  6
BYBLOCK
 62
     0
 10
-32.5
 20
12480.205675
 30
30.0
  0
ENDBLK
  5
48
  8
0
  0
BLOCK
  8
0
  2
*D4
 70
     1
 10
0.0
 20
0.0
 30
0.0
  3
*D4
  1

  0
LINE
  5
30
  8
0
  6
BYBLOCK
 62
     9
 10
367.5
 20
12900.0
 30
0.0
 11
533.398701
 21
12900.0
 31
0.0
  0
LINE
  5
31
  8
0
  6
BYBLOCK
 62
     9
 10
10.0
 20
12000.0
 30
0.0
 11
533.398701
 21
12000.0
 31
0.0
  0
LINE
  5
32
  8
0
  6
BYBLOCK
 62
     9
 10
532.398701
 20
12880.0
 30
0.0
 11
532.398701
 21
12497.833333
 31
0.0
  0
LINE
  5
33
  8
0
  6
BYBLOCK
 62
     9
 10
532.398701
 20
12020.0
 30
0.0
 11
532.398701
 21
12402.166667
 31
0.0
  0
SOLID
  5
34
  8
0
  6
BYBLOCK
 62
     9
 10
529.065367
 20
12880.0
 30
0.0
 11
535.732034
 21
12880.0
 31
0.0
 12
532.398701
 22
12900.0
 32
0.0
 13
532.398701
 23
12900.0
 33
0.0
  0
SOLID
  5
35
  8
0
  6
BYBLOCK
 62
     9
 10
529.065367
 20
12020.0
 30
0.0
 11
535.732034
 21
12020.0
 31
0.0
 12
532.398701
 22
12000.0
 32
0.0
 13
532.398701
 23
12000.0
 33
0.0
  0
TEXT
  5
36
  8
0
  6
BYBLOCK
 62
    11
 10
549.898701
 20
12409.166667
 30
0.0
 40
35.0
  1
900
 50
90.0
  0
POINT
  5
37
  8
DEFPOINTS
  6
BYBLOCK
 62
     0
 10
357.5
 20
12900.0
 30
0.0
  0
POINT
  5
38
  8
DEFPOINTS
  6
BYBLOCK
 62
     0
 10
0.0
 20
12000.0
 30
0.0
  0
POINT
  5
39
  8
DEFPOINTS
  6
BYBLOCK
 62
     0
 10
532.398701
 20
12000.0
 30
10.0
  0
ENDBLK
  5
3B
  8
0
  0
BLOCK
  8
0
  2
*D5
 70
     1
 10
0.0
 20
0.0
 30
0.0
  3
*D5
  1

  0
LINE
  5
67
  8
0
  6
BYBLOCK
 62
     9
 10
-22.5
 20
12600.0
 30
0.0
 11
486.440139
 21
12600.0
 31
0.0
  0
LINE
  5
68
  8
0
  6
BYBLOCK
 62
     9
 10
410.0
 20
12900.0
 30
0.0
 11
486.440139
 21
12900.0
 31
0.0
  0
LINE
  5
69
  8
0
  6
BYBLOCK
 62
     9
 10
485.440139
 20
12620.0
 30
0.0
 11
485.440139
 21
12702.166667
 31
0.0
  0
LINE
  5
6A
  8
0
  6
BYBLOCK
 62
     9
 10
485.440139
 20
12880.0
 30
0.0
 11
485.440139
 21
12797.833333
 31
0.0
  0
SOLID
  5
6B
  8
0
  6
BYBLOCK
 62
     9
 10
482.106805
 20
12620.0
 30
0.0
 11
488.773472
 21
12620.0
 31
0.0
 12
485.440139
 22
12600.0
 32
0.0
 13
485.440139
 23
12600.0
 33
0.0
  0
SOLID
  5
6C
  8
0
  6
BYBLOCK
 62
     9
 10
482.106805
 20
12880.0
 30
0.0
 11
488.773472
 21
12880.0
 31
0.0
 12
485.440139
 22
12900.0
 32
0.0
 13
485.440139
 23
12900.0
 33
0.0
  0
TEXT
  5
6D
  8
0
  6
BYBLOCK
 62
    11
 10
502.940139
 20
12709.166667
 30
0.0
 40
35.0
  1
300
 50
90.0
  0
POINT
  5
6E
  8
DEFPOINTS
  6
BYBLOCK
 62
     0
 10
-32.5
 20
12600.0
 30
0.0
  0
POINT
  5
6F
  8
DEFPOINTS
  6
BYBLOCK
 62
     0
 10
400.0
 20
12900.0
 30
0.0
  0
POINT
  5
70
  8
DEFPOINTS
  6
BYBLOCK
 62
     0
 10
485.440139
 20
12900.0
 30
0.0
  0
ENDBLK
  5
72
  8
0
  0
BLOCK
  8
0
  2
*D6
 70
     1
 10
0.0
 20
0.0
 30
0.0
  3
*D6
  1

  0
LINE
  5
AF
  8
0
  6
BYBLOCK
 62
     9
 10
-400.0
 20
12910.0
 30
0.0
 11
-400.0
 21
12930.333379
 31
0.0
  0
LINE
  5
B0
  8
0
  6
BYBLOCK
 62
     9
 10
400.0
 20
12910.0
 30
0.0
 11
400.0
 21
12930.333379
 31
0.0
  0
LINE
  5
B1
  8
0
  6
BYBLOCK
 62
     9
 10
-380.0
 20
12929.333379
 30
0.0
 11
-47.833333
 21
12929.333379
 31
0.0
  0
LINE
  5
B2
  8
0
  6
BYBLOCK
 62
     9
 10
380.0
 20
12929.333379
 30
0.0
 11
47.833333
 21
12929.333379
 31
0.0
  0
SOLID
  5
B3
  8
0
  6
BYBLOCK
 62
     9
 10
-380.0
 20
12932.666713
 30
0.0
 11
-380.0
 21
12926.000046
 31
0.0
 12
-400.0
 22
12929.333379
 32
0.0
 13
-400.0
 23
12929.333379
 33
0.0
  0
SOLID
  5
B4
  8
0
  6
BYBLOCK
 62
     9
 10
380.0
 20
12932.666713
 30
0.0
 11
380.0
 21
12926.000046
 31
0.0
 12
400.0
 22
12929.333379
 32
0.0
 13
400.0
 23
12929.333379
 33
0.0
  0
TEXT
  5
B5
  8
0
  6
BYBLOCK
 62
    11
 10
-40.833333
 20
12911.833379
 30
0.0
 40
35.0
  1
800
  0
POINT
  5
B6
  8
DEFPOINTS
  6
BYBLOCK
 62
     0
 10
-400.0
 20
12900.0
 30
0.0
  0
POINT
  5
B7
  8
DEFPOINTS
  6
BYBLOCK
 62
     0
 10
400.0
 20
12900.0
 30
0.0
  0
POINT
  5
B8
  8
DEFPOINTS
  6
BYBLOCK
 62
     0
 10
400.0
 20
12929.333379
 30
0.0
  0
ENDBLK
  5
BA
  8
0
  0
BLOCK
  8
0
  2
*D7
 70
     1
 10
0.0
 20
0.0
 30
0.0
  3
*D7
  1

  0
LINE
  5
22
  8
0
  6
BYBLOCK
 62
     9
 10
410.0
 20
12900.0
 30
0.0
 11
438.667814
 21
12900.0
 31
0.0
  0
LINE
  5
23
  8
0
  6
BYBLOCK
 62
     9
 10
-77.5
 20
12765.002205
 30
0.0
 11
438.667814
 21
12765.002205
 31
0.0
  0
LINE
  5
24
  8
0
  6
BYBLOCK
 62
     9
 10
437.667814
 20
12880.0
 30
0.0
 11
437.667814
 21
12785.002205
 31
0.0
  0
TEXT
  5
25
  8
0
  6
BYBLOCK
 62
    11
 10
455.167814
 20
12691.436165
 30
0.0
 40
35.0
  1
135
 50
90.0
  0
SOLID
  5
26
  8
0
  6
BYBLOCK
 62
     9
 10
434.334481
 20
12880.0
 30
0.0
 11
441.001148
 21
12880.0
 31
0.0
 12
437.667814
 22
12900.0
 32
0.0
 13
437.667814
 23
12900.0
 33
0.0
  0
SOLID
  5
27
  8
0
  6
BYBLOCK
 62
     9
 10
434.334481
 20
12785.002205
 30
0.0
 11
441.001148
 21
12785.002205
 31
0.0
 12
437.667814
 22
12765.002205
 32
0.0
 13
437.667814
 23
12765.002205
 33
0.0
  0
POINT
  5
28
  8
DEFPOINTS
  6
BYBLOCK
 62
     0
 10
400.0
 20
12900.0
 30
0.0
  0
POINT
  5
2A
  8
DEFPOINTS
  6
BYBLOCK
 62
     0
 10
-87.5
 20
12765.002205
 30
0.0
  0
POINT
  5
2B
  8
DEFPOINTS
  6
BYBLOCK
 62
     0
 10
437.667814
 20
12765.002205
 30
10.0
  0
ENDBLK
  5
2D
  8
0
  0
BLOCK
  8
0
  2
*D8
 70
     1
 10
0.0
 20
0.0
 30
0.0
  3
*D8
  1

  0
LINE
  5
97
  8
0
  6
BYBLOCK
 62
     9
 10
-410.0
 20
12900.0
 30
0.0
 11
-446.209661
 21
12900.0
 31
0.0
  0
LINE
  5
98
  8
0
  6
BYBLOCK
 62
     9
 10
-410.0
 20
12775.0
 30
0.0
 11
-446.209661
 21
12775.0
 31
0.0
  0
LINE
  5
99
  8
0
  6
BYBLOCK
 62
     9
 10
-445.209661
 20
12880.0
 30
0.0
 11
-445.209661
 21
12795.0
 31
0.0
  0
TEXT
  5
9A
  8
0
  6
BYBLOCK
 62
    11
 10
-427.709661
 20
12671.848438
 30
0.0
 40
35.0
  1
125
 50
90.0
  0
SOLID
  5
9B
  8
0
  6
BYBLOCK
 62
     9
 10
-448.542994
 20
12880.0
 30
0.0
 11
-441.876327
 21
12880.0
 31
0.0
 12
-445.209661
 22
12900.0
 32
0.0
 13
-445.209661
 23
12900.0
 33
0.0
  0
SOLID
  5
9C
  8
0
  6
BYBLOCK
 62
     9
 10
-448.542994
 20
12795.0
 30
0.0
 11
-441.876327
 21
12795.0
 31
0.0
 12
-445.209661
 22
12775.0
 32
0.0
 13
-445.209661
 23
12775.0
 33
0.0
  0
POINT
  5
9D
  8
DEFPOINTS
  6
BYBLOCK
 62
     0
 10
-400.0
 20
12900.0
 30
0.0
  0
POINT
  5
9E
  8
DEFPOINTS
  6
BYBLOCK
 62
     0
 10
-400.0
 20
12775.0
 30
0.0
  0
POINT
  5
9F
  8
DEFPOINTS
  6
BYBLOCK
 62
     0
 10
-445.209661
 20
12775.0
 30
0.0
  0
ENDBLK
  5
A1
  8
0
  0
ENDSEC
  0
SECTION
  2
ENTITIES
  0
DIMENSION
  5
20
  8
TEAM-MAS
  2
*D7
 10
437.667814
 20
765.002205
 30
10.0
 11
437.667814
 21
732.269499
 31
0.0
 12
0.0
 22
-12000.0
 32
0.0
 70
   128
 13
400.0
 23
900.0
 33
0.0
 14
-87.5
 24
765.002205
 34
0.0
 50
90.0
1001
ACAD
1000
DSTYLE
1002
{
1070
    40
1040
1.0
1002
}
  0
DIMENSION
  5
2E
  8
TEAM-MAS
  2
*D4
 10
532.398701
 20
0.0
 30
10.0
 11
532.398701
 21
450.0
 31
0.0
 12
0.0
 22
-12000.0
 32
0.0
 13
357.5
 23
900.0
 33
0.0
 14
0.0
 24
0.0
 34
0.0
 50
90.0
1001
ACAD
1000
DSTYLE
1002
{
1070
    40
1040
1.0
1002
}
  0
DIMENSION
  5
3C
  8
TEAM-MAS
  2
*D3
 10
-32.5
 20
480.205675
 30
10.0
 11
-107.5
 21
454.314744
 31
-20.0
 12
0.0
 22
-12000.0
 32
-20.0
 70
   128
  1
80-<>
 13
-182.5
 23
600.0
 33
0.0
 14
-32.5
 24
600.0
 34
0.0
1001
ACAD
1000
DSTYLE
1002
{
1070
    40
1040
1.0
1002
}
  0
DIMENSION
  5
49
  8
TEAM-MAS
  2
*D2
 10
530.328228
 20
550.0
 30
10.0
 11
530.328228
 21
725.0
 31
-10.0
 12
0.0
 22
-12000.0
 32
-10.0
 13
400.0
 23
900.0
 33
0.0
 14
-107.5
 24
550.0
 34
0.0
 50
90.0
1001
ACAD
1000
DSTYLE
1002
{
1070
    40
1040
1.0
1002
}
  0
DIMENSION
  5
57
  8
TEAM-MAS
  2
*D0
 10
442.940139
 20
0.0
 30
20.0
 11
442.940139
 21
300.0
 31
0.0
 12
0.0
 22
-12000.0
 32
0.0
  1
<>-640
 13
-32.5
 23
600.0
 33
0.0
 14
0.0
 24
0.0
 34
0.0
 50
90.0
1001
ACAD
1000
DSTYLE
1002
{
1070
    40
1040
1.0
1002
}
  0
DIMENSION
  5
65
  8
TEAM-MAS
  2
*D5
 10
485.440139
 20
900.0
 30
0.0
 11
485.440139
 21
750.0
 31
0.0
 12
0.0
 22
-12000.0
 32
0.0
 13
-32.5
 23
600.0
 33
0.0
 14
400.0
 24
900.0
 34
0.0
 50
90.0
1001
ACAD
1000
DSTYLE
1002
{
1070
    40
1040
1.0
1002
}
  0
DIMENSION
  5
73
  8
TEAM-MAS
  2
*D1
 10
487.828228
 20
0.0
 30
0.0
 11
487.828228
 21
275.0
 31
-10.0
 12
0.0
 22
-12000.0
 32
-10.0
 13
-107.5
 23
550.0
 33
0.0
 14
0.0
 24
0.0
 34
0.0
 50
90.0
1001
ACAD
1000
DSTYLE
1002
{
1070
    40
1040
1.0
1002
}
  0
TEXT
  5
81
  8
TEAM-TXT
 10
-275.028811
 20
251.309748
 30
0.0
 40
30.0
  1
EXEMPLE  CONN./JOIN
 41
0.8
 51
15.0
  7
TEAM
  0
TEXT
  5
84
  8
TEAM-TXT
 10
-275.028811
 20
300.687149
 30
0.0
 40
30.0
  1
ANSCHLUSS INDIVIDUELL
 41
0.8
 51
15.0
  7
TEAM
  0
LINE
  5
85
  8
TEAM-AXE
 10
-32.5
 20
590.0
 30
0.0
 11
-32.5
 21
610.0
 31
0.0
  0
CIRCLE
  5
88
  8
TEAM-COLD
 10
-32.5
 20
600.0
 30
0.0
 40
10.0
  0
LINE
  5
8A
  8
TEAM-AXE
 10
-182.5
 20
590.0
 30
0.0
 11
-182.5
 21
610.0
 31
0.0
  0
CIRCLE
  5
8B
  8
TEAM-WARM
 10
-182.5
 20
600.0
 30
0.0
 40
10.0
  0
LINE
  5
8D
  8
TEAM-AXE
 10
-22.550126
 20
600.0
 30
0.0
 11
-42.449874
 21
600.0
 31
0.0
  0
LINE
  5
8E
  8
TEAM-AXE
 10
-172.550126
 20
600.0
 30
0.0
 11
-192.449874
 21
600.0
 31
0.0
  0
CIRCLE
  5
8F
  8
TEAM-KAN
 10
-107.5
 20
550.0
 30
0.0
 40
20.0
  0
LINE
  5
91
  8
TEAM-AXE
 10
-87.5
 20
550.0
 30
0.0
 11
-127.5
 21
550.0
 31
0.0
  0
LINE
  5
92
  8
TEAM-AXE
 10
-107.5
 20
530.0
 30
0.0
 11
-107.5
 21
570.0
 31
0.0
  0
CIRCLE
  5
93
  8
TEAM-INSP
 10
0.0
 20
0.0
 30
0.0
 40
10.0
  0
DIMENSION
  5
95
  8
TEAM-MAS
  2
*D8
 10
-445.209661
 20
775.0
 30
0.0
 11
-445.209661
 21
712.681772
 31
0.0
 12
0.0
 22
-12000.0
 32
0.0
 70
   128
 13
-400.0
 23
900.0
 33
0.0
 14
-400.0
 24
775.0
 34
0.0
 50
90.0
1001
ACAD
1000
DSTYLE
1002
{
1070
    40
1040
1.0
1002
}
  0
ARC
  5
A2
  8
TEAM-KAN
 10
-129.474444
 20
780.206553
 30
0.0
 40
15.26826
 50
237.877987
 51
264.755706
  0
LINE
  5
A3
  8
TEAM-BODY
 10
-144.960786
 20
775.0
 30
0.0
 11
-70.039214
 21
775.0
 31
0.0
  0
ARC
  5
A5
  8
TEAM-KAN
 10
-163.234042
 20
750.219093
 30
0.0
 40
30.789693
 50
33.631965
 51
53.595213
  0
ARC
  5
A6
  8
TEAM-KAN
 10
-85.525556
 20
780.206553
 30
0.0
 40
15.26826
 50
275.244294
 51
302.122013
  0
ARC
  5
A7
  8
TEAM-KAN
 10
-51.765958
 20
750.219093
 30
0.0
 40
30.789693
 50
126.404787
 51
146.368035
  0
LINE
  5
A8
  8
TEAM-KAN
 10
-127.5
 20
765.002205
 30
0.0
 11
-127.5
 21
765.729618
 31
0.0
  0
LINE
  5
A9
  8
TEAM-KAN
 10
-87.5
 20
765.002205
 30
0.0
 11
-87.5
 21
765.729618
 31
0.0
  0
LINE
  5
AA
  8
TEAM-KAN
 10
-84.13
 20
765.002205
 30
0.0
 11
-130.87
 21
765.002205
 31
0.0
  0
POLYLINE
  5
AB
  8
TEAM-BODY
 66
     1
 10
0.0
 20
0.0
 30
0.0
 70
     1
  0
VERTEX
  5
16D
  8
TEAM-BODY
 10
-400.0
 20
775.0
 30
0.0
  0
VERTEX
  5
16E
  8
TEAM-BODY
 10
400.0
 20
775.0
 30
0.0
  0
VERTEX
  5
16F
  8
TEAM-BODY
 10
400.0
 20
900.0
 30
0.0
  0
VERTEX
  5
170
  8
TEAM-BODY
 10
-400.0
 20
900.0
 30
0.0
  0
SEQEND
  5
171
  8
TEAM-BODY
  0
DIMENSION
  5
AC
  8
TEAM-NET
  2
*D6
 10
400.0
 20
929.333379
 30
0.0
 11
0.0
 21
929.333379
 31
0.0
 12
0.0
 22
-12000.0
 32
0.0
 13
-400.0
 23
900.0
 33
0.0
 14
400.0
 24
900.0
 34
0.0
1001
ACAD
1000
DSTYLE
1002
{
1070
    40
1040
1.0
1002
}
  0
LINE
  5
BB
  8
TEAM-AXE
 10
-107.5
 20
738.957716
 30
0.0
 11
-107.5
 21
900.0
 31
0.0
  0
LINE
  5
BC
  8
TEAM-HIDE
 10
-170.0
 20
781.717846
 30
0.0
 11
-45.0
 21
781.717846
 31
0.0
  0
POLYLINE
  5
BF
  8
TEAM-HIDE
 66
     1
 10
0.0
 20
0.0
 30
0.0
 70
     1
  0
VERTEX
  5
172
  8
TEAM-HIDE
 10
-127.5
 20
775.0
 30
0.0
  0
VERTEX
  5
173
  8
TEAM-HIDE
 10
-87.5
 20
775.0
 30
0.0
  0
VERTEX
  5
174
  8
TEAM-HIDE
 10
-87.5
 20
781.717846
 30
0.0
  0
VERTEX
  5
175
  8
TEAM-HIDE
 10
-127.5
 20
781.717846
 30
0.0
  0
SEQEND
  5
176
  8
TEAM-HIDE
  0
LINE
  5
C0
  8
TEAM-HIDE
 10
142.5
 20
900.0
 30
0.0
 11
142.5
 21
781.717846
 31
0.0
  0
LINE
  5
C1
  8
TEAM-HIDE
 10
-45.0
 20
781.717846
 30
0.0
 11
142.5
 21
781.717846
 31
0.0
  0
LINE
  5
C2
  8
TEAM-HIDE
 10
-357.5
 20
781.717846
 30
0.0
 11
-357.5
 21
900.0
 31
0.0
  0
LINE
  5
C3
  8
TEAM-HIDE
 10
-170.0
 20
781.717846
 30
0.0
 11
-357.5
 21
781.717846
 31
0.0
  0
TEXT
  5
C4
  8
TEAM-TXT
 10
-209.49094
 20
807.255756
 30
0.0
 40
30.0
  1
team 217055
 41
0.8
 51
15.0
  7
TEAM
  0
ENDSEC
  0
EOF
