  0
SECTION
  2
HEADER
  9
$ACADVER
  1
AC1009
  9
$INSBASE
 10
0.0
 20
0.0
 30
0.0
  9
$EXTMIN
 10
-443.486236
 20
-446.127354
 30
0.0
  9
$EXTMAX
 10
447.513934
 20
10.003711
 30
0.0
  9
$LIMMIN
 10
-443.486236
 20
-446.127354
  9
$LIMMAX
 10
447.513934
 20
10.003711
  9
$ORTHOMODE
 70
     1
  9
$REGENMODE
 70
     1
  9
$FILLMODE
 70
     1
  9
$QTEXTMODE
 70
     0
  9
$MIRRTEXT
 70
     0
  9
$DRAGMODE
 70
     2
  9
$LTSCALE
 40
50.0
  9
$OSMODE
 70
     7
  9
$ATTMODE
 70
     1
  9
$TEXTSIZE
 40
200.0
  9
$TRACEWID
 40
1.0
  9
$TEXTSTYLE
  7
STANDARD
  9
$CLAYER
  8
TEAM-MAS
  9
$CELTYPE
  6
BYLAYER
  9
$CECOLOR
 62
   256
  9
$DIMSCALE
 40
0.0
  9
$DIMASZ
 40
20.0
  9
$DIMEXO
 40
10.0
  9
$DIMDLI
 40
1.0
  9
$DIMRND
 40
0.0
  9
$DIMDLE
 40
0.0
  9
$DIMEXE
 40
1.0
  9
$DIMTP
 40
0.0
  9
$DIMTM
 40
0.0
  9
$DIMTXT
 40
35.0
  9
$DIMCEN
 40
1.0
  9
$DIMTSZ
 40
0.0
  9
$DIMTOL
 70
     0
  9
$DIMLIM
 70
     0
  9
$DIMTIH
 70
     0
  9
$DIMTOH
 70
     0
  9
$DIMSE1
 70
     0
  9
$DIMSE2
 70
     0
  9
$DIMTAD
 70
     0
  9
$DIMZIN
 70
     0
  9
$DIMBLK
  1

  9
$DIMASO
 70
     1
  9
$DIMSHO
 70
     0
  9
$DIMPOST
  1

  9
$DIMAPOST
  1

  9
$DIMALT
 70
     0
  9
$DIMALTD
 70
     2
  9
$DIMALTF
 40
25.4
  9
$DIMLFAC
 40
1.0
  9
$DIMTOFL
 70
     0
  9
$DIMTVP
 40
0.0
  9
$DIMTIX
 70
     0
  9
$DIMSOXD
 70
     0
  9
$DIMSAH
 70
     0
  9
$DIMBLK1
  1

  9
$DIMBLK2
  1

  9
$DIMSTYLE
  2
TEAM
  9
$DIMCLRD
 70
     9
  9
$DIMCLRE
 70
     9
  9
$DIMCLRT
 70
    11
  9
$DIMTFAC
 40
1.0
  9
$DIMGAP
 40
7.0
  9
$LUNITS
 70
     2
  9
$LUPREC
 70
     1
  9
$SKETCHINC
 40
1.0
  9
$FILLETRAD
 40
50.0
  9
$AUNITS
 70
     0
  9
$AUPREC
 70
     0
  9
$MENU
  1
ROPLANS
  9
$ELEVATION
 40
0.0
  9
$PELEVATION
 40
0.0
  9
$THICKNESS
 40
0.0
  9
$LIMCHECK
 70
     0
  9
$BLIPMODE
 70
     1
  9
$CHAMFERA
 40
0.0
  9
$CHAMFERB
 40
0.0
  9
$SKPOLY
 70
     0
  9
$TDCREATE
 40
2450392.957851
  9
$TDUPDATE
 40
2456007.443441
  9
$TDINDWG
 40
2.426484
  9
$TDUSRTIMER
 40
2.426484
  9
$USRTIMER
 70
     1
  9
$ANGBASE
 50
0.0
  9
$ANGDIR
 70
     0
  9
$PDMODE
 70
     0
  9
$PDSIZE
 40
0.0
  9
$PLINEWID
 40
0.0
  9
$COORDS
 70
     2
  9
$SPLFRAME
 70
     0
  9
$SPLINETYPE
 70
     6
  9
$SPLINESEGS
 70
     8
  9
$ATTDIA
 70
     0
  9
$ATTREQ
 70
     0
  9
$HANDLING
 70
     1
  9
$HANDSEED
  5
169
  9
$SURFTAB1
 70
    24
  9
$SURFTAB2
 70
    24
  9
$SURFTYPE
 70
     6
  9
$SURFU
 70
     6
  9
$SURFV
 70
     6
  9
$UCSNAME
  2

  9
$UCSORG
 10
0.0
 20
0.0
 30
0.0
  9
$UCSXDIR
 10
1.0
 20
0.0
 30
0.0
  9
$UCSYDIR
 10
0.0
 20
1.0
 30
0.0
  9
$PUCSNAME
  2

  9
$PUCSORG
 10
0.0
 20
0.0
 30
0.0
  9
$PUCSXDIR
 10
1.0
 20
0.0
 30
0.0
  9
$PUCSYDIR
 10
0.0
 20
1.0
 30
0.0
  9
$USERI1
 70
     0
  9
$USERI2
 70
     0
  9
$USERI3
 70
     0
  9
$USERI4
 70
     0
  9
$USERI5
 70
     0
  9
$USERR1
 40
0.0
  9
$USERR2
 40
0.0
  9
$USERR3
 40
0.0
  9
$USERR4
 40
0.0
  9
$USERR5
 40
0.0
  9
$WORLDVIEW
 70
     1
  9
$SHADEDGE
 70
     0
  9
$SHADEDIF
 70
    70
  9
$TILEMODE
 70
     1
  9
$MAXACTVP
 70
    16
  9
$PLIMCHECK
 70
     0
  9
$PEXTMIN
 10
-0.805942
 20
0.005011
 30
0.0
  9
$PEXTMAX
 10
20.250094
 20
11.356329
 30
0.0
  9
$PLIMMIN
 10
0.0
 20
0.0
  9
$PLIMMAX
 10
12.0
 20
9.0
  9
$UNITMODE
 70
     0
  9
$VISRETAIN
 70
     0
  9
$PLINEGEN
 70
     0
  9
$PSLTSCALE
 70
     0
  0
ENDSEC
  0
SECTION
  2
TABLES
  0
TABLE
  2
VPORT
 70
     2
  0
VPORT
  2
*ACTIVE
 70
     0
 10
0.0
 20
0.0
 11
1.0
 21
1.0
 12
2.013849
 22
-218.061821
 13
0.0
 23
0.0
 14
1.0
 24
1.0
 15
50.0
 25
50.0
 16
0.0
 26
0.0
 36
1.0
 17
0.0
 27
0.0
 37
0.0
 40
469.56118
 41
1.903766
 42
50.0
 43
0.0
 44
0.0
 50
0.0
 51
0.0
 71
     0
 72
   100
 73
     1
 74
     1
 75
     0
 76
     0
 77
     0
 78
     0
  0
ENDTAB
  0
TABLE
  2
LTYPE
 70
     2
  0
LTYPE
  2
CONTINUOUS
 70
     0
  3
Solid Line
 72
    65
 73
     0
 40
0.0
  0
LTYPE
  2
31
 70
     0
  3

 72
    65
 73
     4
 40
2.1
 49
1.5
 49
-0.3
 49
0.0
 49
-0.3
  0
ENDTAB
  0
TABLE
  2
LAYER
 70
     9
  0
LAYER
  2
0
 70
     0
 62
     7
  6
CONTINUOUS
  0
LAYER
  2
DEFPOINTS
 70
     0
 62
     7
  6
CONTINUOUS
  0
LAYER
  2
TEAM-BODY
 70
     0
 62
     2
  6
CONTINUOUS
  0
LAYER
  2
TEAM-AXE
 70
     0
 62
    10
  6
31
  0
LAYER
  2
TEAM-MAS
 70
     0
 62
     9
  6
CONTINUOUS
  0
LAYER
  2
TEAM-TXT
 70
     0
 62
    11
  6
CONTINUOUS
  0
LAYER
  2
TEAM-DET1
 70
     0
 62
     4
  6
CONTINUOUS
  0
LAYER
  2
TEAM-KAN
 70
     0
 62
     6
  6
CONTINUOUS
  0
LAYER
  2
TEAM-INSP
 70
     0
 62
     5
  6
CONTINUOUS
  0
ENDTAB
  0
TABLE
  2
STYLE
 70
     2
  0
STYLE
  2
STANDARD
 70
     0
 40
0.0
 41
1.0
 50
0.0
 71
     0
 42
200.0
  3
txt
  4

  0
STYLE
  2
TEAM
 70
     0
 40
0.0
 41
0.8
 50
15.0
 71
     0
 42
7.0
  3
ROMANS.shx
  4

  0
ENDTAB
  0
TABLE
  2
VIEW
 70
     0
  0
ENDTAB
  0
TABLE
  2
UCS
 70
     0
  0
ENDTAB
  0
TABLE
  2
APPID
 70
     1
  0
APPID
  2
ACAD
 70
     0
  0
ENDTAB
  0
TABLE
  2
DIMSTYLE
 70
     1
  0
DIMSTYLE
  2
TEAM
 70
     0
  3

  4

  5

  6

  7

 40
0.0
 41
20.0
 42
10.0
 43
1.0
 44
1.0
 45
0.0
 46
0.0
 47
0.0
 48
0.0
140
35.0
141
1.0
142
0.0
143
25.4
144
1.0
145
0.0
146
1.0
147
7.0
 71
     0
 72
     0
 73
     0
 74
     0
 75
     0
 76
     0
 77
     0
 78
     0
170
     0
171
     2
172
     0
173
     0
174
     0
175
     0
176
     9
177
     9
178
    11
  0
ENDTAB
  0
ENDSEC
  0
SECTION
  2
BLOCKS
  0
BLOCK
  8
0
  2
$MODEL_SPACE
 70
     0
 10
0.0
 20
0.0
 30
0.0
  3
$MODEL_SPACE
  1

  0
ENDBLK
  5
14F
  8
0
  0
BLOCK
 67
     1
  8
0
  2
$PAPER_SPACE
 70
     0
 10
0.0
 20
0.0
 30
0.0
  3
$PAPER_SPACE
  1

  0
ENDBLK
  5
14D
 67
     1
  8
0
  0
BLOCK
  8
0
  2
*D0
 70
     1
 10
0.0
 20
0.0
 30
0.0
  3
*D0
  1

  0
LINE
  5
89
  8
0
  6
BYBLOCK
 62
     9
 10
7717.5
 20
11653.0
 30
0.0
 11
8372.133604
 21
11653.0
 31
0.0
  0
LINE
  5
8A
  8
0
  6
BYBLOCK
 62
     9
 10
7902.5
 20
12000.0
 30
0.0
 11
8372.133604
 21
12000.0
 31
0.0
  0
LINE
  5
8B
  8
0
  6
BYBLOCK
 62
     9
 10
8371.133604
 20
11673.0
 30
0.0
 11
8371.133604
 21
11772.833333
 31
0.0
  0
LINE
  5
8C
  8
0
  6
BYBLOCK
 62
     9
 10
8371.133604
 20
11980.0
 30
0.0
 11
8371.133604
 21
11880.166667
 31
0.0
  0
SOLID
  5
8D
  8
0
  6
BYBLOCK
 62
     9
 10
8367.800271
 20
11673.0
 30
0.0
 11
8374.466938
 21
11673.0
 31
0.0
 12
8371.133604
 22
11653.0
 32
0.0
 13
8371.133604
 23
11653.0
 33
0.0
  0
SOLID
  5
8E
  8
0
  6
BYBLOCK
 62
     9
 10
8367.800271
 20
11980.0
 30
0.0
 11
8374.466938
 21
11980.0
 31
0.0
 12
8371.133604
 22
12000.0
 32
0.0
 13
8371.133604
 23
12000.0
 33
0.0
  0
TEXT
  5
8F
  8
0
  6
BYBLOCK
 62
    11
 10
8388.633604
 20
11779.833333
 30
0.0
 40
35.0
  1
347
 50
90.0
  0
POINT
  5
90
  8
DEFPOINTS
  6
BYBLOCK
 62
     0
 10
7707.5
 20
11653.0
 30
0.0
  0
POINT
  5
91
  8
DEFPOINTS
  6
BYBLOCK
 62
     0
 10
7892.5
 20
12000.0
 30
0.0
  0
POINT
  5
92
  8
DEFPOINTS
  6
BYBLOCK
 62
     0
 10
8371.133604
 20
12000.0
 30
0.0
  0
ENDBLK
  5
94
  8
0
  0
BLOCK
  8
0
  2
*D1
 70
     1
 10
0.0
 20
0.0
 30
0.0
  3
*D1
  1

  0
LINE
  5
7C
  8
0
  6
BYBLOCK
 62
     9
 10
7697.5
 20
12000.0
 30
0.0
 11
7665.804951
 21
12000.0
 31
0.0
  0
LINE
  5
7D
  8
0
  6
BYBLOCK
 62
     9
 10
7990.0
 20
11884.0
 30
0.0
 11
7665.804951
 21
11884.0
 31
0.0
  0
LINE
  5
7E
  8
0
  6
BYBLOCK
 62
     9
 10
7666.804951
 20
11980.0
 30
0.0
 11
7666.804951
 21
11904.0
 31
0.0
  0
TEXT
  5
7F
  8
0
  6
BYBLOCK
 62
    11
 10
7655.304951
 20
11889.5
 30
0.0
 40
35.0
  1
~116
 50
90.0
  0
SOLID
  5
80
  8
0
  6
BYBLOCK
 62
     9
 10
7663.471618
 20
11980.0
 30
0.0
 11
7670.138284
 21
11980.0
 31
0.0
 12
7666.804951
 22
12000.0
 32
0.0
 13
7666.804951
 23
12000.0
 33
0.0
  0
SOLID
  5
81
  8
0
  6
BYBLOCK
 62
     9
 10
7663.471618
 20
11904.0
 30
0.0
 11
7670.138284
 21
11904.0
 31
0.0
 12
7666.804951
 22
11884.0
 32
0.0
 13
7666.804951
 23
11884.0
 33
0.0
  0
POINT
  5
82
  8
DEFPOINTS
  6
BYBLOCK
 62
     0
 10
7707.5
 20
12000.0
 30
0.0
  0
POINT
  5
83
  8
DEFPOINTS
  6
BYBLOCK
 62
     0
 10
8000.0
 20
11884.0
 30
0.0
  0
POINT
  5
84
  8
DEFPOINTS
  6
BYBLOCK
 62
     0
 10
7666.804951
 20
11884.0
 30
0.0
  0
ENDBLK
  5
86
  8
0
  0
BLOCK
  8
0
  2
*D2
 70
     1
 10
0.0
 20
0.0
 30
0.0
  3
*D2
  1

  0
LINE
  5
6D
  8
0
  6
BYBLOCK
 62
     9
 10
8292.5
 20
11643.0
 30
0.0
 11
8292.5
 21
11570.376107
 31
0.0
  0
LINE
  5
6E
  8
0
  6
BYBLOCK
 62
     9
 10
7707.5
 20
11643.0
 30
0.0
 11
7707.5
 21
11570.376107
 31
0.0
  0
LINE
  5
6F
  8
0
  6
BYBLOCK
 62
     9
 10
8272.5
 20
11571.376107
 30
0.0
 11
8053.666667
 21
11571.376107
 31
0.0
  0
LINE
  5
70
  8
0
  6
BYBLOCK
 62
     9
 10
7727.5
 20
11571.376107
 30
0.0
 11
7946.333333
 21
11571.376107
 31
0.0
  0
SOLID
  5
71
  8
0
  6
BYBLOCK
 62
     9
 10
8272.5
 20
11574.70944
 30
0.0
 11
8272.5
 21
11568.042773
 31
0.0
 12
8292.5
 22
11571.376107
 32
0.0
 13
8292.5
 23
11571.376107
 33
0.0
  0
SOLID
  5
72
  8
0
  6
BYBLOCK
 62
     9
 10
7727.5
 20
11574.70944
 30
0.0
 11
7727.5
 21
11568.042773
 31
0.0
 12
7707.5
 22
11571.376107
 32
0.0
 13
7707.5
 23
11571.376107
 33
0.0
  0
TEXT
  5
73
  8
0
  6
BYBLOCK
 62
    11
 10
7953.333333
 20
11553.876107
 30
0.0
 40
35.0
  1
585
  0
POINT
  5
74
  8
DEFPOINTS
  6
BYBLOCK
 62
     0
 10
8292.5
 20
11653.0
 30
0.0
  0
POINT
  5
75
  8
DEFPOINTS
  6
BYBLOCK
 62
     0
 10
7707.5
 20
11653.0
 30
0.0
  0
POINT
  5
76
  8
DEFPOINTS
  6
BYBLOCK
 62
     0
 10
7707.5
 20
11571.376107
 30
0.0
  0
ENDBLK
  5
78
  8
0
  0
BLOCK
  8
0
  2
*D3
 70
     1
 10
0.0
 20
0.0
 30
0.0
  3
*D3
  1

  0
LINE
  5
5C
  8
0
  6
BYBLOCK
 62
     9
 10
7780.0
 20
11698.0
 30
0.0
 11
8325.542559
 21
11698.0
 31
0.0
  0
LINE
  5
5D
  8
0
  6
BYBLOCK
 62
     9
 10
7780.0
 20
11958.0
 30
0.0
 11
8325.542559
 21
11958.0
 31
0.0
  0
LINE
  5
5E
  8
0
  6
BYBLOCK
 62
     9
 10
8324.542559
 20
11718.0
 30
0.0
 11
8324.542559
 21
11777.25
 31
0.0
  0
LINE
  5
5F
  8
0
  6
BYBLOCK
 62
     9
 10
8324.542559
 20
11938.0
 30
0.0
 11
8324.542559
 21
11878.75
 31
0.0
  0
SOLID
  5
60
  8
0
  6
BYBLOCK
 62
     9
 10
8321.209226
 20
11718.0
 30
0.0
 11
8327.875893
 21
11718.0
 31
0.0
 12
8324.542559
 22
11698.0
 32
0.0
 13
8324.542559
 23
11698.0
 33
0.0
  0
SOLID
  5
61
  8
0
  6
BYBLOCK
 62
     9
 10
8321.209226
 20
11938.0
 30
0.0
 11
8327.875893
 21
11938.0
 31
0.0
 12
8324.542559
 22
11958.0
 32
0.0
 13
8324.542559
 23
11958.0
 33
0.0
  0
TEXT
  5
62
  8
0
  6
BYBLOCK
 62
    11
 10
8342.042559
 20
11784.25
 30
0.0
 40
35.0
  1
260
 50
90.0
  0
POINT
  5
63
  8
DEFPOINTS
  6
BYBLOCK
 62
     0
 10
7770.0
 20
11698.0
 30
0.0
  0
POINT
  5
64
  8
DEFPOINTS
  6
BYBLOCK
 62
     0
 10
7770.0
 20
11958.0
 30
0.0
  0
POINT
  5
65
  8
DEFPOINTS
  6
BYBLOCK
 62
     0
 10
8324.542559
 20
11958.0
 30
0.0
  0
ENDBLK
  5
67
  8
0
  0
BLOCK
  8
0
  2
*D4
 70
     1
 10
0.0
 20
0.0
 30
0.0
  3
*D4
  1

  0
LINE
  5
4E
  8
0
  6
BYBLOCK
 62
     9
 10
8250.0
 20
11708.0
 30
0.0
 11
8250.0
 21
11617.250761
 31
0.0
  0
LINE
  5
4F
  8
0
  6
BYBLOCK
 62
     9
 10
7750.0
 20
11708.0
 30
0.0
 11
7750.0
 21
11617.250761
 31
0.0
  0
LINE
  5
50
  8
0
  6
BYBLOCK
 62
     9
 10
8230.0
 20
11618.250761
 30
0.0
 11
8047.833333
 21
11618.250761
 31
0.0
  0
LINE
  5
51
  8
0
  6
BYBLOCK
 62
     9
 10
7770.0
 20
11618.250761
 30
0.0
 11
7952.166667
 21
11618.250761
 31
0.0
  0
SOLID
  5
52
  8
0
  6
BYBLOCK
 62
     9
 10
8230.0
 20
11621.584095
 30
0.0
 11
8230.0
 21
11614.917428
 31
0.0
 12
8250.0
 22
11618.250761
 32
0.0
 13
8250.0
 23
11618.250761
 33
0.0
  0
SOLID
  5
53
  8
0
  6
BYBLOCK
 62
     9
 10
7770.0
 20
11621.584095
 30
0.0
 11
7770.0
 21
11614.917428
 31
0.0
 12
7750.0
 22
11618.250761
 32
0.0
 13
7750.0
 23
11618.250761
 33
0.0
  0
TEXT
  5
54
  8
0
  6
BYBLOCK
 62
    11
 10
7959.166667
 20
11600.750761
 30
0.0
 40
35.0
  1
500
  0
POINT
  5
55
  8
DEFPOINTS
  6
BYBLOCK
 62
     0
 10
8250.0
 20
11718.0
 30
0.0
  0
POINT
  5
56
  8
DEFPOINTS
  6
BYBLOCK
 62
     0
 10
7750.0
 20
11718.0
 30
0.0
  0
POINT
  5
57
  8
DEFPOINTS
  6
BYBLOCK
 62
     0
 10
7750.0
 20
11618.250761
 30
0.0
  0
ENDBLK
  5
59
  8
0
  0
BLOCK
  8
0
  2
*D5
 70
     1
 10
0.0
 20
0.0
 30
0.0
  3
*D5
  1

  0
LINE
  5
3C
  8
0
  6
BYBLOCK
 62
     9
 10
7750.0
 20
11708.0
 30
0.0
 11
7750.0
 21
11617.250761
 31
0.0
  0
LINE
  5
3D
  8
0
  6
BYBLOCK
 62
     9
 10
7707.6
 20
11643.0
 30
0.0
 11
7707.6
 21
11617.250761
 31
0.0
  0
LINE
  5
3E
  8
0
  6
BYBLOCK
 62
     9
 10
7770.0
 20
11618.250761
 30
0.0
 11
7790.0
 21
11618.250761
 31
0.0
  0
LINE
  5
3F
  8
0
  6
BYBLOCK
 62
     9
 10
7687.6
 20
11618.250761
 30
0.0
 11
7667.6
 21
11618.250761
 31
0.0
  0
TEXT
  5
40
  8
0
  6
BYBLOCK
 62
    11
 10
7556.574272
 20
11600.750761
 30
0.0
 40
35.0
  1
42.5
  0
LINE
  5
41
  8
0
  6
BYBLOCK
 62
     9
 10
7750.0
 20
11618.250761
 30
0.0
 11
7707.6
 21
11618.250761
 31
0.0
  0
SOLID
  5
42
  8
0
  6
BYBLOCK
 62
     9
 10
7770.0
 20
11621.584095
 30
0.0
 11
7770.0
 21
11614.917428
 31
0.0
 12
7750.0
 22
11618.250761
 32
0.0
 13
7750.0
 23
11618.250761
 33
0.0
  0
SOLID
  5
43
  8
0
  6
BYBLOCK
 62
     9
 10
7687.6
 20
11621.584095
 30
0.0
 11
7687.6
 21
11614.917428
 31
0.0
 12
7707.6
 22
11618.250761
 32
0.0
 13
7707.6
 23
11618.250761
 33
0.0
  0
POINT
  5
44
  8
DEFPOINTS
  6
BYBLOCK
 62
     0
 10
7750.0
 20
11718.0
 30
0.0
  0
POINT
  5
45
  8
DEFPOINTS
  6
BYBLOCK
 62
     0
 10
7707.6
 20
11653.0
 30
0.0
  0
POINT
  5
46
  8
DEFPOINTS
  6
BYBLOCK
 62
     0
 10
7707.6
 20
11618.250761
 30
0.0
  0
ENDBLK
  5
48
  8
0
  0
BLOCK
  8
0
  2
*D6
 70
     1
 10
0.0
 20
0.0
 30
0.0
  3
*D6
  1

  0
LINE
  5
22
  8
0
  6
BYBLOCK
 62
     9
 10
8250.0
 20
11708.0
 30
0.0
 11
8250.0
 21
11617.250761
 31
0.0
  0
LINE
  5
23
  8
0
  6
BYBLOCK
 62
     9
 10
8292.4
 20
11643.0
 30
0.0
 11
8292.4
 21
11617.250761
 31
0.0
  0
LINE
  5
24
  8
0
  6
BYBLOCK
 62
     9
 10
8230.0
 20
11618.250761
 30
0.0
 11
8210.0
 21
11618.250761
 31
0.0
  0
LINE
  5
25
  8
0
  6
BYBLOCK
 62
     9
 10
8312.4
 20
11618.250761
 30
0.0
 11
8332.4
 21
11618.250761
 31
0.0
  0
TEXT
  5
26
  8
0
  6
BYBLOCK
 62
    11
 10
8342.505465
 20
11600.750761
 30
0.0
 40
35.0
  1
42.5
  0
LINE
  5
27
  8
0
  6
BYBLOCK
 62
     9
 10
8250.0
 20
11618.250761
 30
0.0
 11
8292.4
 21
11618.250761
 31
0.0
  0
SOLID
  5
28
  8
0
  6
BYBLOCK
 62
     9
 10
8230.0
 20
11621.584095
 30
0.0
 11
8230.0
 21
11614.917428
 31
0.0
 12
8250.0
 22
11618.250761
 32
0.0
 13
8250.0
 23
11618.250761
 33
0.0
  0
SOLID
  5
29
  8
0
  6
BYBLOCK
 62
     9
 10
8312.4
 20
11621.584095
 30
0.0
 11
8312.4
 21
11614.917428
 31
0.0
 12
8292.4
 22
11618.250761
 32
0.0
 13
8292.4
 23
11618.250761
 33
0.0
  0
POINT
  5
2A
  8
DEFPOINTS
  6
BYBLOCK
 62
     0
 10
8250.0
 20
11718.0
 30
0.0
  0
POINT
  5
2C
  8
DEFPOINTS
  6
BYBLOCK
 62
     0
 10
8292.4
 20
11653.0
 30
0.0
  0
POINT
  5
2D
  8
DEFPOINTS
  6
BYBLOCK
 62
     0
 10
8292.4
 20
11618.250761
 30
0.0
  0
ENDBLK
  5
2F
  8
0
  0
ENDSEC
  0
SECTION
  2
ENTITIES
  0
DIMENSION
  5
20
  8
TEAM-MAS
  2
*D6
 10
292.4
 20
-381.749239
 30
0.0
 11
395.005465
 21
-381.749239
 31
0.0
 12
-8000.0
 22
-12000.0
 32
0.0
 70
   128
  1
<>.5
 13
250.0
 23
-282.0
 33
0.0
 14
292.4
 24
-347.0
 34
0.0
1001
ACAD
1000
DSTYLE
1002
{
1070
    40
1040
1.0
1002
}
  0
CIRCLE
  5
30
  8
TEAM-INSP
 10
0.0
 20
0.0
 30
0.0
 40
10.0
  0
CIRCLE
  5
32
  8
TEAM-DET1
 10
0.0
 20
-116.0
 30
0.0
 40
30.0
  0
CIRCLE
  5
34
  8
TEAM-KAN
 10
0.0
 20
-116.0
 30
0.0
 40
20.0
  0
LINE
  5
36
  8
TEAM-AXE
 10
35.0
 20
-116.0
 30
0.0
 11
-35.0
 21
-116.0
 31
0.0
  0
LINE
  5
39
  8
TEAM-AXE
 10
0.0
 20
-151.0
 30
0.0
 11
0.0
 21
-81.0
 31
0.0
  0
DIMENSION
  5
3A
  8
TEAM-MAS
  2
*D5
 10
-292.4
 20
-381.749239
 30
0.0
 11
-390.925728
 21
-381.749239
 31
0.0
 12
-8000.0
 22
-12000.0
 32
0.0
 70
   128
  1
<>.5
 13
-250.0
 23
-282.0
 33
0.0
 14
-292.4
 24
-347.0
 34
0.0
1001
ACAD
1000
DSTYLE
1002
{
1070
    40
1040
1.0
1002
}
  0
POLYLINE
  5
49
  8
TEAM-DET1
 66
     1
 10
0.0
 20
0.0
 30
0.0
 70
     1
  0
VERTEX
  5
155
  8
TEAM-DET1
 10
245.0
 20
-277.0
 30
0.0
  0
VERTEX
  5
156
  8
TEAM-DET1
 10
-245.0
 20
-277.0
 30
0.0
  0
VERTEX
  5
157
  8
TEAM-DET1
 10
-245.0
 20
-67.0
 30
0.0
  0
VERTEX
  5
158
  8
TEAM-DET1
 10
245.0
 20
-67.0
 30
0.0
  0
SEQEND
  5
159
  8
TEAM-DET1
  0
POLYLINE
  5
4A
  8
TEAM-BODY
 66
     1
 10
0.0
 20
0.0
 30
0.0
 70
     1
  0
VERTEX
  5
15A
  8
TEAM-BODY
 10
230.0
 20
-302.0
 30
0.0
  0
VERTEX
  5
15B
  8
TEAM-BODY
 10
-230.0
 20
-302.0
 30
0.0
 42
-0.414214
  0
VERTEX
  5
15C
  8
TEAM-BODY
 10
-250.0
 20
-282.0
 30
0.0
  0
VERTEX
  5
15D
  8
TEAM-BODY
 10
-250.0
 20
-62.0
 30
0.0
 42
-0.414214
  0
VERTEX
  5
15E
  8
TEAM-BODY
 10
-230.0
 20
-42.0
 30
0.0
  0
VERTEX
  5
15F
  8
TEAM-BODY
 10
230.0
 20
-42.0
 30
0.0
 42
-0.414214
  0
VERTEX
  5
160
  8
TEAM-BODY
 10
250.0
 20
-62.0
 30
0.0
  0
VERTEX
  5
161
  8
TEAM-BODY
 10
250.0
 20
-282.0
 30
0.0
 42
-0.414214
  0
SEQEND
  5
162
  8
TEAM-BODY
  0
DIMENSION
  5
4C
  8
TEAM-MAS
  2
*D4
 10
-250.0
 20
-381.749239
 30
0.0
 11
0.0
 21
-381.749239
 31
0.0
 12
-8000.0
 22
-12000.0
 32
0.0
 13
250.0
 23
-282.0
 33
0.0
 14
-250.0
 24
-282.0
 34
0.0
1001
ACAD
1000
DSTYLE
1002
{
1070
    40
1040
1.0
1002
}
  0
DIMENSION
  5
5A
  8
TEAM-MAS
  2
*D3
 10
324.542559
 20
-42.0
 30
0.0
 11
324.542559
 21
-172.0
 31
0.0
 12
-8000.0
 22
-12000.0
 32
0.0
 13
-230.0
 23
-302.0
 33
0.0
 14
-230.0
 24
-42.0
 34
0.0
 50
270.0
1001
ACAD
1000
DSTYLE
1002
{
1070
    40
1040
1.0
1002
}
  0
TEXT
  5
68
  8
TEAM-TXT
 10
-233.189728
 20
-249.186333
 30
0.0
 40
30.0
  1
team 217057
 41
0.8
 51
15.0
  7
TEAM
  0
DIMENSION
  5
6B
  8
TEAM-MAS
  2
*D2
 10
-292.5
 20
-428.623893
 30
0.0
 11
0.0
 21
-428.623893
 31
0.0
 12
-8000.0
 22
-12000.0
 32
0.0
 13
292.5
 23
-347.0
 33
0.0
 14
-292.5
 24
-347.0
 34
0.0
1001
ACAD
1000
DSTYLE
1002
{
1070
    40
1040
1.0
1002
}
  0
POLYLINE
  5
79
  8
TEAM-BODY
 66
     1
 10
0.0
 20
0.0
 30
0.0
 70
     1
  0
VERTEX
  5
163
  8
TEAM-BODY
 10
292.5
 20
-347.0
 30
0.0
  0
VERTEX
  5
164
  8
TEAM-BODY
 10
-292.5
 20
-347.0
 30
0.0
  0
VERTEX
  5
165
  8
TEAM-BODY
 10
-292.5
 20
0.0
 30
0.0
  0
VERTEX
  5
166
  8
TEAM-BODY
 10
292.5
 20
0.0
 30
0.0
  0
SEQEND
  5
167
  8
TEAM-BODY
  0
DIMENSION
  5
7A
  8
TEAM-MAS
  2
*D1
 10
-333.195049
 20
-116.0
 30
0.0
 11
-362.195049
 21
-58.0
 31
0.0
 12
-8000.0
 22
-12000.0
 32
0.0
  1
~<>
 13
-292.5
 23
0.0
 33
0.0
 14
0.0
 24
-116.0
 34
0.0
 50
270.0
1001
ACAD
1000
DSTYLE
1002
{
1070
    40
1040
1.0
1002
}
  0
DIMENSION
  5
87
  8
TEAM-MAS
  2
*D0
 10
371.133604
 20
0.0
 30
0.0
 11
371.133604
 21
-173.5
 31
0.0
 12
-8000.0
 22
-12000.0
 32
0.0
 13
-292.5
 23
-347.0
 33
0.0
 14
-107.5
 24
0.0
 34
0.0
 50
270.0
1001
ACAD
1000
DSTYLE
1002
{
1070
    40
1040
1.0
1002
}
  0
ENDSEC
  0
EOF
