  0
SECTION
  2
HEADER
  9
$ACADVER
  1
AC1009
  9
$INSBASE
 10
0.0
 20
0.0
 30
0.0
  9
$EXTMIN
 10
-305.116446
 20
-10.046707
 30
-0.000004
  9
$EXTMAX
 10
599.070558
 20
951.779929
 30
0.000001
  9
$LIMMIN
 10
-305.116446
 20
-10.046707
  9
$LIMMAX
 10
599.070558
 20
951.779929
  9
$ORTHOMODE
 70
     1
  9
$REGENMODE
 70
     1
  9
$FILLMODE
 70
     1
  9
$QTEXTMODE
 70
     0
  9
$MIRRTEXT
 70
     0
  9
$DRAGMODE
 70
     2
  9
$LTSCALE
 40
25.0
  9
$OSMODE
 70
     0
  9
$ATTMODE
 70
     1
  9
$TEXTSIZE
 40
200.0
  9
$TRACEWID
 40
1.0
  9
$TEXTSTYLE
  7
STANDARD
  9
$CLAYER
  8
TEAM-MAS
  9
$CELTYPE
  6
BYLAYER
  9
$CECOLOR
 62
   256
  9
$DIMSCALE
 40
0.0
  9
$DIMASZ
 40
20.0
  9
$DIMEXO
 40
10.0
  9
$DIMDLI
 40
1.0
  9
$DIMRND
 40
0.0
  9
$DIMDLE
 40
0.0
  9
$DIMEXE
 40
1.0
  9
$DIMTP
 40
0.0
  9
$DIMTM
 40
0.0
  9
$DIMTXT
 40
35.0
  9
$DIMCEN
 40
1.0
  9
$DIMTSZ
 40
0.0
  9
$DIMTOL
 70
     0
  9
$DIMLIM
 70
     0
  9
$DIMTIH
 70
     0
  9
$DIMTOH
 70
     0
  9
$DIMSE1
 70
     0
  9
$DIMSE2
 70
     0
  9
$DIMTAD
 70
     0
  9
$DIMZIN
 70
     0
  9
$DIMBLK
  1

  9
$DIMASO
 70
     1
  9
$DIMSHO
 70
     0
  9
$DIMPOST
  1

  9
$DIMAPOST
  1

  9
$DIMALT
 70
     0
  9
$DIMALTD
 70
     2
  9
$DIMALTF
 40
25.4
  9
$DIMLFAC
 40
1.0
  9
$DIMTOFL
 70
     0
  9
$DIMTVP
 40
0.0
  9
$DIMTIX
 70
     0
  9
$DIMSOXD
 70
     0
  9
$DIMSAH
 70
     0
  9
$DIMBLK1
  1

  9
$DIMBLK2
  1

  9
$DIMSTYLE
  2
TEAM
  9
$DIMCLRD
 70
     9
  9
$DIMCLRE
 70
     9
  9
$DIMCLRT
 70
    11
  9
$DIMTFAC
 40
1.0
  9
$DIMGAP
 40
15.0
  9
$LUNITS
 70
     2
  9
$LUPREC
 70
     1
  9
$SKETCHINC
 40
1.0
  9
$FILLETRAD
 40
20.0
  9
$AUNITS
 70
     0
  9
$AUPREC
 70
     0
  9
$MENU
  1
ROPLANS
  9
$ELEVATION
 40
0.0
  9
$PELEVATION
 40
0.0
  9
$THICKNESS
 40
0.0
  9
$LIMCHECK
 70
     0
  9
$BLIPMODE
 70
     1
  9
$CHAMFERA
 40
0.0
  9
$CHAMFERB
 40
0.0
  9
$SKPOLY
 70
     0
  9
$TDCREATE
 40
2450392.957851
  9
$TDUPDATE
 40
2455566.886968
  9
$TDINDWG
 40
2.22143
  9
$TDUSRTIMER
 40
2.22143
  9
$USRTIMER
 70
     1
  9
$ANGBASE
 50
0.0
  9
$ANGDIR
 70
     0
  9
$PDMODE
 70
     0
  9
$PDSIZE
 40
0.0
  9
$PLINEWID
 40
0.0
  9
$COORDS
 70
     2
  9
$SPLFRAME
 70
     0
  9
$SPLINETYPE
 70
     6
  9
$SPLINESEGS
 70
     8
  9
$ATTDIA
 70
     0
  9
$ATTREQ
 70
     0
  9
$HANDLING
 70
     1
  9
$HANDSEED
  5
169
  9
$SURFTAB1
 70
    24
  9
$SURFTAB2
 70
    24
  9
$SURFTYPE
 70
     6
  9
$SURFU
 70
     6
  9
$SURFV
 70
     6
  9
$UCSNAME
  2

  9
$UCSORG
 10
0.0
 20
0.0
 30
0.0
  9
$UCSXDIR
 10
1.0
 20
0.0
 30
0.0
  9
$UCSYDIR
 10
0.0
 20
1.0
 30
0.0
  9
$PUCSNAME
  2

  9
$PUCSORG
 10
0.0
 20
0.0
 30
0.0
  9
$PUCSXDIR
 10
1.0
 20
0.0
 30
0.0
  9
$PUCSYDIR
 10
0.0
 20
1.0
 30
0.0
  9
$USERI1
 70
     0
  9
$USERI2
 70
     0
  9
$USERI3
 70
     0
  9
$USERI4
 70
     0
  9
$USERI5
 70
     0
  9
$USERR1
 40
0.0
  9
$USERR2
 40
0.0
  9
$USERR3
 40
0.0
  9
$USERR4
 40
0.0
  9
$USERR5
 40
0.0
  9
$WORLDVIEW
 70
     1
  9
$SHADEDGE
 70
     0
  9
$SHADEDIF
 70
    70
  9
$TILEMODE
 70
     1
  9
$MAXACTVP
 70
    16
  9
$PLIMCHECK
 70
     0
  9
$PEXTMIN
 10
-0.805942
 20
0.005011
 30
0.0
  9
$PEXTMAX
 10
20.250094
 20
11.356329
 30
0.0
  9
$PLIMMIN
 10
0.0
 20
0.0
  9
$PLIMMAX
 10
12.0
 20
9.0
  9
$UNITMODE
 70
     0
  9
$VISRETAIN
 70
     0
  9
$PLINEGEN
 70
     0
  9
$PSLTSCALE
 70
     0
  0
ENDSEC
  0
SECTION
  2
TABLES
  0
TABLE
  2
VPORT
 70
     2
  0
VPORT
  2
*ACTIVE
 70
     0
 10
0.0
 20
0.0
 11
1.0
 21
1.0
 12
146.977056
 22
470.866611
 13
0.0
 23
0.0
 14
1.0
 24
1.0
 15
50.0
 25
50.0
 16
0.0
 26
0.0
 36
1.0
 17
0.0
 27
0.0
 37
0.0
 40
967.733452
 41
1.865779
 42
50.0
 43
0.0
 44
0.0
 50
0.0
 51
0.0
 71
     0
 72
   100
 73
     1
 74
     1
 75
     0
 76
     0
 77
     0
 78
     0
  0
ENDTAB
  0
TABLE
  2
LTYPE
 70
     4
  0
LTYPE
  2
CONTINUOUS
 70
     0
  3
Solid Line
 72
    65
 73
     0
 40
0.0
  0
LTYPE
  2
31
 70
     0
  3

 72
    65
 73
     4
 40
2.1
 49
1.5
 49
-0.3
 49
0.0
 49
-0.3
  0
LTYPE
  2
22
 70
     0
  3

 72
    65
 73
     2
 40
1.4
 49
1.2
 49
-0.2
  0
LTYPE
  2
DURCHGEHEND
 70
     0
  3

 72
    65
 73
     0
 40
0.0
  0
ENDTAB
  0
TABLE
  2
LAYER
 70
    13
  0
LAYER
  2
0
 70
     0
 62
     7
  6
CONTINUOUS
  0
LAYER
  2
DEFPOINTS
 70
     0
 62
     7
  6
CONTINUOUS
  0
LAYER
  2
TEAM-AXE
 70
     0
 62
    10
  6
31
  0
LAYER
  2
TEAM-MAS
 70
     0
 62
     9
  6
CONTINUOUS
  0
LAYER
  2
TEAM-TXT
 70
     0
 62
    11
  6
CONTINUOUS
  0
LAYER
  2
TEAM-DET1
 70
     0
 62
     4
  6
CONTINUOUS
  0
LAYER
  2
TEAM-COLD
 70
     0
 62
     3
  6
CONTINUOUS
  0
LAYER
  2
TEAM-HIDE
 70
     0
 62
     8
  6
22
  0
LAYER
  2
TEAM-KAN
 70
     0
 62
     6
  6
CONTINUOUS
  0
LAYER
  2
TEAM-WARM
 70
     0
 62
     1
  6
CONTINUOUS
  0
LAYER
  2
TEAM-NET
 70
     0
 62
    15
  6
CONTINUOUS
  0
LAYER
  2
TEAM-INSP
 70
     0
 62
     5
  6
CONTINUOUS
  0
LAYER
  2
STANDARDEBENE
 70
     0
 62
     7
  6
DURCHGEHEND
  0
ENDTAB
  0
TABLE
  2
STYLE
 70
     2
  0
STYLE
  2
STANDARD
 70
     0
 40
0.0
 41
1.0
 50
0.0
 71
     0
 42
200.0
  3
txt
  4

  0
STYLE
  2
TEAM
 70
     0
 40
0.0
 41
0.8
 50
15.0
 71
     0
 42
7.0
  3
ROMANS.shx
  4

  0
ENDTAB
  0
TABLE
  2
VIEW
 70
     0
  0
ENDTAB
  0
TABLE
  2
UCS
 70
     0
  0
ENDTAB
  0
TABLE
  2
APPID
 70
     1
  0
APPID
  2
ACAD
 70
     0
  0
ENDTAB
  0
TABLE
  2
DIMSTYLE
 70
     1
  0
DIMSTYLE
  2
TEAM
 70
     0
  3

  4

  5

  6

  7

 40
0.0
 41
20.0
 42
10.0
 43
1.0
 44
1.0
 45
0.0
 46
0.0
 47
0.0
 48
0.0
140
35.0
141
1.0
142
0.0
143
25.4
144
1.0
145
0.0
146
1.0
147
15.0
 71
     0
 72
     0
 73
     0
 74
     0
 75
     0
 76
     0
 77
     0
 78
     0
170
     0
171
     2
172
     0
173
     0
174
     0
175
     0
176
     9
177
     9
178
    11
  0
ENDTAB
  0
ENDSEC
  0
SECTION
  2
BLOCKS
  0
BLOCK
  8
0
  2
$MODEL_SPACE
 70
     0
 10
0.0
 20
0.0
 30
0.0
  3
$MODEL_SPACE
  1

  0
ENDBLK
  5
14E
  8
0
  0
BLOCK
 67
     1
  8
0
  2
$PAPER_SPACE
 70
     0
 10
0.0
 20
0.0
 30
0.0
  3
$PAPER_SPACE
  1

  0
ENDBLK
  5
14C
 67
     1
  8
0
  0
BLOCK
  8
0
  2
*D0
 70
     1
 10
0.0
 20
0.0
 30
0.0
  3
*D0
  1

  0
LINE
  5
88
  8
0
  6
BYBLOCK
 62
     9
 10
12216.5
 20
20810.000007
 30
0.0
 11
12480.100142
 21
20810.000007
 31
0.0
  0
LINE
  5
89
  8
0
  6
BYBLOCK
 62
     9
 10
11829.829407
 20
20850.000007
 30
0.0
 11
12480.100142
 21
20850.000007
 31
0.0
  0
LINE
  5
8A
  8
0
  6
BYBLOCK
 62
     9
 10
12479.100142
 20
20790.000007
 30
0.0
 11
12479.100142
 21
20770.000007
 31
0.0
  0
LINE
  5
8B
  8
0
  6
BYBLOCK
 62
     9
 10
12479.100142
 20
20870.000007
 30
0.0
 11
12479.100142
 21
20890.000007
 31
0.0
  0
TEXT
  5
8C
  8
0
  6
BYBLOCK
 62
    11
 10
12496.600142
 20
20719.678242
 30
0.0
 40
35.0
  1
40
 50
90.0
  0
LINE
  5
8D
  8
0
  6
BYBLOCK
 62
     9
 10
12479.100142
 20
20810.000007
 30
0.0
 11
12479.100142
 21
20850.000007
 31
0.0
  0
SOLID
  5
8E
  8
0
  6
BYBLOCK
 62
     9
 10
12475.766809
 20
20790.000007
 30
0.0
 11
12482.433476
 21
20790.000007
 31
0.0
 12
12479.100142
 22
20810.000007
 32
0.0
 13
12479.100142
 23
20810.000007
 33
0.0
  0
SOLID
  5
8F
  8
0
  6
BYBLOCK
 62
     9
 10
12475.766809
 20
20870.000007
 30
0.0
 11
12482.433476
 21
20870.000007
 31
0.0
 12
12479.100142
 22
20850.000007
 32
0.0
 13
12479.100142
 23
20850.000007
 33
0.0
  0
POINT
  5
90
  8
DEFPOINTS
  6
BYBLOCK
 62
     0
 10
12206.5
 20
20810.000007
 30
0.0
  0
POINT
  5
91
  8
DEFPOINTS
  6
BYBLOCK
 62
     0
 10
11819.829407
 20
20850.000007
 30
0.0
  0
POINT
  5
92
  8
DEFPOINTS
  6
BYBLOCK
 62
     0
 10
12479.100142
 20
20850.000007
 30
0.0
  0
ENDBLK
  5
94
  8
0
  0
BLOCK
  8
0
  2
*D1
 70
     1
 10
0.0
 20
0.0
 30
0.0
  3
*D1
  1

  0
LINE
  5
7A
  8
0
  6
BYBLOCK
 62
     9
 10
11809.829407
 20
20850.000007
 30
0.0
 11
11769.25802
 21
20850.000007
 31
0.0
  0
LINE
  5
7B
  8
0
  6
BYBLOCK
 62
     9
 10
11801.0
 20
20610.000007
 30
0.0
 11
11769.25802
 21
20610.000007
 31
0.0
  0
LINE
  5
7C
  8
0
  6
BYBLOCK
 62
     9
 10
11770.25802
 20
20830.000007
 30
0.0
 11
11770.25802
 21
20778.708176
 31
0.0
  0
LINE
  5
7D
  8
0
  6
BYBLOCK
 62
     9
 10
11770.25802
 20
20630.000007
 30
0.0
 11
11770.25802
 21
20681.291838
 31
0.0
  0
SOLID
  5
7E
  8
0
  6
BYBLOCK
 62
     9
 10
11766.924687
 20
20830.000007
 30
0.0
 11
11773.591353
 21
20830.000007
 31
0.0
 12
11770.25802
 22
20850.000007
 32
0.0
 13
11770.25802
 23
20850.000007
 33
0.0
  0
SOLID
  5
7F
  8
0
  6
BYBLOCK
 62
     9
 10
11766.924687
 20
20630.000007
 30
0.0
 11
11773.591353
 21
20630.000007
 31
0.0
 12
11770.25802
 22
20610.000007
 32
0.0
 13
11770.25802
 23
20610.000007
 33
0.0
  0
TEXT
  5
80
  8
0
  6
BYBLOCK
 62
    11
 10
11787.75802
 20
20691.930617
 30
0.0
 40
35.0
  1
240
 50
90.0
  0
POINT
  5
81
  8
DEFPOINTS
  6
BYBLOCK
 62
     0
 10
11819.829407
 20
20850.000007
 30
0.0
  0
POINT
  5
82
  8
DEFPOINTS
  6
BYBLOCK
 62
     0
 10
11811.0
 20
20610.000007
 30
0.0
  0
POINT
  5
83
  8
DEFPOINTS
  6
BYBLOCK
 62
     0
 10
11770.25802
 20
20610.000007
 30
0.0
  0
ENDBLK
  5
85
  8
0
  0
BLOCK
  8
0
  2
*D2
 70
     1
 10
0.0
 20
0.0
 30
0.0
  3
*D2
  1

  0
LINE
  5
6C
  8
0
  6
BYBLOCK
 62
     9
 10
11829.829407
 20
20850.000007
 30
0.0
 11
12582.856565
 21
20850.000007
 31
0.0
  0
LINE
  5
6D
  8
0
  6
BYBLOCK
 62
     9
 10
12010.0
 20
20000.0
 30
0.0
 11
12582.856565
 21
20000.0
 31
0.0
  0
LINE
  5
6E
  8
0
  6
BYBLOCK
 62
     9
 10
12581.856565
 20
20830.000007
 30
0.0
 11
12581.856565
 21
20471.513783
 31
0.0
  0
LINE
  5
6F
  8
0
  6
BYBLOCK
 62
     9
 10
12581.856565
 20
20020.0
 30
0.0
 11
12581.856565
 21
20378.486224
 31
0.0
  0
SOLID
  5
70
  8
0
  6
BYBLOCK
 62
     9
 10
12578.523231
 20
20830.000007
 30
0.0
 11
12585.189898
 21
20830.000007
 31
0.0
 12
12581.856565
 22
20850.000007
 32
0.0
 13
12581.856565
 23
20850.000007
 33
0.0
  0
SOLID
  5
71
  8
0
  6
BYBLOCK
 62
     9
 10
12578.523231
 20
20020.0
 30
0.0
 11
12585.189898
 21
20020.0
 31
0.0
 12
12581.856565
 22
20000.0
 32
0.0
 13
12581.856565
 23
20000.0
 33
0.0
  0
TEXT
  5
72
  8
0
  6
BYBLOCK
 62
    11
 10
12599.356565
 20
20388.236224
 30
0.0
 40
35.0
  1
850
 50
90.0
  0
POINT
  5
73
  8
DEFPOINTS
  6
BYBLOCK
 62
     0
 10
11819.829407
 20
20850.000007
 30
0.0
  0
POINT
  5
74
  8
DEFPOINTS
  6
BYBLOCK
 62
     0
 10
12000.0
 20
20000.0
 30
0.0
  0
POINT
  5
75
  8
DEFPOINTS
  6
BYBLOCK
 62
     0
 10
12581.856565
 20
20000.0
 30
0.0
  0
ENDBLK
  5
77
  8
0
  0
BLOCK
  8
0
  2
*D3
 70
     1
 10
0.0
 20
0.0
 30
0.0
  3
*D3
  1

  0
LINE
  5
5E
  8
0
  6
BYBLOCK
 62
     9
 10
11829.829407
 20
20850.000007
 30
0.0
 11
12530.107697
 21
20850.000007
 31
0.0
  0
LINE
  5
5F
  8
0
  6
BYBLOCK
 62
     9
 10
12035.5
 20
20500.0
 30
0.0
 11
12530.107697
 21
20500.0
 31
0.0
  0
LINE
  5
60
  8
0
  6
BYBLOCK
 62
     9
 10
12529.107697
 20
20830.000007
 30
0.0
 11
12529.107697
 21
20721.513783
 31
0.0
  0
LINE
  5
61
  8
0
  6
BYBLOCK
 62
     9
 10
12529.107697
 20
20520.0
 30
0.0
 11
12529.107697
 21
20628.486224
 31
0.0
  0
SOLID
  5
62
  8
0
  6
BYBLOCK
 62
     9
 10
12525.774364
 20
20830.000007
 30
0.0
 11
12532.44103
 21
20830.000007
 31
0.0
 12
12529.107697
 22
20850.000007
 32
0.0
 13
12529.107697
 23
20850.000007
 33
0.0
  0
SOLID
  5
63
  8
0
  6
BYBLOCK
 62
     9
 10
12525.774364
 20
20520.0
 30
0.0
 11
12532.44103
 21
20520.0
 31
0.0
 12
12529.107697
 22
20500.0
 32
0.0
 13
12529.107697
 23
20500.0
 33
0.0
  0
TEXT
  5
64
  8
0
  6
BYBLOCK
 62
    11
 10
12546.607697
 20
20638.236224
 30
0.0
 40
35.0
  1
350
 50
90.0
  0
POINT
  5
65
  8
DEFPOINTS
  6
BYBLOCK
 62
     0
 10
11819.829407
 20
20850.000007
 30
0.0
  0
POINT
  5
66
  8
DEFPOINTS
  6
BYBLOCK
 62
     0
 10
12025.5
 20
20500.0
 30
0.0
  0
POINT
  5
67
  8
DEFPOINTS
  6
BYBLOCK
 62
     0
 10
12529.107697
 20
20500.0
 30
0.0
  0
ENDBLK
  5
69
  8
0
  0
BLOCK
  8
0
  2
*D4
 70
     1
 10
0.0
 20
0.0
 30
0.0
  3
*D4
  1

  0
LINE
  5
A2
  8
0
  6
BYBLOCK
 62
     9
 10
12035.5
 20
20500.0
 30
0.0
 11
12530.107697
 21
20500.0
 31
0.0
  0
LINE
  5
A3
  8
0
  6
BYBLOCK
 62
     9
 10
12010.0
 20
20000.0
 30
0.0
 11
12530.107697
 21
20000.0
 31
0.0
  0
LINE
  5
A4
  8
0
  6
BYBLOCK
 62
     9
 10
12529.107697
 20
20480.0
 30
0.0
 11
12529.107697
 21
20296.51378
 31
0.0
  0
LINE
  5
A5
  8
0
  6
BYBLOCK
 62
     9
 10
12529.107697
 20
20020.0
 30
0.0
 11
12529.107697
 21
20203.48622
 31
0.0
  0
SOLID
  5
A6
  8
0
  6
BYBLOCK
 62
     9
 10
12525.774364
 20
20480.0
 30
0.0
 11
12532.44103
 21
20480.0
 31
0.0
 12
12529.107697
 22
20500.0
 32
0.0
 13
12529.107697
 23
20500.0
 33
0.0
  0
SOLID
  5
A7
  8
0
  6
BYBLOCK
 62
     9
 10
12525.774364
 20
20020.0
 30
0.0
 11
12532.44103
 21
20020.0
 31
0.0
 12
12529.107697
 22
20000.0
 32
0.0
 13
12529.107697
 23
20000.0
 33
0.0
  0
TEXT
  5
A8
  8
0
  6
BYBLOCK
 62
    11
 10
12546.607697
 20
20213.23622
 30
0.0
 40
35.0
  1
500
 50
90.0
  0
POINT
  5
A9
  8
DEFPOINTS
  6
BYBLOCK
 62
     0
 10
12025.5
 20
20500.0
 30
0.0
  0
POINT
  5
AA
  8
DEFPOINTS
  6
BYBLOCK
 62
     0
 10
12000.0
 20
20000.0
 30
0.0
  0
POINT
  5
AB
  8
DEFPOINTS
  6
BYBLOCK
 62
     0
 10
12529.107697
 20
20000.0
 30
0.0
  0
ENDBLK
  5
AD
  8
0
  0
BLOCK
  8
0
  2
*D5
 70
     1
 10
0.0
 20
0.0
 30
0.0
  3
*D5
  1

  0
LINE
  5
50
  8
0
  6
BYBLOCK
 62
     9
 10
12391.0
 20
20850.434699
 30
0.0
 11
12391.0
 21
20936.962005
 31
0.0
  0
LINE
  5
51
  8
0
  6
BYBLOCK
 62
     9
 10
11811.0
 20
20850.434699
 30
0.0
 11
11811.0
 21
20936.962005
 31
0.0
  0
LINE
  5
52
  8
0
  6
BYBLOCK
 62
     9
 10
12371.0
 20
20935.962005
 30
0.0
 11
12147.51378
 21
20935.962005
 31
0.0
  0
LINE
  5
53
  8
0
  6
BYBLOCK
 62
     9
 10
11831.0
 20
20935.962005
 30
0.0
 11
12054.48622
 21
20935.962005
 31
0.0
  0
TEXT
  5
54
  8
0
  6
BYBLOCK
 62
    11
 10
12064.23622
 20
20918.462005
 30
0.0
 40
35.0
  1
580
  0
SOLID
  5
55
  8
0
  6
BYBLOCK
 62
     9
 10
12371.0
 20
20939.295338
 30
0.0
 11
12371.0
 21
20932.628671
 31
0.0
 12
12391.0
 22
20935.962005
 32
0.0
 13
12391.0
 23
20935.962005
 33
0.0
  0
SOLID
  5
56
  8
0
  6
BYBLOCK
 62
     9
 10
11831.0
 20
20939.295338
 30
0.0
 11
11831.0
 21
20932.628671
 31
0.0
 12
11811.0
 22
20935.962005
 32
0.0
 13
11811.0
 23
20935.962005
 33
0.0
  0
POINT
  5
57
  8
DEFPOINTS
  6
BYBLOCK
 62
     0
 10
12391.0
 20
20840.434699
 30
0.0
  0
POINT
  5
58
  8
DEFPOINTS
  6
BYBLOCK
 62
     0
 10
11811.0
 20
20840.434699
 30
0.0
  0
POINT
  5
59
  8
DEFPOINTS
  6
BYBLOCK
 62
     0
 10
11811.0
 20
20935.962005
 30
0.0
  0
ENDBLK
  5
5B
  8
0
  0
BLOCK
  8
0
  2
*D6
 70
     1
 10
0.0
 20
0.0
 30
0.0
  3
*D6
  1

  0
LINE
  5
22
  8
0
  6
BYBLOCK
 62
     9
 10
12135.5
 20
20826.000007
 30
0.0
 11
12135.5
 21
20892.82264
 31
0.0
  0
LINE
  5
23
  8
0
  6
BYBLOCK
 62
     9
 10
12200.5
 20
20826.000007
 30
0.0
 11
12200.5
 21
20892.82264
 31
0.0
  0
LINE
  5
24
  8
0
  6
BYBLOCK
 62
     9
 10
12115.5
 20
20891.82264
 30
0.0
 11
12095.5
 21
20891.82264
 31
0.0
  0
LINE
  5
25
  8
0
  6
BYBLOCK
 62
     9
 10
12220.5
 20
20891.82264
 30
0.0
 11
12240.5
 21
20891.82264
 31
0.0
  0
TEXT
  5
26
  8
0
  6
BYBLOCK
 62
    11
 10
12256.188729
 20
20874.32264
 30
0.0
 40
35.0
  1
65
  0
LINE
  5
27
  8
0
  6
BYBLOCK
 62
     9
 10
12135.5
 20
20891.82264
 30
0.0
 11
12200.5
 21
20891.82264
 31
0.0
  0
SOLID
  5
28
  8
0
  6
BYBLOCK
 62
     9
 10
12115.5
 20
20895.155973
 30
0.0
 11
12115.5
 21
20888.489307
 31
0.0
 12
12135.5
 22
20891.82264
 32
0.0
 13
12135.5
 23
20891.82264
 33
0.0
  0
SOLID
  5
29
  8
0
  6
BYBLOCK
 62
     9
 10
12220.5
 20
20895.155973
 30
0.0
 11
12220.5
 21
20888.489307
 31
0.0
 12
12200.5
 22
20891.82264
 32
0.0
 13
12200.5
 23
20891.82264
 33
0.0
  0
POINT
  5
2A
  8
DEFPOINTS
  6
BYBLOCK
 62
     0
 10
12135.5
 20
20816.000007
 30
0.0
  0
POINT
  5
2C
  8
DEFPOINTS
  6
BYBLOCK
 62
     0
 10
12200.5
 20
20816.000007
 30
0.0
  0
POINT
  5
2D
  8
DEFPOINTS
  6
BYBLOCK
 62
     0
 10
12200.5
 20
20891.82264
 30
0.0
  0
ENDBLK
  5
2F
  8
0
  0
BLOCK
  8
0
  2
*D7
 70
     1
 10
0.0
 20
0.0
 30
0.0
  3
*D7
  1

  0
LINE
  5
32
  8
0
  6
BYBLOCK
 62
     9
 10
11811.0
 20
20860.000007
 30
0.0
 11
11811.0
 21
20892.82264
 31
0.0
  0
LINE
  5
33
  8
0
  6
BYBLOCK
 62
     9
 10
11855.4
 20
20826.000007
 30
0.0
 11
11855.4
 21
20892.82264
 31
0.0
  0
LINE
  5
34
  8
0
  6
BYBLOCK
 62
     9
 10
11791.0
 20
20891.82264
 30
0.0
 11
11771.0
 21
20891.82264
 31
0.0
  0
LINE
  5
35
  8
0
  6
BYBLOCK
 62
     9
 10
11875.4
 20
20891.82264
 30
0.0
 11
11895.4
 21
20891.82264
 31
0.0
  0
TEXT
  5
36
  8
0
  6
BYBLOCK
 62
    11
 10
11689.695139
 20
20876.94764
 30
0.0
 40
35.0
  1
44,5
  0
LINE
  5
37
  8
0
  6
BYBLOCK
 62
     9
 10
11811.0
 20
20891.82264
 30
0.0
 11
11855.4
 21
20891.82264
 31
0.0
  0
SOLID
  5
38
  8
0
  6
BYBLOCK
 62
     9
 10
11791.0
 20
20895.155973
 30
0.0
 11
11791.0
 21
20888.489307
 31
0.0
 12
11811.0
 22
20891.82264
 32
0.0
 13
11811.0
 23
20891.82264
 33
0.0
  0
SOLID
  5
39
  8
0
  6
BYBLOCK
 62
     9
 10
11875.4
 20
20895.155973
 30
0.0
 11
11875.4
 21
20888.489307
 31
0.0
 12
11855.4
 22
20891.82264
 32
0.0
 13
11855.4
 23
20891.82264
 33
0.0
  0
POINT
  5
3A
  8
DEFPOINTS
  6
BYBLOCK
 62
     0
 10
11811.0
 20
20850.000007
 30
0.0
  0
POINT
  5
3B
  8
DEFPOINTS
  6
BYBLOCK
 62
     0
 10
11855.4
 20
20816.000007
 30
0.0
  0
POINT
  5
3C
  8
DEFPOINTS
  6
BYBLOCK
 62
     0
 10
11855.4
 20
20891.82264
 30
0.0
  0
ENDBLK
  5
3E
  8
0
  0
BLOCK
  8
0
  2
*D8
 70
     1
 10
0.0
 20
0.0
 30
0.0
  3
*D8
  1

  0
LINE
  5
41
  8
0
  6
BYBLOCK
 62
     9
 10
11855.4
 20
20826.000007
 30
0.0
 11
11855.4
 21
20892.82264
 31
0.0
  0
LINE
  5
42
  8
0
  6
BYBLOCK
 62
     9
 10
12135.5
 20
20826.000007
 30
0.0
 11
12135.5
 21
20892.82264
 31
0.0
  0
LINE
  5
43
  8
0
  6
BYBLOCK
 62
     9
 10
11875.4
 20
20891.82264
 30
0.0
 11
11948.491831
 21
20891.82264
 31
0.0
  0
LINE
  5
44
  8
0
  6
BYBLOCK
 62
     9
 10
12115.5
 20
20891.82264
 30
0.0
 11
12042.408169
 21
20891.82264
 31
0.0
  0
SOLID
  5
45
  8
0
  6
BYBLOCK
 62
     9
 10
11875.4
 20
20895.155973
 30
0.0
 11
11875.4
 21
20888.489307
 31
0.0
 12
11855.4
 22
20891.82264
 32
0.0
 13
11855.4
 23
20891.82264
 33
0.0
  0
SOLID
  5
46
  8
0
  6
BYBLOCK
 62
     9
 10
12115.5
 20
20895.155973
 30
0.0
 11
12115.5
 21
20888.489307
 31
0.0
 12
12135.5
 22
20891.82264
 32
0.0
 13
12135.5
 23
20891.82264
 33
0.0
  0
TEXT
  5
47
  8
0
  6
BYBLOCK
 62
    11
 10
11959.13061
 20
20874.32264
 30
0.0
 40
35.0
  1
280
  0
POINT
  5
48
  8
DEFPOINTS
  6
BYBLOCK
 62
     0
 10
11855.4
 20
20816.000007
 30
0.0
  0
POINT
  5
49
  8
DEFPOINTS
  6
BYBLOCK
 62
     0
 10
12135.5
 20
20816.000007
 30
0.0
  0
POINT
  5
4A
  8
DEFPOINTS
  6
BYBLOCK
 62
     0
 10
12135.5
 20
20891.82264
 30
0.0
  0
ENDBLK
  5
4C
  8
0
  0
BLOCK
  8
0
  2
*D9
 70
     1
 10
0.0
 20
0.0
 30
0.0
  3
*D9
  1

  0
LINE
  5
B0
  8
0
  6
BYBLOCK
 62
     9
 10
12070.5
 20
20470.0
 30
0.0
 11
12070.5
 21
20363.76135
 31
0.0
  0
LINE
  5
B1
  8
0
  6
BYBLOCK
 62
     9
 10
11920.5
 20
20470.0
 30
0.0
 11
11920.5
 21
20363.76135
 31
0.0
  0
LINE
  5
B2
  8
0
  6
BYBLOCK
 62
     9
 10
12050.5
 20
20364.76135
 30
0.0
 11
12035.5
 21
20364.76135
 31
0.0
  0
LINE
  5
B3
  8
0
  6
BYBLOCK
 62
     9
 10
11940.5
 20
20364.76135
 30
0.0
 11
11955.5
 21
20364.76135
 31
0.0
  0
TEXT
  5
B4
  8
0
  6
BYBLOCK
 62
    11
 10
11962.23622
 20
20347.26135
 30
0.0
 40
35.0
  1
150
  0
SOLID
  5
B5
  8
0
  6
BYBLOCK
 62
     9
 10
12050.5
 20
20368.094683
 30
0.0
 11
12050.5
 21
20361.428017
 31
0.0
 12
12070.5
 22
20364.76135
 32
0.0
 13
12070.5
 23
20364.76135
 33
0.0
  0
SOLID
  5
B6
  8
0
  6
BYBLOCK
 62
     9
 10
11940.5
 20
20368.094683
 30
0.0
 11
11940.5
 21
20361.428017
 31
0.0
 12
11920.5
 22
20364.76135
 32
0.0
 13
11920.5
 23
20364.76135
 33
0.0
  0
POINT
  5
B7
  8
DEFPOINTS
  6
BYBLOCK
 62
     0
 10
12070.5
 20
20480.0
 30
0.0
  0
POINT
  5
B8
  8
DEFPOINTS
  6
BYBLOCK
 62
     0
 10
11920.5
 20
20480.0
 30
0.0
  0
POINT
  5
B9
  8
DEFPOINTS
  6
BYBLOCK
 62
     0
 10
11920.5
 20
20364.76135
 30
0.0
  0
ENDBLK
  5
BB
  8
0
  0
ENDSEC
  0
SECTION
  2
ENTITIES
  0
DIMENSION
  5
20
  8
TEAM-MAS
  2
*D6
 10
200.5
 20
891.82264
 30
0.0
 11
280.366358
 21
891.82264
 31
0.0
 12
-12000.0
 22
-20000.0
 32
0.0
 70
   128
 13
135.5
 23
816.000007
 33
0.0
 14
200.5
 24
816.000007
 34
0.0
1001
ACAD
1000
DSTYLE
1002
{
1070
    40
1040
1.0
1002
}
  0
DIMENSION
  5
30
  8
TEAM-MAS
  2
*D7
 10
-144.6
 20
891.82264
 30
0.0
 11
-263.204987
 21
891.82264
 31
0.0
 12
-12000.0
 22
-20000.0
 32
0.0
 70
   128
  1
<>,5
 13
-189.0
 23
850.000007
 33
0.0
 14
-144.6
 24
816.000007
 34
0.0
1001
ACAD
1000
DSTYLE
1002
{
1070
    40
1040
1.0
1002
}
  0
DIMENSION
  5
3F
  8
TEAM-MAS
  2
*D8
 10
135.5
 20
891.82264
 30
0.0
 11
-4.55
 21
891.82264
 31
0.0
 12
-12000.0
 22
-20000.0
 32
0.0
 13
-144.6
 23
816.000007
 33
0.0
 14
135.5
 24
816.000007
 34
0.0
1001
ACAD
1000
DSTYLE
1002
{
1070
    40
1040
1.0
1002
}
  0
DIMENSION
  5
4D
  8
TEAM-NET
  2
*D5
 10
-189.0
 20
935.962005
 30
0.0
 11
101.0
 21
935.962005
 31
0.0
 12
-12000.0
 22
-20000.0
 32
0.0
 70
   128
 13
391.0
 23
840.434699
 33
0.0
 14
-189.0
 24
840.434699
 34
0.0
1001
ACAD
1000
DSTYLE
1002
{
1002
}
  0
DIMENSION
  5
5C
  8
TEAM-MAS
  2
*D3
 10
529.107697
 20
500.0
 30
0.0
 11
529.107697
 21
675.000004
 31
0.0
 12
-12000.0
 22
-20000.0
 32
0.0
 13
-180.170593
 23
850.000007
 33
0.0
 14
25.5
 24
500.0
 34
0.0
 50
270.0
  0
DIMENSION
  5
6A
  8
TEAM-MAS
  2
*D2
 10
581.856565
 20
0.0
 30
0.0
 11
581.856565
 21
425.000004
 31
0.0
 12
-12000.0
 22
-20000.0
 32
0.0
 13
-180.170593
 23
850.000007
 33
0.0
 14
0.0
 24
0.0
 34
0.0
 50
270.0
  0
DIMENSION
  5
78
  8
TEAM-MAS
  2
*D1
 10
-229.74198
 20
610.000007
 30
0.0
 11
-229.74198
 21
730.000007
 31
0.0
 12
-12000.0
 22
-20000.0
 32
0.0
 13
-180.170593
 23
850.000007
 33
0.0
 14
-189.0
 24
610.000007
 34
0.0
 50
270.0
  0
DIMENSION
  5
86
  8
TEAM-MAS
  2
*D0
 10
479.100142
 20
850.000007
 30
0.0
 11
479.100142
 21
745.942022
 31
0.0
 12
-12000.0
 22
-20000.0
 32
0.0
 70
   128
 13
206.5
 23
810.000007
 33
0.0
 14
-180.170593
 24
850.000007
 34
0.0
 50
270.0
1001
ACAD
1000
DSTYLE
1002
{
1002
}
  0
LINE
  5
95
  8
TEAM-AXE
 10
-4.5
 20
850.000007
 30
0.0
 11
-4.5
 21
460.467445
 31
0.0
210
-0.0
220
-0.0
230
-1.0
  0
POLYLINE
  5
98
  8
TEAM-DET1
 66
     1
 10
0.0
 20
0.0
 30
0.0
 70
     1
  0
VERTEX
  5
154
  8
TEAM-DET1
 10
153.0
 20
770.000007
 30
0.0
  0
VERTEX
  5
155
  8
TEAM-DET1
 10
-162.0
 20
770.000007
 30
0.0
  0
VERTEX
  5
156
  8
TEAM-DET1
 10
-162.0
 20
850.000007
 30
0.0
  0
VERTEX
  5
157
  8
TEAM-DET1
 10
153.0
 20
850.000007
 30
0.0
  0
SEQEND
  5
158
  8
TEAM-DET1
  0
LINE
  5
9A
  8
STANDARDEBENE
 62
     2
 10
391.0
 20
850.000007
 30
0.0
 11
391.0
 21
610.000007
 31
0.0
  0
LINE
  5
9D
  8
TEAM-AXE
 10
216.0
 20
872.665539
 30
0.0
 11
216.0
 21
831.680416
 31
0.0
  0
LINE
  5
9E
  8
TEAM-AXE
 10
-4.5
 20
850.000007
 30
0.0
 11
-4.5
 21
460.467445
 31
0.0
210
-0.0
220
-0.0
230
-1.0
  0
LINE
  5
9F
  8
STANDARDEBENE
 62
     2
 10
-189.0
 20
850.000007
 30
0.0
 11
-189.0
 21
610.000007
 31
0.0
  0
DIMENSION
  5
A0
  8
TEAM-MAS
  2
*D4
 10
529.107697
 20
0.0
 30
0.0
 11
529.107697
 21
250.0
 31
0.0
 12
-12000.0
 22
-20000.0
 32
0.0
 13
25.5
 23
500.0
 33
0.0
 14
0.0
 24
0.0
 34
0.0
 50
270.0
  0
DIMENSION
  5
AE
  8
TEAM-MAS
  2
*D9
 10
-79.5
 20
364.76135
 30
0.0
 11
-4.5
 21
364.76135
 31
0.0
 12
-12000.0
 22
-20000.0
 32
0.0
 70
   128
 13
70.5
 23
480.0
 33
0.0
 14
-79.5
 24
480.0
 34
0.0
  0
LINE
  5
BC
  8
TEAM-AXE
 10
141.5
 20
810.000007
 30
0.0
 11
129.5
 21
810.000007
 31
0.0
  0
LINE
  5
BD
  8
TEAM-AXE
 10
135.5
 20
816.000007
 30
0.0
 11
135.5
 21
804.000007
 31
0.0
  0
CIRCLE
  5
BE
  8
TEAM-HIDE
 10
135.5
 20
810.000007
 30
0.0
 40
5.0
  0
CIRCLE
  5
C1
  8
TEAM-HIDE
 10
200.5
 20
810.000007
 30
0.0
 40
5.0
  0
LINE
  5
C2
  8
TEAM-AXE
 10
200.5
 20
816.000007
 30
0.0
 11
200.5
 21
804.000007
 31
0.0
  0
LINE
  5
C3
  8
TEAM-AXE
 10
206.5
 20
810.000007
 30
0.0
 11
194.5
 21
810.000007
 31
0.0
  0
LINE
  5
C4
  8
TEAM-AXE
 10
-138.6
 20
810.000007
 30
0.0
 11
-150.6
 21
810.000007
 31
0.0
  0
LINE
  5
C5
  8
TEAM-AXE
 10
-144.6
 20
816.000007
 30
0.0
 11
-144.6
 21
804.000007
 31
0.0
  0
CIRCLE
  5
C6
  8
TEAM-HIDE
 10
-144.6
 20
810.000007
 30
0.0
 40
5.0
  0
LINE
  5
C7
  8
TEAM-AXE
 10
25.5
 20
500.0
 30
0.0
 11
-34.5
 21
500.0
 31
0.0
  0
CIRCLE
  5
C8
  8
TEAM-KAN
 10
-4.5
 20
500.0
 30
0.0
 40
20.0
  0
LINE
  5
CA
  8
TEAM-AXE
 10
25.5
 20
500.0
 30
0.0
 11
-34.5
 21
500.0
 31
0.0
  0
CIRCLE
  5
CB
  8
TEAM-KAN
 10
-4.5
 20
500.0
 30
0.0
 40
20.0
  0
LINE
  5
CC
  8
TEAM-AXE
 10
141.5
 20
640.000007
 30
0.0
 11
129.5
 21
640.000007
 31
0.0
  0
LINE
  5
CD
  8
TEAM-AXE
 10
135.5
 20
646.000007
 30
0.0
 11
135.5
 21
634.000007
 31
0.0
  0
CIRCLE
  5
CE
  8
TEAM-HIDE
 10
135.5
 20
640.000007
 30
0.0
 40
5.0
  0
LINE
  5
CF
  8
TEAM-AXE
 10
70.5
 20
520.0
 30
0.0
 11
70.5
 21
480.0
 31
0.0
210
-0.0
220
-0.0
230
-1.0
  0
LINE
  5
D0
  8
TEAM-AXE
 10
90.5
 20
500.0
 30
0.0
 11
50.5
 21
500.0
 31
0.0
  0
LINE
  5
D1
  8
TEAM-AXE
 10
-79.5
 20
520.0
 30
0.0
 11
-79.5
 21
480.0
 31
0.0
210
-0.0
220
-0.0
230
-1.0
  0
LINE
  5
D2
  8
TEAM-AXE
 10
-59.5
 20
500.0
 30
0.0
 11
-99.5
 21
500.0
 31
0.0
  0
CIRCLE
  5
D3
  8
TEAM-COLD
 10
70.5
 20
500.0
 30
0.0
 40
10.0
  0
CIRCLE
  5
D5
  8
TEAM-WARM
 10
-79.5
 20
500.0
 30
0.0
 40
10.0
  0
POLYLINE
  5
D7
  8
TEAM-HIDE
 66
     1
 10
0.0
 20
0.0
 30
0.0
 70
     1
  0
VERTEX
  5
159
  8
TEAM-HIDE
 10
110.0
 20
635.000007
 30
0.0
  0
VERTEX
  5
15A
  8
TEAM-HIDE
 10
-119.0
 20
635.000007
 30
0.0
  0
VERTEX
  5
15B
  8
TEAM-HIDE
 10
-119.0
 20
765.000007
 30
0.0
  0
VERTEX
  5
15C
  8
TEAM-HIDE
 10
110.0
 20
765.000007
 30
0.0
  0
SEQEND
  5
15D
  8
TEAM-HIDE
  0
LINE
  5
D8
  8
STANDARDEBENE
 62
     2
 10
391.0
 20
610.000007
 30
0.0
 11
-189.0
 21
610.000007
 31
0.0
  0
POLYLINE
  5
D9
  8
TEAM-HIDE
 66
     1
 10
0.0
 20
0.0
 30
0.0
 70
     1
  0
VERTEX
  5
15E
  8
TEAM-HIDE
 10
391.0
 20
635.000007
 30
0.0
  0
VERTEX
  5
15F
  8
TEAM-HIDE
 10
251.0
 20
635.000007
 30
0.0
  0
VERTEX
  5
160
  8
TEAM-HIDE
 10
251.0
 20
825.000007
 30
0.0
  0
VERTEX
  5
161
  8
TEAM-HIDE
 10
391.0
 20
825.000007
 30
0.0
  0
SEQEND
  5
162
  8
TEAM-HIDE
  0
TEXT
  5
DA
  8
TEAM-TXT
 10
104.224306
 20
651.52355
 30
0.0
 40
30.0
  1
team 217076
 41
0.8
 51
15.0
  7
TEAM
  0
POLYLINE
  5
DD
  8
TEAM-DET1
 66
     1
 10
0.0
 20
0.0
 30
0.0
 70
     1
  0
VERTEX
  5
163
  8
TEAM-DET1
 10
20.5
 20
755.000007
 30
0.0
  0
VERTEX
  5
164
  8
TEAM-DET1
 10
-29.5
 20
755.000007
 30
0.0
  0
VERTEX
  5
165
  8
TEAM-DET1
 10
-29.5
 20
770.000007
 30
0.0
  0
VERTEX
  5
166
  8
TEAM-DET1
 10
20.5
 20
770.000007
 30
0.0
  0
SEQEND
  5
167
  8
TEAM-DET1
  0
LINE
  5
DE
  8
TEAM-DET1
 10
391.0
 20
825.000007
 30
0.0
 11
431.0
 21
825.000007
 31
0.0
  0
LINE
  5
DF
  8
TEAM-DET1
 10
431.0
 20
825.000007
 30
0.0
 11
431.0
 21
775.000007
 31
0.0
  0
LINE
  5
E0
  8
TEAM-DET1
 10
431.0
 20
775.000007
 30
0.0
 11
436.0
 21
775.000007
 31
0.0
  0
LINE
  5
E1
  8
TEAM-DET1
 10
436.0
 20
775.000007
 30
0.0
 11
436.0
 21
825.000007
 31
0.0
  0
LINE
  5
E2
  8
TEAM-DET1
 10
436.0
 20
825.000007
 30
0.0
 11
431.0
 21
825.000007
 31
0.0
  0
LINE
  5
E3
  8
TEAM-DET1
 10
431.0
 20
775.000007
 30
0.0
 11
391.0
 21
775.000007
 31
0.0
  0
CIRCLE
  5
E4
  8
TEAM-INSP
 10
0.0
 20
0.0
 30
0.0
 40
10.0
  0
LINE
  5
E6
  8
STANDARDEBENE
 62
     2
 10
391.0
 20
850.000007
 30
0.0
 11
-189.0
 21
850.000007
 31
0.0
  0
ENDSEC
  0
EOF
