  0
SECTION
  2
HEADER
  9
$ACADVER
  1
AC1009
  9
$INSBASE
 10
0.0
 20
0.0
 30
0.0
  9
$EXTMIN
 10
-650.108838
 20
-554.801171
 30
0.0
  9
$EXTMAX
 10
792.8352
 20
75.662545
 30
0.0
  9
$LIMMIN
 10
-650.108838
 20
-554.801171
  9
$LIMMAX
 10
792.8352
 20
75.662545
  9
$ORTHOMODE
 70
     1
  9
$REGENMODE
 70
     1
  9
$FILLMODE
 70
     1
  9
$QTEXTMODE
 70
     0
  9
$MIRRTEXT
 70
     0
  9
$DRAGMODE
 70
     2
  9
$LTSCALE
 40
25.0
  9
$OSMODE
 70
     0
  9
$ATTMODE
 70
     1
  9
$TEXTSIZE
 40
200.0
  9
$TRACEWID
 40
1.0
  9
$TEXTSTYLE
  7
STANDARD
  9
$CLAYER
  8
TEAM-MAS
  9
$CELTYPE
  6
BYLAYER
  9
$CECOLOR
 62
   256
  9
$DIMSCALE
 40
0.0
  9
$DIMASZ
 40
20.0
  9
$DIMEXO
 40
10.0
  9
$DIMDLI
 40
1.0
  9
$DIMRND
 40
0.0
  9
$DIMDLE
 40
0.0
  9
$DIMEXE
 40
1.0
  9
$DIMTP
 40
0.0
  9
$DIMTM
 40
0.0
  9
$DIMTXT
 40
35.0
  9
$DIMCEN
 40
1.0
  9
$DIMTSZ
 40
0.0
  9
$DIMTOL
 70
     0
  9
$DIMLIM
 70
     0
  9
$DIMTIH
 70
     0
  9
$DIMTOH
 70
     0
  9
$DIMSE1
 70
     0
  9
$DIMSE2
 70
     0
  9
$DIMTAD
 70
     0
  9
$DIMZIN
 70
     0
  9
$DIMBLK
  1

  9
$DIMASO
 70
     1
  9
$DIMSHO
 70
     0
  9
$DIMPOST
  1

  9
$DIMAPOST
  1

  9
$DIMALT
 70
     0
  9
$DIMALTD
 70
     2
  9
$DIMALTF
 40
25.4
  9
$DIMLFAC
 40
1.0
  9
$DIMTOFL
 70
     0
  9
$DIMTVP
 40
0.0
  9
$DIMTIX
 70
     0
  9
$DIMSOXD
 70
     0
  9
$DIMSAH
 70
     0
  9
$DIMBLK1
  1

  9
$DIMBLK2
  1

  9
$DIMSTYLE
  2
TEAM
  9
$DIMCLRD
 70
     9
  9
$DIMCLRE
 70
     9
  9
$DIMCLRT
 70
    11
  9
$DIMTFAC
 40
1.0
  9
$DIMGAP
 40
15.0
  9
$LUNITS
 70
     2
  9
$LUPREC
 70
     1
  9
$SKETCHINC
 40
1.0
  9
$FILLETRAD
 40
50.0
  9
$AUNITS
 70
     0
  9
$AUPREC
 70
     0
  9
$MENU
  1
ROPLANS
  9
$ELEVATION
 40
0.0
  9
$PELEVATION
 40
0.0
  9
$THICKNESS
 40
0.0
  9
$LIMCHECK
 70
     0
  9
$BLIPMODE
 70
     1
  9
$CHAMFERA
 40
0.0
  9
$CHAMFERB
 40
0.0
  9
$SKPOLY
 70
     0
  9
$TDCREATE
 40
2450392.957851
  9
$TDUPDATE
 40
2455498.928866
  9
$TDINDWG
 40
2.020593
  9
$TDUSRTIMER
 40
2.020593
  9
$USRTIMER
 70
     1
  9
$ANGBASE
 50
0.0
  9
$ANGDIR
 70
     0
  9
$PDMODE
 70
     0
  9
$PDSIZE
 40
0.0
  9
$PLINEWID
 40
0.0
  9
$COORDS
 70
     2
  9
$SPLFRAME
 70
     0
  9
$SPLINETYPE
 70
     6
  9
$SPLINESEGS
 70
     8
  9
$ATTDIA
 70
     0
  9
$ATTREQ
 70
     0
  9
$HANDLING
 70
     1
  9
$HANDSEED
  5
17A
  9
$SURFTAB1
 70
    24
  9
$SURFTAB2
 70
    24
  9
$SURFTYPE
 70
     6
  9
$SURFU
 70
     6
  9
$SURFV
 70
     6
  9
$UCSNAME
  2

  9
$UCSORG
 10
0.0
 20
0.0
 30
0.0
  9
$UCSXDIR
 10
1.0
 20
0.0
 30
0.0
  9
$UCSYDIR
 10
0.0
 20
1.0
 30
0.0
  9
$PUCSNAME
  2

  9
$PUCSORG
 10
0.0
 20
0.0
 30
0.0
  9
$PUCSXDIR
 10
1.0
 20
0.0
 30
0.0
  9
$PUCSYDIR
 10
0.0
 20
1.0
 30
0.0
  9
$USERI1
 70
     0
  9
$USERI2
 70
     0
  9
$USERI3
 70
     0
  9
$USERI4
 70
     0
  9
$USERI5
 70
     0
  9
$USERR1
 40
0.0
  9
$USERR2
 40
0.0
  9
$USERR3
 40
0.0
  9
$USERR4
 40
0.0
  9
$USERR5
 40
0.0
  9
$WORLDVIEW
 70
     1
  9
$SHADEDGE
 70
     0
  9
$SHADEDIF
 70
    70
  9
$TILEMODE
 70
     1
  9
$MAXACTVP
 70
    16
  9
$PLIMCHECK
 70
     0
  9
$PEXTMIN
 10
-0.805942
 20
0.005011
 30
0.0
  9
$PEXTMAX
 10
20.250094
 20
11.356329
 30
0.0
  9
$PLIMMIN
 10
0.0
 20
0.0
  9
$PLIMMAX
 10
12.0
 20
9.0
  9
$UNITMODE
 70
     0
  9
$VISRETAIN
 70
     0
  9
$PLINEGEN
 70
     0
  9
$PSLTSCALE
 70
     0
  0
ENDSEC
  0
SECTION
  2
TABLES
  0
TABLE
  2
VPORT
 70
     2
  0
VPORT
  2
*ACTIVE
 70
     0
 10
0.0
 20
0.0
 11
1.0
 21
1.0
 12
71.363181
 22
-239.569313
 13
0.0
 23
0.0
 14
1.0
 24
1.0
 15
50.0
 25
50.0
 16
0.0
 26
0.0
 36
1.0
 17
0.0
 27
0.0
 37
0.0
 40
775.919206
 41
1.865779
 42
50.0
 43
0.0
 44
0.0
 50
0.0
 51
0.0
 71
     0
 72
   100
 73
     1
 74
     1
 75
     0
 76
     0
 77
     0
 78
     0
  0
ENDTAB
  0
TABLE
  2
LTYPE
 70
     2
  0
LTYPE
  2
CONTINUOUS
 70
     0
  3
Solid Line
 72
    65
 73
     0
 40
0.0
  0
LTYPE
  2
31
 70
     0
  3

 72
    65
 73
     4
 40
2.1
 49
1.5
 49
-0.3
 49
0.0
 49
-0.3
  0
ENDTAB
  0
TABLE
  2
LAYER
 70
     8
  0
LAYER
  2
0
 70
     0
 62
     7
  6
CONTINUOUS
  0
LAYER
  2
DEFPOINTS
 70
     0
 62
     7
  6
CONTINUOUS
  0
LAYER
  2
TEAM-BODY
 70
     0
 62
     2
  6
CONTINUOUS
  0
LAYER
  2
TEAM-AXE
 70
     0
 62
    10
  6
31
  0
LAYER
  2
TEAM-MAS
 70
     0
 62
     9
  6
CONTINUOUS
  0
LAYER
  2
TEAM-TXT
 70
     0
 62
    11
  6
CONTINUOUS
  0
LAYER
  2
TEAM-DET1
 70
     0
 62
     4
  6
CONTINUOUS
  0
LAYER
  2
TEAM-INSP
 70
     0
 62
     5
  6
CONTINUOUS
  0
ENDTAB
  0
TABLE
  2
STYLE
 70
     2
  0
STYLE
  2
STANDARD
 70
     0
 40
0.0
 41
1.0
 50
0.0
 71
     0
 42
200.0
  3
txt
  4

  0
STYLE
  2
TEAM
 70
     0
 40
0.0
 41
0.8
 50
15.0
 71
     0
 42
7.0
  3
ROMANS.shx
  4

  0
ENDTAB
  0
TABLE
  2
VIEW
 70
     0
  0
ENDTAB
  0
TABLE
  2
UCS
 70
     0
  0
ENDTAB
  0
TABLE
  2
APPID
 70
     1
  0
APPID
  2
ACAD
 70
     0
  0
ENDTAB
  0
TABLE
  2
DIMSTYLE
 70
     1
  0
DIMSTYLE
  2
TEAM
 70
     0
  3

  4

  5

  6

  7

 40
0.0
 41
20.0
 42
10.0
 43
1.0
 44
1.0
 45
0.0
 46
0.0
 47
0.0
 48
0.0
140
35.0
141
1.0
142
0.0
143
25.4
144
1.0
145
0.0
146
1.0
147
15.0
 71
     0
 72
     0
 73
     0
 74
     0
 75
     0
 76
     0
 77
     0
 78
     0
170
     0
171
     2
172
     0
173
     0
174
     0
175
     0
176
     9
177
     9
178
    11
  0
ENDTAB
  0
ENDSEC
  0
SECTION
  2
BLOCKS
  0
BLOCK
  8
0
  2
$MODEL_SPACE
 70
     0
 10
0.0
 20
0.0
 30
0.0
  3
$MODEL_SPACE
  1

  0
ENDBLK
  5
155
  8
0
  0
BLOCK
 67
     1
  8
0
  2
$PAPER_SPACE
 70
     0
 10
0.0
 20
0.0
 30
0.0
  3
$PAPER_SPACE
  1

  0
ENDBLK
  5
153
 67
     1
  8
0
  0
BLOCK
  8
0
  2
*D0
 70
     1
 10
0.0
 20
0.0
 30
0.0
  3
*D0
  1

  0
LINE
  5
54
  8
0
  6
BYBLOCK
 62
     9
 10
8250.0
 20
307979.413323
 30
0.0
 11
8250.0
 21
308060.875156
 31
0.0
  0
LINE
  5
55
  8
0
  6
BYBLOCK
 62
     9
 10
7750.0
 20
307979.413323
 30
0.0
 11
7750.0
 21
308060.875156
 31
0.0
  0
LINE
  5
56
  8
0
  6
BYBLOCK
 62
     9
 10
8230.0
 20
308059.875156
 30
0.0
 11
8046.51378
 21
308059.875156
 31
0.0
  0
LINE
  5
57
  8
0
  6
BYBLOCK
 62
     9
 10
7770.0
 20
308059.875156
 30
0.0
 11
7953.48622
 21
308059.875156
 31
0.0
  0
SOLID
  5
58
  8
0
  6
BYBLOCK
 62
     9
 10
8230.0
 20
308063.208489
 30
0.0
 11
8230.0
 21
308056.541823
 31
0.0
 12
8250.0
 22
308059.875156
 32
0.0
 13
8250.0
 23
308059.875156
 33
0.0
  0
SOLID
  5
59
  8
0
  6
BYBLOCK
 62
     9
 10
7770.0
 20
308063.208489
 30
0.0
 11
7770.0
 21
308056.541823
 31
0.0
 12
7750.0
 22
308059.875156
 32
0.0
 13
7750.0
 23
308059.875156
 33
0.0
  0
TEXT
  5
5A
  8
0
  6
BYBLOCK
 62
    11
 10
7963.23622
 20
308042.375156
 30
0.0
 40
35.0
  1
500
  0
POINT
  5
5B
  8
DEFPOINTS
  6
BYBLOCK
 62
     0
 10
8250.0
 20
307969.413323
 30
0.0
  0
POINT
  5
5C
  8
DEFPOINTS
  6
BYBLOCK
 62
     0
 10
7750.0
 20
307969.413323
 30
0.0
  0
POINT
  5
5D
  8
DEFPOINTS
  6
BYBLOCK
 62
     0
 10
7750.0
 20
308059.875156
 30
0.0
  0
ENDBLK
  5
5F
  8
0
  0
BLOCK
  8
0
  2
*D1
 70
     1
 10
0.0
 20
0.0
 30
0.0
  3
*D1
  1

  0
LINE
  5
46
  8
0
  6
BYBLOCK
 62
     9
 10
7350.0
 20
307515.0
 30
0.0
 11
7350.0
 21
307461.420109
 31
0.0
  0
LINE
  5
47
  8
0
  6
BYBLOCK
 62
     9
 10
8650.0
 20
307515.0
 30
0.0
 11
8650.0
 21
307461.420109
 31
0.0
  0
LINE
  5
48
  8
0
  6
BYBLOCK
 62
     9
 10
7370.0
 20
307462.420109
 30
0.0
 11
7944.73622
 21
307462.420109
 31
0.0
  0
LINE
  5
49
  8
0
  6
BYBLOCK
 62
     9
 10
8630.0
 20
307462.420109
 30
0.0
 11
8055.26378
 21
307462.420109
 31
0.0
  0
SOLID
  5
4A
  8
0
  6
BYBLOCK
 62
     9
 10
7370.0
 20
307465.753442
 30
0.0
 11
7370.0
 21
307459.086776
 31
0.0
 12
7350.0
 22
307462.420109
 32
0.0
 13
7350.0
 23
307462.420109
 33
0.0
  0
SOLID
  5
4B
  8
0
  6
BYBLOCK
 62
     9
 10
8630.0
 20
307465.753442
 30
0.0
 11
8630.0
 21
307459.086776
 31
0.0
 12
8650.0
 22
307462.420109
 32
0.0
 13
8650.0
 23
307462.420109
 33
0.0
  0
TEXT
  5
4C
  8
0
  6
BYBLOCK
 62
    11
 10
7954.48622
 20
307444.920109
 30
0.0
 40
35.0
  1
1300
  0
POINT
  5
4D
  8
DEFPOINTS
  6
BYBLOCK
 62
     0
 10
7350.0
 20
307525.0
 30
0.0
  0
POINT
  5
4E
  8
DEFPOINTS
  6
BYBLOCK
 62
     0
 10
8650.0
 20
307525.0
 30
0.0
  0
POINT
  5
4F
  8
DEFPOINTS
  6
BYBLOCK
 62
     0
 10
8650.0
 20
307462.420109
 30
0.0
  0
ENDBLK
  5
51
  8
0
  0
BLOCK
  8
0
  2
*D2
 70
     1
 10
0.0
 20
0.0
 30
0.0
  3
*D2
  1

  0
LINE
  5
38
  8
0
  6
BYBLOCK
 62
     9
 10
8660.0
 20
308000.0
 30
0.0
 11
8717.53641
 21
308000.0
 31
0.0
  0
LINE
  5
39
  8
0
  6
BYBLOCK
 62
     9
 10
8050.0
 20
307780.0
 30
0.0
 11
8717.53641
 21
307780.0
 31
0.0
  0
LINE
  5
3A
  8
0
  6
BYBLOCK
 62
     9
 10
8716.53641
 20
307980.0
 30
0.0
 11
8716.53641
 21
307936.958169
 31
0.0
  0
LINE
  5
3B
  8
0
  6
BYBLOCK
 62
     9
 10
8716.53641
 20
307800.0
 30
0.0
 11
8716.53641
 21
307843.041831
 31
0.0
  0
SOLID
  5
3C
  8
0
  6
BYBLOCK
 62
     9
 10
8713.203077
 20
307980.0
 30
0.0
 11
8719.869744
 21
307980.0
 31
0.0
 12
8716.53641
 22
308000.0
 32
0.0
 13
8716.53641
 23
308000.0
 33
0.0
  0
SOLID
  5
3D
  8
0
  6
BYBLOCK
 62
     9
 10
8713.203077
 20
307800.0
 30
0.0
 11
8719.869744
 21
307800.0
 31
0.0
 12
8716.53641
 22
307780.0
 32
0.0
 13
8716.53641
 23
307780.0
 33
0.0
  0
TEXT
  5
3E
  8
0
  6
BYBLOCK
 62
    11
 10
8734.03641
 20
307853.68061
 30
0.0
 40
35.0
  1
220
 50
90.0
  0
POINT
  5
3F
  8
DEFPOINTS
  6
BYBLOCK
 62
     0
 10
8650.0
 20
308000.0
 30
0.0
  0
POINT
  5
40
  8
DEFPOINTS
  6
BYBLOCK
 62
     0
 10
8040.0
 20
307780.0
 30
0.0
  0
POINT
  5
41
  8
DEFPOINTS
  6
BYBLOCK
 62
     0
 10
8716.53641
 20
307780.0
 30
0.0
  0
ENDBLK
  5
43
  8
0
  0
BLOCK
  8
0
  2
*D3
 70
     1
 10
0.0
 20
0.0
 30
0.0
  3
*D3
  1

  0
LINE
  5
29
  8
0
  6
BYBLOCK
 62
     9
 10
8660.0
 20
307525.0
 30
0.0
 11
8776.584976
 21
307525.0
 31
0.0
  0
LINE
  5
2A
  8
0
  6
BYBLOCK
 62
     9
 10
8010.0
 20
308000.0
 30
0.0
 11
8776.584976
 21
308000.0
 31
0.0
  0
LINE
  5
2B
  8
0
  6
BYBLOCK
 62
     9
 10
8775.584976
 20
307545.0
 30
0.0
 11
8775.584976
 21
307713.525126
 31
0.0
  0
LINE
  5
2C
  8
0
  6
BYBLOCK
 62
     9
 10
8775.584976
 20
307980.0
 30
0.0
 11
8775.584976
 21
307811.474874
 31
0.0
  0
SOLID
  5
2D
  8
0
  6
BYBLOCK
 62
     9
 10
8772.251642
 20
307545.0
 30
0.0
 11
8778.918309
 21
307545.0
 31
0.0
 12
8775.584976
 22
307525.0
 32
0.0
 13
8775.584976
 23
307525.0
 33
0.0
  0
SOLID
  5
2E
  8
0
  6
BYBLOCK
 62
     9
 10
8772.251642
 20
307980.0
 30
0.0
 11
8778.918309
 21
307980.0
 31
0.0
 12
8775.584976
 22
308000.0
 32
0.0
 13
8775.584976
 23
308000.0
 33
0.0
  0
TEXT
  5
2F
  8
0
  6
BYBLOCK
 62
    11
 10
8793.084976
 20
307723.275126
 30
0.0
 40
35.0
  1
475
 50
90.0
  0
POINT
  5
30
  8
DEFPOINTS
  6
BYBLOCK
 62
     0
 10
8650.0
 20
307525.0
 30
0.0
  0
POINT
  5
32
  8
DEFPOINTS
  6
BYBLOCK
 62
     0
 10
8000.0
 20
308000.0
 30
0.0
  0
POINT
  5
33
  8
DEFPOINTS
  6
BYBLOCK
 62
     0
 10
8775.584976
 20
308000.0
 30
0.0
  0
ENDBLK
  5
35
  8
0
  0
ENDSEC
  0
SECTION
  2
ENTITIES
  0
TEXT
  5
20
  8
TEAM-TXT
 10
-108.836879
 20
-373.287499
 30
0.0
 40
30.0
  1
team 217318
 41
0.8
 51
15.0
  7
TEAM
  0
POLYLINE
  5
23
  8
TEAM-BODY
 66
     1
 10
0.0
 20
0.0
 30
0.0
  0
VERTEX
  5
15B
  8
TEAM-BODY
 10
0.0
 20
-475.0
 30
0.0
  0
VERTEX
  5
15C
  8
TEAM-BODY
 10
650.0
 20
-475.0
 30
0.0
  0
VERTEX
  5
15D
  8
TEAM-BODY
 10
650.0
 20
0.0
 30
0.0
  0
VERTEX
  5
15E
  8
TEAM-BODY
 10
0.0
 20
0.0
 30
0.0
  0
SEQEND
  5
15F
  8
TEAM-BODY
  0
POLYLINE
  5
25
  8
TEAM-BODY
 66
     1
 10
0.0
 20
0.0
 30
0.0
  0
VERTEX
  5
160
  8
TEAM-BODY
 10
0.0
 20
-95.0
 30
0.0
  0
VERTEX
  5
161
  8
TEAM-BODY
 10
513.0
 20
-95.0
 30
0.0
  0
VERTEX
  5
162
  8
TEAM-BODY
 10
513.0
 20
-455.0
 30
0.0
  0
VERTEX
  5
163
  8
TEAM-BODY
 10
0.0
 20
-455.0
 30
0.0
  0
SEQEND
  5
164
  8
TEAM-BODY
  0
POLYLINE
  5
26
  8
TEAM-BODY
 66
     1
 10
0.0
 20
0.0
 30
0.0
  0
VERTEX
  5
165
  8
TEAM-BODY
 10
0.0
 20
-268.0
 30
0.0
  0
VERTEX
  5
166
  8
TEAM-BODY
 10
479.0
 20
-268.0
 30
0.0
  0
VERTEX
  5
167
  8
TEAM-BODY
 10
479.0
 20
-175.0
 30
0.0
  0
VERTEX
  5
168
  8
TEAM-BODY
 10
0.0
 20
-175.0
 30
0.0
  0
SEQEND
  5
169
  8
TEAM-BODY
  0
DIMENSION
  5
27
  8
TEAM-MAS
  2
*D3
 10
775.584976
 20
0.0
 30
0.0
 11
775.584976
 21
-237.5
 31
0.0
 12
-8000.0
 22
-308000.0
 32
0.0
 13
650.0
 23
-475.0
 33
0.0
 14
0.0
 24
0.0
 34
0.0
 50
90.0
1001
ACAD
1000
DSTYLE
1002
{
1070
    40
1040
1.0
1002
}
  0
DIMENSION
  5
36
  8
TEAM-MAS
  2
*D2
 10
716.53641
 20
-220.0
 30
0.0
 11
716.53641
 21
-110.0
 31
0.0
 12
-8000.0
 22
-308000.0
 32
0.0
 13
650.0
 23
0.0
 33
0.0
 14
40.0
 24
-220.0
 34
0.0
 50
90.0
1001
ACAD
1000
DSTYLE
1002
{
1070
    40
1040
1.0
1002
}
  0
DIMENSION
  5
44
  8
TEAM-MAS
  2
*D1
 10
650.0
 20
-537.579891
 30
0.0
 11
0.0
 21
-537.579891
 31
0.0
 12
-8000.0
 22
-308000.0
 32
0.0
 13
-650.0
 23
-475.0
 33
0.0
 14
650.0
 24
-475.0
 34
0.0
1001
ACAD
1000
DSTYLE
1002
{
1070
    40
1040
1.0
1002
}
  0
DIMENSION
  5
52
  8
TEAM-MAS
  2
*D0
 10
-250.0
 20
59.875156
 30
0.0
 11
0.0
 21
59.875156
 31
0.0
 12
-8000.0
 22
-308000.0
 32
0.0
 13
250.0
 23
-30.586677
 33
0.0
 14
-250.0
 24
-30.586677
 34
0.0
1001
ACAD
1000
DSTYLE
1002
{
1070
    40
1040
1.0
1002
}
  0
CIRCLE
  5
60
  8
TEAM-INSP
 10
0.0
 20
0.0
 30
0.0
 40
10.0
  0
LINE
  5
62
  8
TEAM-AXE
 10
-40.0
 20
-220.0
 30
0.0
 11
40.0
 21
-220.0
 31
0.0
  0
LINE
  5
65
  8
TEAM-AXE
 10
0.0
 20
-260.0
 30
0.0
 11
0.0
 21
-180.0
 31
0.0
  0
CIRCLE
  5
66
  8
TEAM-BODY
 10
0.0
 20
-220.0
 30
0.0
 40
23.0
  0
CIRCLE
  5
67
  8
TEAM-DET1
 10
-250.0
 20
-50.586677
 30
0.0
 40
18.0
  0
LINE
  5
69
  8
TEAM-AXE
 10
-270.0
 20
-50.586677
 30
0.0
 11
-230.0
 21
-50.586677
 31
0.0
  0
LINE
  5
6A
  8
TEAM-AXE
 10
-250.0
 20
-70.586677
 30
0.0
 11
-250.0
 21
-30.586677
 31
0.0
  0
LINE
  5
6B
  8
TEAM-BODY
 10
-479.0
 20
-175.0
 30
0.0
 11
-513.0
 21
-95.0
 31
0.0
  0
LINE
  5
6C
  8
TEAM-BODY
 10
-495.0
 20
-138.764706
 30
0.0
 11
-495.0
 21
-396.238286
 31
0.0
  0
ARC
  5
6D
  8
TEAM-BODY
 10
-1061.673163
 20
-258.650334
 30
0.0
 40
582.748171
 50
340.309605
 51
359.080702
  0
POLYLINE
  5
6E
  8
TEAM-BODY
 66
     1
 10
0.0
 20
0.0
 30
0.0
  0
VERTEX
  5
16A
  8
TEAM-BODY
 10
0.0
 20
-475.0
 30
0.0
  0
VERTEX
  5
16B
  8
TEAM-BODY
 10
-650.0
 20
-475.0
 30
0.0
  0
VERTEX
  5
16C
  8
TEAM-BODY
 10
-650.0
 20
0.0
 30
0.0
  0
VERTEX
  5
16D
  8
TEAM-BODY
 10
0.0
 20
0.0
 30
0.0
  0
SEQEND
  5
16E
  8
TEAM-BODY
  0
POLYLINE
  5
6F
  8
TEAM-BODY
 66
     1
 10
0.0
 20
0.0
 30
0.0
  0
VERTEX
  5
16F
  8
TEAM-BODY
 10
0.0
 20
-95.0
 30
0.0
  0
VERTEX
  5
170
  8
TEAM-BODY
 10
-513.0
 20
-95.0
 30
0.0
  0
VERTEX
  5
171
  8
TEAM-BODY
 10
-513.0
 20
-455.0
 30
0.0
  0
VERTEX
  5
172
  8
TEAM-BODY
 10
0.0
 20
-455.0
 30
0.0
  0
SEQEND
  5
173
  8
TEAM-BODY
  0
POLYLINE
  5
70
  8
TEAM-BODY
 66
     1
 10
0.0
 20
0.0
 30
0.0
  0
VERTEX
  5
174
  8
TEAM-BODY
 10
0.0
 20
-268.0
 30
0.0
  0
VERTEX
  5
175
  8
TEAM-BODY
 10
-479.0
 20
-268.0
 30
0.0
  0
VERTEX
  5
176
  8
TEAM-BODY
 10
-479.0
 20
-175.0
 30
0.0
  0
VERTEX
  5
177
  8
TEAM-BODY
 10
0.0
 20
-175.0
 30
0.0
  0
SEQEND
  5
178
  8
TEAM-BODY
  0
CIRCLE
  5
71
  8
TEAM-DET1
 10
250.0
 20
-50.586677
 30
0.0
 40
18.0
  0
LINE
  5
72
  8
TEAM-AXE
 10
230.0
 20
-50.586677
 30
0.0
 11
270.0
 21
-50.586677
 31
0.0
  0
LINE
  5
73
  8
TEAM-AXE
 10
250.0
 20
-70.586677
 30
0.0
 11
250.0
 21
-30.586677
 31
0.0
  0
LINE
  5
74
  8
TEAM-BODY
 10
479.0
 20
-175.0
 30
0.0
 11
513.0
 21
-95.0
 31
0.0
  0
LINE
  5
75
  8
TEAM-BODY
 10
495.0
 20
-138.764706
 30
0.0
 11
495.0
 21
-396.238286
 31
0.0
  0
ARC
  5
76
  8
TEAM-BODY
 10
1061.673163
 20
-258.650334
 30
0.0
 40
582.748171
 50
180.919298
 51
199.690395
  0
ENDSEC
  0
EOF
