  0
SECTION
  2
HEADER
  9
$ACADVER
  1
AC1009
  9
$INSBASE
 10
0.0
 20
0.0
 30
0.0
  9
$EXTMIN
 10
-756.724205
 20
-10.052852
 30
-10.001697
  9
$EXTMAX
 10
959.06945
 20
970.431376
 30
30.001854
  9
$LIMMIN
 10
-756.724205
 20
-10.052852
  9
$LIMMAX
 10
959.06945
 20
970.431376
  9
$ORTHOMODE
 70
     1
  9
$REGENMODE
 70
     1
  9
$FILLMODE
 70
     1
  9
$QTEXTMODE
 70
     0
  9
$MIRRTEXT
 70
     0
  9
$DRAGMODE
 70
     2
  9
$LTSCALE
 40
25.0
  9
$OSMODE
 70
     0
  9
$ATTMODE
 70
     1
  9
$TEXTSIZE
 40
200.0
  9
$TRACEWID
 40
1.0
  9
$TEXTSTYLE
  7
STANDARD
  9
$CLAYER
  8
TEAM-MAS
  9
$CELTYPE
  6
BYLAYER
  9
$CECOLOR
 62
   256
  9
$DIMSCALE
 40
0.0
  9
$DIMASZ
 40
20.0
  9
$DIMEXO
 40
10.0
  9
$DIMDLI
 40
1.0
  9
$DIMRND
 40
0.0
  9
$DIMDLE
 40
0.0
  9
$DIMEXE
 40
1.0
  9
$DIMTP
 40
0.0
  9
$DIMTM
 40
0.0
  9
$DIMTXT
 40
35.0
  9
$DIMCEN
 40
1.0
  9
$DIMTSZ
 40
0.0
  9
$DIMTOL
 70
     0
  9
$DIMLIM
 70
     0
  9
$DIMTIH
 70
     0
  9
$DIMTOH
 70
     0
  9
$DIMSE1
 70
     0
  9
$DIMSE2
 70
     0
  9
$DIMTAD
 70
     0
  9
$DIMZIN
 70
     0
  9
$DIMBLK
  1

  9
$DIMASO
 70
     1
  9
$DIMSHO
 70
     0
  9
$DIMPOST
  1

  9
$DIMAPOST
  1

  9
$DIMALT
 70
     0
  9
$DIMALTD
 70
     2
  9
$DIMALTF
 40
25.4
  9
$DIMLFAC
 40
1.0
  9
$DIMTOFL
 70
     0
  9
$DIMTVP
 40
0.0
  9
$DIMTIX
 70
     0
  9
$DIMSOXD
 70
     0
  9
$DIMSAH
 70
     0
  9
$DIMBLK1
  1

  9
$DIMBLK2
  1

  9
$DIMSTYLE
  2
TEAM
  9
$DIMCLRD
 70
     9
  9
$DIMCLRE
 70
     9
  9
$DIMCLRT
 70
    11
  9
$DIMTFAC
 40
1.0
  9
$DIMGAP
 40
15.0
  9
$LUNITS
 70
     2
  9
$LUPREC
 70
     1
  9
$SKETCHINC
 40
1.0
  9
$FILLETRAD
 40
50.0
  9
$AUNITS
 70
     0
  9
$AUPREC
 70
     0
  9
$MENU
  1
ROPLANS
  9
$ELEVATION
 40
0.0
  9
$PELEVATION
 40
0.0
  9
$THICKNESS
 40
0.0
  9
$LIMCHECK
 70
     0
  9
$BLIPMODE
 70
     1
  9
$CHAMFERA
 40
0.0
  9
$CHAMFERB
 40
0.0
  9
$SKPOLY
 70
     0
  9
$TDCREATE
 40
2450392.957851
  9
$TDUPDATE
 40
2455498.928866
  9
$TDINDWG
 40
2.020593
  9
$TDUSRTIMER
 40
2.020593
  9
$USRTIMER
 70
     1
  9
$ANGBASE
 50
0.0
  9
$ANGDIR
 70
     0
  9
$PDMODE
 70
     0
  9
$PDSIZE
 40
0.0
  9
$PLINEWID
 40
0.0
  9
$COORDS
 70
     2
  9
$SPLFRAME
 70
     0
  9
$SPLINETYPE
 70
     6
  9
$SPLINESEGS
 70
     8
  9
$ATTDIA
 70
     0
  9
$ATTREQ
 70
     0
  9
$HANDLING
 70
     1
  9
$HANDSEED
  5
1EE
  9
$SURFTAB1
 70
    24
  9
$SURFTAB2
 70
    24
  9
$SURFTYPE
 70
     6
  9
$SURFU
 70
     6
  9
$SURFV
 70
     6
  9
$UCSNAME
  2

  9
$UCSORG
 10
0.0
 20
0.0
 30
0.0
  9
$UCSXDIR
 10
1.0
 20
0.0
 30
0.0
  9
$UCSYDIR
 10
0.0
 20
1.0
 30
0.0
  9
$PUCSNAME
  2

  9
$PUCSORG
 10
0.0
 20
0.0
 30
0.0
  9
$PUCSXDIR
 10
1.0
 20
0.0
 30
0.0
  9
$PUCSYDIR
 10
0.0
 20
1.0
 30
0.0
  9
$USERI1
 70
     0
  9
$USERI2
 70
     0
  9
$USERI3
 70
     0
  9
$USERI4
 70
     0
  9
$USERI5
 70
     0
  9
$USERR1
 40
0.0
  9
$USERR2
 40
0.0
  9
$USERR3
 40
0.0
  9
$USERR4
 40
0.0
  9
$USERR5
 40
0.0
  9
$WORLDVIEW
 70
     1
  9
$SHADEDGE
 70
     0
  9
$SHADEDIF
 70
    70
  9
$TILEMODE
 70
     1
  9
$MAXACTVP
 70
    16
  9
$PLIMCHECK
 70
     0
  9
$PEXTMIN
 10
-0.805942
 20
0.005011
 30
0.0
  9
$PEXTMAX
 10
20.250094
 20
11.356329
 30
0.0
  9
$PLIMMIN
 10
0.0
 20
0.0
  9
$PLIMMAX
 10
12.0
 20
9.0
  9
$UNITMODE
 70
     0
  9
$VISRETAIN
 70
     0
  9
$PLINEGEN
 70
     0
  9
$PSLTSCALE
 70
     0
  0
ENDSEC
  0
SECTION
  2
TABLES
  0
TABLE
  2
VPORT
 70
     2
  0
VPORT
  2
*ACTIVE
 70
     0
 10
0.0
 20
0.0
 11
1.0
 21
1.0
 12
101.172622
 22
480.189262
 13
0.0
 23
0.0
 14
1.0
 24
1.0
 15
50.0
 25
50.0
 16
0.0
 26
0.0
 36
1.0
 17
0.0
 27
0.0
 37
0.0
 40
986.505626
 41
1.865779
 42
50.0
 43
0.0
 44
0.0
 50
0.0
 51
0.0
 71
     0
 72
   100
 73
     1
 74
     1
 75
     0
 76
     0
 77
     0
 78
     0
  0
ENDTAB
  0
TABLE
  2
LTYPE
 70
     3
  0
LTYPE
  2
CONTINUOUS
 70
     0
  3
Solid Line
 72
    65
 73
     0
 40
0.0
  0
LTYPE
  2
31
 70
     0
  3

 72
    65
 73
     4
 40
2.1
 49
1.5
 49
-0.3
 49
0.0
 49
-0.3
  0
LTYPE
  2
22
 70
     0
  3

 72
    65
 73
     2
 40
1.4
 49
1.2
 49
-0.2
  0
ENDTAB
  0
TABLE
  2
LAYER
 70
    11
  0
LAYER
  2
0
 70
     0
 62
     7
  6
CONTINUOUS
  0
LAYER
  2
DEFPOINTS
 70
     0
 62
     7
  6
CONTINUOUS
  0
LAYER
  2
TEAM-BODY
 70
     0
 62
     2
  6
CONTINUOUS
  0
LAYER
  2
TEAM-AXE
 70
     0
 62
    10
  6
31
  0
LAYER
  2
TEAM-MAS
 70
     0
 62
     9
  6
CONTINUOUS
  0
LAYER
  2
TEAM-TXT
 70
     0
 62
    11
  6
CONTINUOUS
  0
LAYER
  2
TEAM-COLD
 70
     0
 62
     3
  6
CONTINUOUS
  0
LAYER
  2
TEAM-HIDE
 70
     0
 62
     8
  6
22
  0
LAYER
  2
TEAM-KAN
 70
     0
 62
     6
  6
CONTINUOUS
  0
LAYER
  2
TEAM-WARM
 70
     0
 62
     1
  6
CONTINUOUS
  0
LAYER
  2
TEAM-INSP
 70
     0
 62
     5
  6
CONTINUOUS
  0
ENDTAB
  0
TABLE
  2
STYLE
 70
     2
  0
STYLE
  2
STANDARD
 70
     0
 40
0.0
 41
1.0
 50
0.0
 71
     0
 42
200.0
  3
txt
  4

  0
STYLE
  2
TEAM
 70
     0
 40
0.0
 41
0.8
 50
15.0
 71
     0
 42
7.0
  3
ROMANS.shx
  4

  0
ENDTAB
  0
TABLE
  2
VIEW
 70
     0
  0
ENDTAB
  0
TABLE
  2
UCS
 70
     0
  0
ENDTAB
  0
TABLE
  2
APPID
 70
     1
  0
APPID
  2
ACAD
 70
     0
  0
ENDTAB
  0
TABLE
  2
DIMSTYLE
 70
     1
  0
DIMSTYLE
  2
TEAM
 70
     0
  3

  4

  5

  6

  7

 40
0.0
 41
20.0
 42
10.0
 43
1.0
 44
1.0
 45
0.0
 46
0.0
 47
0.0
 48
0.0
140
35.0
141
1.0
142
0.0
143
25.4
144
1.0
145
0.0
146
1.0
147
15.0
 71
     0
 72
     0
 73
     0
 74
     0
 75
     0
 76
     0
 77
     0
 78
     0
170
     0
171
     2
172
     0
173
     0
174
     0
175
     0
176
     9
177
     9
178
    11
  0
ENDTAB
  0
ENDSEC
  0
SECTION
  2
BLOCKS
  0
BLOCK
  8
0
  2
$MODEL_SPACE
 70
     0
 10
0.0
 20
0.0
 30
0.0
  3
$MODEL_SPACE
  1

  0
ENDBLK
  5
1DD
  8
0
  0
BLOCK
 67
     1
  8
0
  2
$PAPER_SPACE
 70
     0
 10
0.0
 20
0.0
 30
0.0
  3
$PAPER_SPACE
  1

  0
ENDBLK
  5
1DB
 67
     1
  8
0
  0
BLOCK
  8
0
  2
*D0
 70
     1
 10
0.0
 20
0.0
 30
0.0
  3
*D0
  1

  0
LINE
  5
5B
  8
0
  6
BYBLOCK
 62
     9
 10
11675.0
 20
308569.783522
 30
0.0
 11
11675.0
 21
308389.194223
 31
0.0
  0
LINE
  5
5C
  8
0
  6
BYBLOCK
 62
     9
 10
11825.0
 20
308570.0
 30
0.0
 11
11825.0
 21
308389.194223
 31
0.0
  0
LINE
  5
5D
  8
0
  6
BYBLOCK
 62
     9
 10
11695.0
 20
308390.194223
 30
0.0
 11
11710.0
 21
308390.194223
 31
0.0
  0
LINE
  5
5E
  8
0
  6
BYBLOCK
 62
     9
 10
11805.0
 20
308390.194223
 30
0.0
 11
11790.0
 21
308390.194223
 31
0.0
  0
TEXT
  5
5F
  8
0
  6
BYBLOCK
 62
    11
 10
11716.740916
 20
308400.58305
 30
0.0
 40
35.0
  1
150
  0
SOLID
  5
60
  8
0
  6
BYBLOCK
 62
     9
 10
11695.0
 20
308393.527556
 30
0.0
 11
11695.0
 21
308386.860889
 31
0.0
 12
11675.0
 22
308390.194223
 32
0.0
 13
11675.0
 23
308390.194223
 33
0.0
  0
SOLID
  5
61
  8
0
  6
BYBLOCK
 62
     9
 10
11805.0
 20
308393.527556
 30
0.0
 11
11805.0
 21
308386.860889
 31
0.0
 12
11825.0
 22
308390.194223
 32
0.0
 13
11825.0
 23
308390.194223
 33
0.0
  0
POINT
  5
62
  8
DEFPOINTS
  6
BYBLOCK
 62
     0
 10
11675.0
 20
308579.783522
 30
20.0
  0
POINT
  5
63
  8
DEFPOINTS
  6
BYBLOCK
 62
     0
 10
11825.0
 20
308580.0
 30
20.0
  0
POINT
  5
64
  8
DEFPOINTS
  6
BYBLOCK
 62
     0
 10
11825.0
 20
308390.194223
 30
30.0
  0
ENDBLK
  5
66
  8
0
  0
BLOCK
  8
0
  2
*D1
 70
     1
 10
0.0
 20
0.0
 30
0.0
  3
*D1
  1

  0
LINE
  5
4D
  8
0
  6
BYBLOCK
 62
     9
 10
11825.0
 20
308570.0
 30
0.0
 11
11825.0
 21
308389.194223
 31
0.0
  0
LINE
  5
4E
  8
0
  6
BYBLOCK
 62
     9
 10
12175.0
 20
308569.783522
 30
0.0
 11
12175.0
 21
308389.194223
 31
0.0
  0
LINE
  5
4F
  8
0
  6
BYBLOCK
 62
     9
 10
11845.0
 20
308390.194223
 30
0.0
 11
11953.48622
 21
308390.194223
 31
0.0
  0
LINE
  5
50
  8
0
  6
BYBLOCK
 62
     9
 10
12155.0
 20
308390.194223
 30
0.0
 11
12046.51378
 21
308390.194223
 31
0.0
  0
SOLID
  5
51
  8
0
  6
BYBLOCK
 62
     9
 10
11845.0
 20
308393.527556
 30
0.0
 11
11845.0
 21
308386.860889
 31
0.0
 12
11825.0
 22
308390.194223
 32
0.0
 13
11825.0
 23
308390.194223
 33
0.0
  0
SOLID
  5
52
  8
0
  6
BYBLOCK
 62
     9
 10
12155.0
 20
308393.527556
 30
0.0
 11
12155.0
 21
308386.860889
 31
0.0
 12
12175.0
 22
308390.194223
 32
0.0
 13
12175.0
 23
308390.194223
 33
0.0
  0
TEXT
  5
53
  8
0
  6
BYBLOCK
 62
    11
 10
11963.23622
 20
308372.694223
 30
0.0
 40
35.0
  1
350
  0
POINT
  5
54
  8
DEFPOINTS
  6
BYBLOCK
 62
     0
 10
11825.0
 20
308580.0
 30
20.0
  0
POINT
  5
55
  8
DEFPOINTS
  6
BYBLOCK
 62
     0
 10
12175.0
 20
308579.783522
 30
20.0
  0
POINT
  5
56
  8
DEFPOINTS
  6
BYBLOCK
 62
     0
 10
12175.0
 20
308390.194223
 30
0.0
  0
ENDBLK
  5
58
  8
0
  0
BLOCK
  8
0
  2
*D2
 70
     1
 10
0.0
 20
0.0
 30
0.0
  3
*D2
  1

  0
LINE
  5
B3
  8
0
  6
BYBLOCK
 62
     9
 10
12773.738133
 20
308850.0
 30
0.0
 11
12942.807376
 21
308850.0
 31
0.0
  0
LINE
  5
B4
  8
0
  6
BYBLOCK
 62
     9
 10
12010.0
 20
308000.0
 30
0.0
 11
12942.807376
 21
308000.0
 31
0.0
  0
LINE
  5
B5
  8
0
  6
BYBLOCK
 62
     9
 10
12941.807376
 20
308830.0
 30
0.0
 11
12941.807376
 21
308471.51378
 31
0.0
  0
LINE
  5
B6
  8
0
  6
BYBLOCK
 62
     9
 10
12941.807376
 20
308020.0
 30
0.0
 11
12941.807376
 21
308378.48622
 31
0.0
  0
SOLID
  5
B7
  8
0
  6
BYBLOCK
 62
     9
 10
12938.474043
 20
308830.0
 30
0.0
 11
12945.14071
 21
308830.0
 31
0.0
 12
12941.807376
 22
308850.0
 32
0.0
 13
12941.807376
 23
308850.0
 33
0.0
  0
SOLID
  5
B8
  8
0
  6
BYBLOCK
 62
     9
 10
12938.474043
 20
308020.0
 30
0.0
 11
12945.14071
 21
308020.0
 31
0.0
 12
12941.807376
 22
308000.0
 32
0.0
 13
12941.807376
 23
308000.0
 33
0.0
  0
TEXT
  5
B9
  8
0
  6
BYBLOCK
 62
    11
 10
12959.307376
 20
308388.23622
 30
0.0
 40
35.0
  1
850
 50
90.0
  0
POINT
  5
BA
  8
DEFPOINTS
  6
BYBLOCK
 62
     0
 10
12763.738133
 20
308850.0
 30
10.0
  0
POINT
  5
BB
  8
DEFPOINTS
  6
BYBLOCK
 62
     0
 10
12000.0
 20
308000.0
 30
0.0
  0
POINT
  5
BC
  8
DEFPOINTS
  6
BYBLOCK
 62
     0
 10
12941.807376
 20
308000.0
 30
10.0
  0
ENDBLK
  5
BE
  8
0
  0
BLOCK
  8
0
  2
*D3
 70
     1
 10
0.0
 20
0.0
 30
0.0
  3
*D3
  1

  0
LINE
  5
A5
  8
0
  6
BYBLOCK
 62
     9
 10
12200.0
 20
308850.0
 30
0.0
 11
12771.738133
 21
308850.0
 31
0.0
  0
LINE
  5
A6
  8
0
  6
BYBLOCK
 62
     9
 10
12045.0
 20
308725.0
 30
0.0
 11
12771.738133
 21
308725.0
 31
0.0
  0
LINE
  5
A7
  8
0
  6
BYBLOCK
 62
     9
 10
12770.738133
 20
308870.0
 30
0.0
 11
12770.738133
 21
308890.0
 31
0.0
  0
LINE
  5
A8
  8
0
  6
BYBLOCK
 62
     9
 10
12770.738133
 20
308705.0
 30
0.0
 11
12770.738133
 21
308685.0
 31
0.0
  0
SOLID
  5
A9
  8
0
  6
BYBLOCK
 62
     9
 10
12767.4048
 20
308870.0
 30
0.0
 11
12774.071467
 21
308870.0
 31
0.0
 12
12770.738133
 22
308850.0
 32
0.0
 13
12770.738133
 23
308850.0
 33
0.0
  0
SOLID
  5
AA
  8
0
  6
BYBLOCK
 62
     9
 10
12767.4048
 20
308705.0
 30
0.0
 11
12774.071467
 21
308705.0
 31
0.0
 12
12770.738133
 22
308725.0
 32
0.0
 13
12770.738133
 23
308725.0
 33
0.0
  0
TEXT
  5
AB
  8
0
  6
BYBLOCK
 62
    11
 10
12788.238133
 20
308753.525126
 30
0.0
 40
35.0
  1
125
 50
90.0
  0
POINT
  5
AC
  8
DEFPOINTS
  6
BYBLOCK
 62
     0
 10
12190.0
 20
308850.0
 30
10.0
  0
POINT
  5
AD
  8
DEFPOINTS
  6
BYBLOCK
 62
     0
 10
12035.0
 20
308725.0
 30
0.0
  0
POINT
  5
AE
  8
DEFPOINTS
  6
BYBLOCK
 62
     0
 10
12770.738133
 20
308725.0
 30
10.0
  0
ENDBLK
  5
B0
  8
0
  0
BLOCK
  8
0
  2
*D4
 70
     1
 10
0.0
 20
0.0
 30
0.0
  3
*D4
  1

  0
LINE
  5
77
  8
0
  6
BYBLOCK
 62
     9
 10
12010.0
 20
308500.0
 30
0.0
 11
12889.332141
 21
308500.0
 31
0.0
  0
LINE
  5
78
  8
0
  6
BYBLOCK
 62
     9
 10
12160.0
 20
308000.0
 30
0.0
 11
12889.332141
 21
308000.0
 31
0.0
  0
LINE
  5
79
  8
0
  6
BYBLOCK
 62
     9
 10
12888.332141
 20
308480.0
 30
0.0
 11
12888.332141
 21
308296.51378
 31
0.0
  0
LINE
  5
7A
  8
0
  6
BYBLOCK
 62
     9
 10
12888.332141
 20
308020.0
 30
0.0
 11
12888.332141
 21
308203.48622
 31
0.0
  0
SOLID
  5
7B
  8
0
  6
BYBLOCK
 62
     9
 10
12884.998807
 20
308480.0
 30
0.0
 11
12891.665474
 21
308480.0
 31
0.0
 12
12888.332141
 22
308500.0
 32
0.0
 13
12888.332141
 23
308500.0
 33
0.0
  0
SOLID
  5
7C
  8
0
  6
BYBLOCK
 62
     9
 10
12884.998807
 20
308020.0
 30
0.0
 11
12891.665474
 21
308020.0
 31
0.0
 12
12888.332141
 22
308000.0
 32
0.0
 13
12888.332141
 23
308000.0
 33
0.0
  0
TEXT
  5
7D
  8
0
  6
BYBLOCK
 62
    11
 10
12905.832141
 20
308213.23622
 30
0.0
 40
35.0
  1
500
 50
90.0
  0
POINT
  5
7E
  8
DEFPOINTS
  6
BYBLOCK
 62
     0
 10
12000.0
 20
308500.0
 30
10.0
  0
POINT
  5
7F
  8
DEFPOINTS
  6
BYBLOCK
 62
     0
 10
12150.0
 20
308000.0
 30
20.0
  0
POINT
  5
80
  8
DEFPOINTS
  6
BYBLOCK
 62
     0
 10
12888.332141
 20
308000.0
 30
10.0
  0
ENDBLK
  5
82
  8
0
  0
BLOCK
  8
0
  2
*D5
 70
     1
 10
0.0
 20
0.0
 30
0.0
  3
*D5
  1

  0
LINE
  5
69
  8
0
  6
BYBLOCK
 62
     9
 10
12749.527647
 20
308850.0
 30
0.0
 11
12889.332141
 21
308850.0
 31
0.0
  0
LINE
  5
6A
  8
0
  6
BYBLOCK
 62
     9
 10
12010.0
 20
308500.0
 30
0.0
 11
12889.332141
 21
308500.0
 31
0.0
  0
LINE
  5
6B
  8
0
  6
BYBLOCK
 62
     9
 10
12888.332141
 20
308830.0
 30
0.0
 11
12888.332141
 21
308721.51378
 31
0.0
  0
LINE
  5
6C
  8
0
  6
BYBLOCK
 62
     9
 10
12888.332141
 20
308520.0
 30
0.0
 11
12888.332141
 21
308628.48622
 31
0.0
  0
SOLID
  5
6D
  8
0
  6
BYBLOCK
 62
     9
 10
12884.998807
 20
308830.0
 30
0.0
 11
12891.665474
 21
308830.0
 31
0.0
 12
12888.332141
 22
308850.0
 32
0.0
 13
12888.332141
 23
308850.0
 33
0.0
  0
SOLID
  5
6E
  8
0
  6
BYBLOCK
 62
     9
 10
12884.998807
 20
308520.0
 30
0.0
 11
12891.665474
 21
308520.0
 31
0.0
 12
12888.332141
 22
308500.0
 32
0.0
 13
12888.332141
 23
308500.0
 33
0.0
  0
TEXT
  5
6F
  8
0
  6
BYBLOCK
 62
    11
 10
12905.832141
 20
308638.23622
 30
0.0
 40
35.0
  1
350
 50
90.0
  0
POINT
  5
70
  8
DEFPOINTS
  6
BYBLOCK
 62
     0
 10
12739.527647
 20
308850.0
 30
20.0
  0
POINT
  5
71
  8
DEFPOINTS
  6
BYBLOCK
 62
     0
 10
12000.0
 20
308500.0
 30
10.0
  0
POINT
  5
72
  8
DEFPOINTS
  6
BYBLOCK
 62
     0
 10
12888.332141
 20
308500.0
 30
20.0
  0
ENDBLK
  5
74
  8
0
  0
BLOCK
  8
0
  2
*D6
 70
     1
 10
0.0
 20
0.0
 30
0.0
  3
*D6
  1

  0
LINE
  5
3F
  8
0
  6
BYBLOCK
 62
     9
 10
12175.0
 20
308569.783522
 30
0.0
 11
12175.0
 21
308389.194223
 31
0.0
  0
LINE
  5
40
  8
0
  6
BYBLOCK
 62
     9
 10
12325.0
 20
308570.0
 30
0.0
 11
12325.0
 21
308389.194223
 31
0.0
  0
LINE
  5
41
  8
0
  6
BYBLOCK
 62
     9
 10
12195.0
 20
308390.194223
 30
0.0
 11
12210.0
 21
308390.194223
 31
0.0
  0
LINE
  5
42
  8
0
  6
BYBLOCK
 62
     9
 10
12305.0
 20
308390.194223
 30
0.0
 11
12290.0
 21
308390.194223
 31
0.0
  0
TEXT
  5
43
  8
0
  6
BYBLOCK
 62
    11
 10
12216.740916
 20
308400.58305
 30
0.0
 40
35.0
  1
150
  0
SOLID
  5
44
  8
0
  6
BYBLOCK
 62
     9
 10
12195.0
 20
308393.527556
 30
0.0
 11
12195.0
 21
308386.860889
 31
0.0
 12
12175.0
 22
308390.194223
 32
0.0
 13
12175.0
 23
308390.194223
 33
0.0
  0
SOLID
  5
45
  8
0
  6
BYBLOCK
 62
     9
 10
12305.0
 20
308393.527556
 30
0.0
 11
12305.0
 21
308386.860889
 31
0.0
 12
12325.0
 22
308390.194223
 32
0.0
 13
12325.0
 23
308390.194223
 33
0.0
  0
POINT
  5
46
  8
DEFPOINTS
  6
BYBLOCK
 62
     0
 10
12175.0
 20
308579.783522
 30
20.0
  0
POINT
  5
47
  8
DEFPOINTS
  6
BYBLOCK
 62
     0
 10
12325.0
 20
308580.0
 30
20.0
  0
POINT
  5
48
  8
DEFPOINTS
  6
BYBLOCK
 62
     0
 10
12325.0
 20
308390.194223
 30
30.0
  0
ENDBLK
  5
4A
  8
0
  0
BLOCK
  8
0
  2
*D7
 70
     1
 10
0.0
 20
0.0
 30
0.0
  3
*D7
  1

  0
LINE
  5
31
  8
0
  6
BYBLOCK
 62
     9
 10
11694.949874
 20
308589.783522
 30
0.0
 11
12830.196345
 21
308589.783522
 31
0.0
  0
LINE
  5
32
  8
0
  6
BYBLOCK
 62
     9
 10
12220.0
 20
308000.0
 30
0.0
 11
12830.196345
 21
308000.0
 31
0.0
  0
LINE
  5
33
  8
0
  6
BYBLOCK
 62
     9
 10
12829.196345
 20
308569.783522
 30
0.0
 11
12829.196345
 21
308341.466692
 31
0.0
  0
LINE
  5
34
  8
0
  6
BYBLOCK
 62
     9
 10
12829.196345
 20
308020.0
 30
0.0
 11
12829.196345
 21
308248.316831
 31
0.0
  0
SOLID
  5
35
  8
0
  6
BYBLOCK
 62
     9
 10
12825.863012
 20
308569.783522
 30
0.0
 11
12832.529678
 21
308569.783522
 31
0.0
 12
12829.196345
 22
308589.783522
 32
0.0
 13
12829.196345
 23
308589.783522
 33
0.0
  0
SOLID
  5
36
  8
0
  6
BYBLOCK
 62
     9
 10
12825.863012
 20
308020.0
 30
0.0
 11
12832.529678
 21
308020.0
 31
0.0
 12
12829.196345
 22
308000.0
 32
0.0
 13
12829.196345
 23
308000.0
 33
0.0
  0
TEXT
  5
37
  8
0
  6
BYBLOCK
 62
    11
 10
12846.696345
 20
308258.066831
 30
0.0
 40
35.0
  1
590
 50
90.0
  0
POINT
  5
38
  8
DEFPOINTS
  6
BYBLOCK
 62
     0
 10
11684.949874
 20
308589.783522
 30
20.0
  0
POINT
  5
39
  8
DEFPOINTS
  6
BYBLOCK
 62
     0
 10
12210.0
 20
308000.0
 30
10.0
  0
POINT
  5
3A
  8
DEFPOINTS
  6
BYBLOCK
 62
     0
 10
12829.196345
 20
308000.0
 30
20.0
  0
ENDBLK
  5
3C
  8
0
  0
BLOCK
  8
0
  2
*D8
 70
     1
 10
0.0
 20
0.0
 30
0.0
  3
*D8
  1

  0
LINE
  5
22
  8
0
  6
BYBLOCK
 62
     9
 10
11694.949874
 20
308589.783522
 30
0.0
 11
12830.196345
 21
308589.783522
 31
0.0
  0
LINE
  5
23
  8
0
  6
BYBLOCK
 62
     9
 10
12655.0
 20
308850.0
 30
0.0
 11
12830.196345
 21
308850.0
 31
0.0
  0
LINE
  5
24
  8
0
  6
BYBLOCK
 62
     9
 10
12829.196345
 20
308609.783522
 30
0.0
 11
12829.196345
 21
308672.933592
 31
0.0
  0
LINE
  5
25
  8
0
  6
BYBLOCK
 62
     9
 10
12829.196345
 20
308830.0
 30
0.0
 11
12829.196345
 21
308766.84993
 31
0.0
  0
SOLID
  5
26
  8
0
  6
BYBLOCK
 62
     9
 10
12825.863012
 20
308609.783522
 30
0.0
 11
12832.529678
 21
308609.783522
 31
0.0
 12
12829.196345
 22
308589.783522
 32
0.0
 13
12829.196345
 23
308589.783522
 33
0.0
  0
SOLID
  5
27
  8
0
  6
BYBLOCK
 62
     9
 10
12825.863012
 20
308830.0
 30
0.0
 11
12832.529678
 21
308830.0
 31
0.0
 12
12829.196345
 22
308850.0
 32
0.0
 13
12829.196345
 23
308850.0
 33
0.0
  0
TEXT
  5
28
  8
0
  6
BYBLOCK
 62
    11
 10
12846.696345
 20
308683.572371
 30
0.0
 40
35.0
  1
260
 50
90.0
  0
POINT
  5
29
  8
DEFPOINTS
  6
BYBLOCK
 62
     0
 10
11684.949874
 20
308589.783522
 30
20.0
  0
POINT
  5
2B
  8
DEFPOINTS
  6
BYBLOCK
 62
     0
 10
12645.0
 20
308850.0
 30
0.0
  0
POINT
  5
2C
  8
DEFPOINTS
  6
BYBLOCK
 62
     0
 10
12829.196345
 20
308850.0
 30
0.0
  0
ENDBLK
  5
2E
  8
0
  0
BLOCK
  8
0
  2
*D9
 70
     1
 10
0.0
 20
0.0
 30
0.0
  3
*D9
  1

  0
LINE
  5
96
  8
0
  6
BYBLOCK
 62
     9
 10
12660.0
 20
308850.0
 30
0.0
 11
12711.437321
 21
308850.0
 31
0.0
  0
LINE
  5
97
  8
0
  6
BYBLOCK
 62
     9
 10
12175.0
 20
308787.5
 30
0.0
 11
12711.437321
 21
308787.5
 31
0.0
  0
LINE
  5
98
  8
0
  6
BYBLOCK
 62
     9
 10
12710.437321
 20
308870.0
 30
0.0
 11
12710.437321
 21
308890.0
 31
0.0
  0
LINE
  5
99
  8
0
  6
BYBLOCK
 62
     9
 10
12710.437321
 20
308767.5
 30
0.0
 11
12710.437321
 21
308747.5
 31
0.0
  0
TEXT
  5
9A
  8
0
  6
BYBLOCK
 62
    11
 10
12699.5
 20
308854.32237
 30
0.0
 40
35.0
  1
62.5
 50
90.0
  0
LINE
  5
9B
  8
0
  6
BYBLOCK
 62
     9
 10
12710.437321
 20
308850.0
 30
0.0
 11
12710.437321
 21
308787.5
 31
0.0
  0
SOLID
  5
9C
  8
0
  6
BYBLOCK
 62
     9
 10
12707.103988
 20
308870.0
 30
0.0
 11
12713.770655
 21
308870.0
 31
0.0
 12
12710.437321
 22
308850.0
 32
0.0
 13
12710.437321
 23
308850.0
 33
0.0
  0
SOLID
  5
9D
  8
0
  6
BYBLOCK
 62
     9
 10
12707.103988
 20
308767.5
 30
0.0
 11
12713.770655
 21
308767.5
 31
0.0
 12
12710.437321
 22
308787.5
 32
0.0
 13
12710.437321
 23
308787.5
 33
0.0
  0
POINT
  5
9E
  8
DEFPOINTS
  6
BYBLOCK
 62
     0
 10
12650.0
 20
308850.0
 30
0.0
  0
POINT
  5
9F
  8
DEFPOINTS
  6
BYBLOCK
 62
     0
 10
12165.0
 20
308787.5
 30
0.0
  0
POINT
  5
A0
  8
DEFPOINTS
  6
BYBLOCK
 62
     0
 10
12710.437321
 20
308787.5
 30
0.0
  0
ENDBLK
  5
A2
  8
0
  0
BLOCK
  8
0
  2
*D10
 70
     1
 10
0.0
 20
0.0
 30
0.0
  3
*D10
  1

  0
LINE
  5
88
  8
0
  6
BYBLOCK
 62
     9
 10
12650.0
 20
308854.0
 30
0.0
 11
12650.0
 21
308955.638562
 31
0.0
  0
LINE
  5
89
  8
0
  6
BYBLOCK
 62
     9
 10
11350.0
 20
308854.0
 30
0.0
 11
11350.0
 21
308955.638562
 31
0.0
  0
LINE
  5
8A
  8
0
  6
BYBLOCK
 62
     9
 10
12630.0
 20
308954.638562
 30
0.0
 11
12055.26378
 21
308954.638562
 31
0.0
  0
LINE
  5
8B
  8
0
  6
BYBLOCK
 62
     9
 10
11370.0
 20
308954.638562
 30
0.0
 11
11944.73622
 21
308954.638562
 31
0.0
  0
SOLID
  5
8C
  8
0
  6
BYBLOCK
 62
     9
 10
12630.0
 20
308957.971895
 30
0.0
 11
12630.0
 21
308951.305228
 31
0.0
 12
12650.0
 22
308954.638562
 32
0.0
 13
12650.0
 23
308954.638562
 33
0.0
  0
SOLID
  5
8D
  8
0
  6
BYBLOCK
 62
     9
 10
11370.0
 20
308957.971895
 30
0.0
 11
11370.0
 21
308951.305228
 31
0.0
 12
11350.0
 22
308954.638562
 32
0.0
 13
11350.0
 23
308954.638562
 33
0.0
  0
TEXT
  5
8E
  8
0
  6
BYBLOCK
 62
    11
 10
11954.48622
 20
308937.138562
 30
0.0
 40
35.0
  1
1300
  0
POINT
  5
8F
  8
DEFPOINTS
  6
BYBLOCK
 62
     0
 10
12650.0
 20
308844.0
 30
0.0
  0
POINT
  5
90
  8
DEFPOINTS
  6
BYBLOCK
 62
     0
 10
11350.0
 20
308844.0
 30
0.0
  0
POINT
  5
91
  8
DEFPOINTS
  6
BYBLOCK
 62
     0
 10
11350.0
 20
308954.638562
 30
0.0
  0
ENDBLK
  5
93
  8
0
  0
BLOCK
  8
0
  2
*D11
 70
     1
 10
0.0
 20
0.0
 30
0.0
  3
*D11
  1

  0
LINE
  5
110
  8
0
  6
BYBLOCK
 62
     9
 10
11860.0
 20
308811.5
 30
0.0
 11
11860.0
 21
308904.811907
 31
0.0
  0
LINE
  5
111
  8
0
  6
BYBLOCK
 62
     9
 10
12140.0
 20
308811.5
 30
0.0
 11
12140.0
 21
308904.811907
 31
0.0
  0
LINE
  5
112
  8
0
  6
BYBLOCK
 62
     9
 10
11880.0
 20
308903.811907
 30
0.0
 11
11953.041831
 21
308903.811907
 31
0.0
  0
LINE
  5
113
  8
0
  6
BYBLOCK
 62
     9
 10
12120.0
 20
308903.811907
 30
0.0
 11
12046.958169
 21
308903.811907
 31
0.0
  0
SOLID
  5
114
  8
0
  6
BYBLOCK
 62
     9
 10
11880.0
 20
308907.145241
 30
0.0
 11
11880.0
 21
308900.478574
 31
0.0
 12
11860.0
 22
308903.811907
 32
0.0
 13
11860.0
 23
308903.811907
 33
0.0
  0
SOLID
  5
115
  8
0
  6
BYBLOCK
 62
     9
 10
12120.0
 20
308907.145241
 30
0.0
 11
12120.0
 21
308900.478574
 31
0.0
 12
12140.0
 22
308903.811907
 32
0.0
 13
12140.0
 23
308903.811907
 33
0.0
  0
TEXT
  5
116
  8
0
  6
BYBLOCK
 62
    11
 10
11963.68061
 20
308886.311907
 30
0.0
 40
35.0
  1
280
  0
POINT
  5
117
  8
DEFPOINTS
  6
BYBLOCK
 62
     0
 10
11860.0
 20
308801.5
 30
0.0
  0
POINT
  5
118
  8
DEFPOINTS
  6
BYBLOCK
 62
     0
 10
12140.0
 20
308801.5
 30
0.0
  0
POINT
  5
119
  8
DEFPOINTS
  6
BYBLOCK
 62
     0
 10
12140.0
 20
308903.811907
 30
0.0
  0
ENDBLK
  5
11B
  8
0
  0
BLOCK
  8
0
  2
*D12
 70
     1
 10
0.0
 20
0.0
 30
0.0
  3
*D12
  1

  0
LINE
  5
101
  8
0
  6
BYBLOCK
 62
     9
 10
11350.0
 20
308860.0
 30
0.0
 11
11350.0
 21
308904.811907
 31
0.0
  0
LINE
  5
102
  8
0
  6
BYBLOCK
 62
     9
 10
11390.0
 20
308841.0
 30
0.0
 11
11390.0
 21
308904.811907
 31
0.0
  0
LINE
  5
103
  8
0
  6
BYBLOCK
 62
     9
 10
11330.0
 20
308903.811907
 30
0.0
 11
11310.0
 21
308903.811907
 31
0.0
  0
LINE
  5
104
  8
0
  6
BYBLOCK
 62
     9
 10
11410.0
 20
308903.811907
 30
0.0
 11
11430.0
 21
308903.811907
 31
0.0
  0
TEXT
  5
105
  8
0
  6
BYBLOCK
 62
    11
 10
11454.10429
 20
308886.279577
 30
0.0
 40
35.0
  1
40
  0
LINE
  5
106
  8
0
  6
BYBLOCK
 62
     9
 10
11350.0
 20
308903.811907
 30
0.0
 11
11390.0
 21
308903.811907
 31
0.0
  0
SOLID
  5
107
  8
0
  6
BYBLOCK
 62
     9
 10
11330.0
 20
308907.145241
 30
0.0
 11
11330.0
 21
308900.478574
 31
0.0
 12
11350.0
 22
308903.811907
 32
0.0
 13
11350.0
 23
308903.811907
 33
0.0
  0
SOLID
  5
108
  8
0
  6
BYBLOCK
 62
     9
 10
11410.0
 20
308907.145241
 30
0.0
 11
11410.0
 21
308900.478574
 31
0.0
 12
11390.0
 22
308903.811907
 32
0.0
 13
11390.0
 23
308903.811907
 33
0.0
  0
POINT
  5
109
  8
DEFPOINTS
  6
BYBLOCK
 62
     0
 10
11350.0
 20
308850.0
 30
0.0
  0
POINT
  5
10A
  8
DEFPOINTS
  6
BYBLOCK
 62
     0
 10
11390.0
 20
308831.0
 30
0.0
  0
POINT
  5
10B
  8
DEFPOINTS
  6
BYBLOCK
 62
     0
 10
11390.0
 20
308903.811907
 30
0.0
  0
ENDBLK
  5
10D
  8
0
  0
BLOCK
  8
0
  2
*D13
 70
     1
 10
0.0
 20
0.0
 30
0.0
  3
*D13
  1

  0
LINE
  5
F2
  8
0
  6
BYBLOCK
 62
     9
 10
11340.0
 20
308725.0
 30
0.0
 11
11300.893574
 21
308725.0
 31
0.0
  0
LINE
  5
F3
  8
0
  6
BYBLOCK
 62
     9
 10
11374.0
 20
308750.0
 30
0.0
 11
11300.893574
 21
308750.0
 31
0.0
  0
LINE
  5
F4
  8
0
  6
BYBLOCK
 62
     9
 10
11301.893574
 20
308705.0
 30
0.0
 11
11301.893574
 21
308685.0
 31
0.0
  0
LINE
  5
F5
  8
0
  6
BYBLOCK
 62
     9
 10
11301.893574
 20
308770.0
 30
0.0
 11
11301.893574
 21
308790.0
 31
0.0
  0
TEXT
  5
F6
  8
0
  6
BYBLOCK
 62
    11
 10
11278.39013
 20
308712.719516
 30
0.0
 40
35.0
  1
25
 50
90.0
  0
LINE
  5
F7
  8
0
  6
BYBLOCK
 62
     9
 10
11301.893574
 20
308725.0
 30
0.0
 11
11301.893574
 21
308750.0
 31
0.0
  0
SOLID
  5
F8
  8
0
  6
BYBLOCK
 62
     9
 10
11298.560241
 20
308705.0
 30
0.0
 11
11305.226908
 21
308705.0
 31
0.0
 12
11301.893574
 22
308725.0
 32
0.0
 13
11301.893574
 23
308725.0
 33
0.0
  0
SOLID
  5
F9
  8
0
  6
BYBLOCK
 62
     9
 10
11298.560241
 20
308770.0
 30
0.0
 11
11305.226908
 21
308770.0
 31
0.0
 12
11301.893574
 22
308750.0
 32
0.0
 13
11301.893574
 23
308750.0
 33
0.0
  0
POINT
  5
FA
  8
DEFPOINTS
  6
BYBLOCK
 62
     0
 10
11350.0
 20
308725.0
 30
0.0
  0
POINT
  5
FB
  8
DEFPOINTS
  6
BYBLOCK
 62
     0
 10
11384.0
 20
308750.0
 30
0.0
  0
POINT
  5
FC
  8
DEFPOINTS
  6
BYBLOCK
 62
     0
 10
11301.893574
 20
308750.0
 30
0.0
  0
ENDBLK
  5
FE
  8
0
  0
BLOCK
  8
0
  2
*D14
 70
     1
 10
0.0
 20
0.0
 30
0.0
  3
*D14
  1

  0
LINE
  5
E3
  8
0
  6
BYBLOCK
 62
     9
 10
11340.0
 20
308850.0
 30
0.0
 11
11300.893574
 21
308850.0
 31
0.0
  0
LINE
  5
E4
  8
0
  6
BYBLOCK
 62
     9
 10
11374.0
 20
308825.0
 30
0.0
 11
11300.893574
 21
308825.0
 31
0.0
  0
LINE
  5
E5
  8
0
  6
BYBLOCK
 62
     9
 10
11301.893574
 20
308870.0
 30
0.0
 11
11301.893574
 21
308890.0
 31
0.0
  0
LINE
  5
E6
  8
0
  6
BYBLOCK
 62
     9
 10
11301.893574
 20
308805.0
 30
0.0
 11
11301.893574
 21
308785.0
 31
0.0
  0
TEXT
  5
E7
  8
0
  6
BYBLOCK
 62
    11
 10
11278.39013
 20
308812.719516
 30
0.0
 40
35.0
  1
25
 50
90.0
  0
LINE
  5
E8
  8
0
  6
BYBLOCK
 62
     9
 10
11301.893574
 20
308850.0
 30
0.0
 11
11301.893574
 21
308825.0
 31
0.0
  0
SOLID
  5
E9
  8
0
  6
BYBLOCK
 62
     9
 10
11298.560241
 20
308870.0
 30
0.0
 11
11305.226908
 21
308870.0
 31
0.0
 12
11301.893574
 22
308850.0
 32
0.0
 13
11301.893574
 23
308850.0
 33
0.0
  0
SOLID
  5
EA
  8
0
  6
BYBLOCK
 62
     9
 10
11298.560241
 20
308805.0
 30
0.0
 11
11305.226908
 21
308805.0
 31
0.0
 12
11301.893574
 22
308825.0
 32
0.0
 13
11301.893574
 23
308825.0
 33
0.0
  0
POINT
  5
EB
  8
DEFPOINTS
  6
BYBLOCK
 62
     0
 10
11350.0
 20
308850.0
 30
0.0
  0
POINT
  5
EC
  8
DEFPOINTS
  6
BYBLOCK
 62
     0
 10
11384.0
 20
308825.0
 30
0.0
  0
POINT
  5
ED
  8
DEFPOINTS
  6
BYBLOCK
 62
     0
 10
11301.893574
 20
308825.0
 30
0.0
  0
ENDBLK
  5
EF
  8
0
  0
ENDSEC
  0
SECTION
  2
ENTITIES
  0
DIMENSION
  5
20
  8
TEAM-MAS
  2
*D8
 10
829.196345
 20
850.0
 30
0.0
 11
829.196345
 21
719.891761
 31
0.0
 12
-12000.0
 22
-308000.0
 32
0.0
 13
-315.050126
 23
589.783522
 33
20.0
 14
645.0
 24
850.0
 34
0.0
 50
90.0
1001
ACAD
1000
DSTYLE
1002
{
1070
    40
1040
1.0
1002
}
  0
DIMENSION
  5
2F
  8
TEAM-MAS
  2
*D7
 10
829.196345
 20
0.0
 30
20.0
 11
829.196345
 21
294.891761
 31
0.0
 12
-12000.0
 22
-308000.0
 32
0.0
 13
-315.050126
 23
589.783522
 33
20.0
 14
210.0
 24
0.0
 34
10.0
 50
90.0
1001
ACAD
1000
DSTYLE
1002
{
1070
    40
1040
1.0
1002
}
  0
DIMENSION
  5
3D
  8
TEAM-MAS
  2
*D6
 10
325.0
 20
390.194223
 30
30.0
 11
250.004695
 21
418.08305
 31
0.0
 12
-12000.0
 22
-308000.0
 32
0.0
 70
   128
 13
175.0
 23
579.783522
 33
20.0
 14
325.0
 24
580.0
 34
20.0
1001
ACAD
1000
DSTYLE
1002
{
1070
    40
1040
1.0
1002
}
  0
DIMENSION
  5
4B
  8
TEAM-MAS
  2
*D1
 10
175.0
 20
390.194223
 30
0.0
 11
0.0
 21
390.194223
 31
0.0
 12
-12000.0
 22
-308000.0
 32
0.0
 13
-175.0
 23
580.0
 33
20.0
 14
175.0
 24
579.783522
 34
20.0
1001
ACAD
1000
DSTYLE
1002
{
1070
    40
1040
1.0
1002
}
  0
DIMENSION
  5
59
  8
TEAM-MAS
  2
*D0
 10
-175.0
 20
390.194223
 30
30.0
 11
-249.995305
 21
418.08305
 31
0.0
 12
-12000.0
 22
-308000.0
 32
0.0
 70
   128
 13
-325.0
 23
579.783522
 33
20.0
 14
-175.0
 24
580.0
 34
20.0
1001
ACAD
1000
DSTYLE
1002
{
1070
    40
1040
1.0
1002
}
  0
DIMENSION
  5
67
  8
TEAM-MAS
  2
*D5
 10
888.332141
 20
500.0
 30
10.0
 11
888.332141
 21
675.0
 31
-10.0
 12
-12000.0
 22
-308000.0
 32
-10.0
 13
739.527647
 23
850.0
 33
10.0
 14
0.0
 24
500.0
 34
0.0
 50
90.0
1001
ACAD
1000
DSTYLE
1002
{
1070
    40
1040
1.0
1002
}
  0
DIMENSION
  5
75
  8
TEAM-MAS
  2
*D4
 10
888.332141
 20
0.0
 30
0.0
 11
888.332141
 21
250.0
 31
-10.0
 12
-12000.0
 22
-308000.0
 32
-10.0
 13
0.0
 23
500.0
 33
0.0
 14
150.0
 24
0.0
 34
10.0
 50
90.0
1001
ACAD
1000
DSTYLE
1002
{
1070
    40
1040
1.0
1002
}
  0
LINE
  5
83
  8
TEAM-BODY
 10
650.0
 20
725.0
 30
0.0
 11
-650.0
 21
725.0
 31
0.0
  0
LINE
  5
85
  8
TEAM-BODY
 10
650.0
 20
850.0
 30
0.0
 11
-650.0
 21
850.0
 31
0.0
  0
DIMENSION
  5
86
  8
TEAM-MAS
  2
*D10
 10
-650.0
 20
954.638562
 30
0.0
 11
0.0
 21
954.638562
 31
0.0
 12
-12000.0
 22
-308000.0
 32
0.0
 13
650.0
 23
844.0
 33
0.0
 14
-650.0
 24
844.0
 34
0.0
1001
ACAD
1000
DSTYLE
1002
{
1070
    40
1040
1.0
1002
}
  0
DIMENSION
  5
94
  8
TEAM-MAS
  2
*D9
 10
710.437321
 20
787.5
 30
0.0
 11
682.0
 21
896.0
 31
0.0
 12
-12000.0
 22
-308000.0
 32
0.0
 70
   128
  1
62.5
 13
650.0
 23
850.0
 33
0.0
 14
165.0
 24
787.5
 34
0.0
 50
90.0
1001
ACAD
1000
DSTYLE
1002
{
1070
    40
1040
1.0
1002
}
  0
DIMENSION
  5
A3
  8
TEAM-MAS
  2
*D3
 10
770.738133
 20
725.0
 30
10.0
 11
770.738133
 21
787.5
 31
0.0
 12
-12000.0
 22
-308000.0
 32
0.0
 13
190.0
 23
850.0
 33
10.0
 14
35.0
 24
725.0
 34
0.0
 50
90.0
1001
ACAD
1000
DSTYLE
1002
{
1070
    40
1040
1.0
1002
}
  0
DIMENSION
  5
B1
  8
TEAM-MAS
  2
*D2
 10
941.807376
 20
0.0
 30
10.0
 11
941.807376
 21
425.0
 31
0.0
 12
-12000.0
 22
-308000.0
 32
0.0
 13
763.738133
 23
850.0
 33
10.0
 14
0.0
 24
0.0
 34
0.0
 50
90.0
1001
ACAD
1000
DSTYLE
1002
{
1070
    40
1040
1.0
1002
}
  0
LINE
  5
BF
  8
TEAM-HIDE
 10
513.0
 20
850.0
 30
0.0
 11
487.581628
 21
756.550104
 31
0.0
  0
LINE
  5
C2
  8
TEAM-HIDE
 10
-30.0
 20
751.550104
 30
0.0
 11
-30.0
 21
756.550104
 31
0.0
  0
LINE
  5
C3
  8
TEAM-HIDE
 10
-30.0
 20
751.550104
 30
0.0
 11
30.0
 21
751.550104
 31
0.0
  0
LINE
  5
C4
  8
TEAM-HIDE
 10
30.0
 20
751.550104
 30
0.0
 11
30.0
 21
756.550104
 31
0.0
  0
LINE
  5
C5
  8
TEAM-AXE
 10
-165.0
 20
787.5
 30
0.0
 11
-115.0
 21
787.5
 31
0.0
  0
LINE
  5
C8
  8
TEAM-AXE
 10
-140.0
 20
801.5
 30
0.0
 11
-140.0
 21
773.5
 31
0.0
  0
POLYLINE
  5
C9
  8
TEAM-HIDE
 66
     1
 10
0.0
 20
0.0
 30
0.0
 70
     1
  0
VERTEX
  5
1E3
  8
TEAM-HIDE
 10
-129.0
 20
778.5
 30
0.0
 42
1.0
  0
VERTEX
  5
1E4
  8
TEAM-HIDE
 10
-129.0
 20
796.5
 30
0.0
  0
VERTEX
  5
1E5
  8
TEAM-HIDE
 10
-151.0
 20
796.5
 30
0.0
 42
1.0
  0
VERTEX
  5
1E6
  8
TEAM-HIDE
 10
-151.0
 20
778.5
 30
0.0
  0
SEQEND
  5
1E7
  8
TEAM-HIDE
  0
LINE
  5
CA
  8
TEAM-AXE
 10
115.0
 20
787.5
 30
0.0
 11
165.0
 21
787.5
 31
0.0
  0
LINE
  5
CB
  8
TEAM-AXE
 10
140.0
 20
801.5
 30
0.0
 11
140.0
 21
773.5
 31
0.0
  0
POLYLINE
  5
CC
  8
TEAM-HIDE
 66
     1
 10
0.0
 20
0.0
 30
0.0
 70
     1
  0
VERTEX
  5
1E8
  8
TEAM-HIDE
 10
151.0
 20
778.5
 30
0.0
 42
1.0
  0
VERTEX
  5
1E9
  8
TEAM-HIDE
 10
151.0
 20
796.5
 30
0.0
  0
VERTEX
  5
1EA
  8
TEAM-HIDE
 10
129.0
 20
796.5
 30
0.0
 42
1.0
  0
VERTEX
  5
1EB
  8
TEAM-HIDE
 10
129.0
 20
778.5
 30
0.0
  0
SEQEND
  5
1EC
  8
TEAM-HIDE
  0
LINE
  5
CD
  8
TEAM-AXE
 10
0.0
 20
557.015383
 30
0.0
 11
0.0
 21
868.0
 31
0.0
  0
LINE
  5
CE
  8
TEAM-HIDE
 10
-513.0
 20
850.0
 30
0.0
 11
-487.581628
 21
756.550104
 31
0.0
  0
CIRCLE
  5
CF
  8
TEAM-HIDE
 10
-610.0
 20
750.0
 30
0.0
 40
5.0
  0
LINE
  5
D0
  8
TEAM-AXE
 10
-610.0
 20
756.0
 30
0.0
 11
-610.0
 21
744.0
 31
0.0
  0
LINE
  5
D1
  8
TEAM-AXE
 10
-616.0
 20
750.0
 30
0.0
 11
-604.0
 21
750.0
 31
0.0
  0
LINE
  5
D2
  8
TEAM-AXE
 10
-616.0
 20
825.0
 30
0.0
 11
-604.0
 21
825.0
 31
0.0
  0
LINE
  5
D3
  8
TEAM-AXE
 10
-610.0
 20
831.0
 30
0.0
 11
-610.0
 21
819.0
 31
0.0
  0
CIRCLE
  5
D4
  8
TEAM-HIDE
 10
-610.0
 20
825.0
 30
0.0
 40
5.0
  0
LINE
  5
D5
  8
TEAM-BODY
 10
-650.0
 20
850.0
 30
0.0
 11
-650.0
 21
725.0
 31
0.0
  0
TEXT
  5
D6
  8
TEAM-TXT
 10
-455.588387
 20
785.302846
 30
0.0
 40
30.0
  1
team 217318
 41
0.8
 51
15.0
  7
TEAM
  0
LINE
  5
D9
  8
TEAM-HIDE
 10
-487.581628
 20
756.550104
 30
0.0
 11
-30.0
 21
756.550104
 31
0.0
  0
LINE
  5
DA
  8
TEAM-AXE
 10
0.0
 20
480.0
 30
0.0
 11
0.0
 21
520.0
 31
0.0
  0
CIRCLE
  5
DB
  8
TEAM-KAN
 10
0.0
 20
500.0
 30
0.0
 40
20.0
  0
CIRCLE
  5
DD
  8
TEAM-INSP
 10
0.0
 20
0.0
 30
0.0
 40
10.0
  0
LINE
  5
DF
  8
TEAM-AXE
 10
20.0
 20
500.0
 30
0.0
 11
-20.0
 21
500.0
 31
0.0
  0
LINE
  5
E0
  8
TEAM-HIDE
 10
30.0
 20
756.550104
 30
0.0
 11
487.581628
 21
756.550104
 31
0.0
  0
DIMENSION
  5
E1
  8
TEAM-MAS
  2
*D14
 10
-698.106426
 20
825.0
 30
0.0
 11
-739.10987
 21
837.5
 31
0.0
 12
-12000.0
 22
-308000.0
 32
0.0
 13
-650.0
 23
850.0
 33
0.0
 14
-616.0
 24
825.0
 34
0.0
 50
90.0
1001
ACAD
1000
DSTYLE
1002
{
1070
    40
1040
1.0
1002
}
  0
DIMENSION
  5
F0
  8
TEAM-MAS
  2
*D13
 10
-698.106426
 20
750.0
 30
0.0
 11
-739.10987
 21
737.5
 31
0.0
 12
-12000.0
 22
-308000.0
 32
0.0
 13
-650.0
 23
725.0
 33
0.0
 14
-616.0
 24
750.0
 34
0.0
 50
90.0
1001
ACAD
1000
DSTYLE
1002
{
1070
    40
1040
1.0
1002
}
  0
DIMENSION
  5
FF
  8
TEAM-MAS
  2
*D12
 10
-610.0
 20
903.811907
 30
0.0
 11
-519.631931
 21
903.779577
 31
0.0
 12
-12000.0
 22
-308000.0
 32
0.0
 70
   128
 13
-650.0
 23
850.0
 33
0.0
 14
-610.0
 24
831.0
 34
0.0
1001
ACAD
1000
DSTYLE
1002
{
1070
    40
1040
1.0
1002
}
  0
DIMENSION
  5
10E
  8
TEAM-MAS
  2
*D11
 10
140.0
 20
903.811907
 30
0.0
 11
0.0
 21
903.811907
 31
0.0
 12
-12000.0
 22
-308000.0
 32
0.0
 13
-140.0
 23
801.5
 33
0.0
 14
140.0
 24
801.5
 34
0.0
1001
ACAD
1000
DSTYLE
1002
{
1070
    40
1040
1.0
1002
}
  0
CIRCLE
  5
11C
  8
TEAM-HIDE
 10
610.0
 20
825.0
 30
0.0
 40
5.0
  0
LINE
  5
11D
  8
TEAM-AXE
 10
610.0
 20
831.0
 30
0.0
 11
610.0
 21
819.0
 31
0.0
  0
LINE
  5
11E
  8
TEAM-AXE
 10
616.0
 20
825.0
 30
0.0
 11
604.0
 21
825.0
 31
0.0
  0
LINE
  5
11F
  8
TEAM-AXE
 10
616.0
 20
750.0
 30
0.0
 11
604.0
 21
750.0
 31
0.0
  0
LINE
  5
120
  8
TEAM-AXE
 10
610.0
 20
756.0
 30
0.0
 11
610.0
 21
744.0
 31
0.0
  0
CIRCLE
  5
121
  8
TEAM-HIDE
 10
610.0
 20
750.0
 30
0.0
 40
5.0
  0
LINE
  5
122
  8
TEAM-BODY
 10
650.0
 20
725.0
 30
0.0
 11
650.0
 21
850.0
 31
0.0
  0
LINE
  5
123
  8
TEAM-AXE
 10
334.949874
 20
590.0
 30
20.0
 11
315.050126
 21
590.0
 31
20.0
  0
LINE
  5
124
  8
TEAM-AXE
 10
325.0
 20
580.0
 30
20.0
 11
325.0
 21
600.0
 31
20.0
  0
CIRCLE
  5
125
  8
TEAM-COLD
 10
325.0
 20
590.0
 30
20.0
 40
10.0
  0
LINE
  5
127
  8
TEAM-AXE
 10
175.0
 20
579.783522
 30
20.0
 11
175.0
 21
599.783522
 31
20.0
  0
LINE
  5
128
  8
TEAM-AXE
 10
184.949874
 20
589.783522
 30
20.0
 11
165.050126
 21
589.783522
 31
20.0
  0
CIRCLE
  5
129
  8
TEAM-WARM
 10
175.0
 20
589.783522
 30
20.0
 40
10.0
  0
CIRCLE
  5
12B
  8
TEAM-WARM
 10
-325.0
 20
589.783522
 30
20.0
 40
10.0
  0
LINE
  5
12C
  8
TEAM-AXE
 10
-315.050126
 20
589.783522
 30
20.0
 11
-334.949874
 21
589.783522
 31
20.0
  0
LINE
  5
12D
  8
TEAM-AXE
 10
-325.0
 20
579.783522
 30
20.0
 11
-325.0
 21
599.783522
 31
20.0
  0
CIRCLE
  5
12E
  8
TEAM-COLD
 10
-175.0
 20
590.0
 30
20.0
 40
10.0
  0
LINE
  5
12F
  8
TEAM-AXE
 10
-175.0
 20
580.0
 30
20.0
 11
-175.0
 21
600.0
 31
20.0
  0
LINE
  5
130
  8
TEAM-AXE
 10
-165.050126
 20
590.0
 30
20.0
 11
-184.949874
 21
590.0
 31
20.0
  0
ENDSEC
  0
EOF
