  0
SECTION
  2
HEADER
  9
$ACADVER
  1
AC1009
  9
$INSBASE
 10
0.0
 20
0.0
 30
0.0
  9
$EXTMIN
 10
-227.733641
 20
-10.055417
 30
-20.000287
  9
$EXTMAX
 10
498.585044
 20
820.009597
 30
20.002415
  9
$LIMMIN
 10
-227.733641
 20
-10.055417
  9
$LIMMAX
 10
498.585044
 20
820.009597
  9
$ORTHOMODE
 70
     1
  9
$REGENMODE
 70
     1
  9
$FILLMODE
 70
     1
  9
$QTEXTMODE
 70
     0
  9
$MIRRTEXT
 70
     0
  9
$DRAGMODE
 70
     2
  9
$LTSCALE
 40
25.0
  9
$OSMODE
 70
     0
  9
$ATTMODE
 70
     1
  9
$TEXTSIZE
 40
200.0
  9
$TRACEWID
 40
1.0
  9
$TEXTSTYLE
  7
STANDARD
  9
$CLAYER
  8
TEAM-MAS
  9
$CELTYPE
  6
BYLAYER
  9
$CECOLOR
 62
   256
  9
$DIMSCALE
 40
1.0
  9
$DIMASZ
 40
20.0
  9
$DIMEXO
 40
10.0
  9
$DIMDLI
 40
1.0
  9
$DIMRND
 40
0.0
  9
$DIMDLE
 40
0.0
  9
$DIMEXE
 40
1.0
  9
$DIMTP
 40
0.0
  9
$DIMTM
 40
0.0
  9
$DIMTXT
 40
35.0
  9
$DIMCEN
 40
1.0
  9
$DIMTSZ
 40
0.0
  9
$DIMTOL
 70
     0
  9
$DIMLIM
 70
     0
  9
$DIMTIH
 70
     0
  9
$DIMTOH
 70
     0
  9
$DIMSE1
 70
     0
  9
$DIMSE2
 70
     0
  9
$DIMTAD
 70
     0
  9
$DIMZIN
 70
     0
  9
$DIMBLK
  1

  9
$DIMASO
 70
     1
  9
$DIMSHO
 70
     0
  9
$DIMPOST
  1

  9
$DIMAPOST
  1

  9
$DIMALT
 70
     0
  9
$DIMALTD
 70
     2
  9
$DIMALTF
 40
25.4
  9
$DIMLFAC
 40
1.0
  9
$DIMTOFL
 70
     0
  9
$DIMTVP
 40
0.0
  9
$DIMTIX
 70
     0
  9
$DIMSOXD
 70
     0
  9
$DIMSAH
 70
     0
  9
$DIMBLK1
  1

  9
$DIMBLK2
  1

  9
$DIMSTYLE
  2
TEAM
  9
$DIMCLRD
 70
     9
  9
$DIMCLRE
 70
     9
  9
$DIMCLRT
 70
    11
  9
$DIMTFAC
 40
1.0
  9
$DIMGAP
 40
15.0
  9
$LUNITS
 70
     2
  9
$LUPREC
 70
     1
  9
$SKETCHINC
 40
1.0
  9
$FILLETRAD
 40
50.0
  9
$AUNITS
 70
     0
  9
$AUPREC
 70
     0
  9
$MENU
  1
ROPLANS
  9
$ELEVATION
 40
0.0
  9
$PELEVATION
 40
0.0
  9
$THICKNESS
 40
0.0
  9
$LIMCHECK
 70
     0
  9
$BLIPMODE
 70
     1
  9
$CHAMFERA
 40
0.0
  9
$CHAMFERB
 40
0.0
  9
$SKPOLY
 70
     0
  9
$TDCREATE
 40
2450392.957851
  9
$TDUPDATE
 40
2455542.719065
  9
$TDINDWG
 40
2.657896
  9
$TDUSRTIMER
 40
2.657896
  9
$USRTIMER
 70
     1
  9
$ANGBASE
 50
0.0
  9
$ANGDIR
 70
     0
  9
$PDMODE
 70
     0
  9
$PDSIZE
 40
0.0
  9
$PLINEWID
 40
0.0
  9
$COORDS
 70
     2
  9
$SPLFRAME
 70
     0
  9
$SPLINETYPE
 70
     6
  9
$SPLINESEGS
 70
     8
  9
$ATTDIA
 70
     0
  9
$ATTREQ
 70
     0
  9
$HANDLING
 70
     1
  9
$HANDSEED
  5
185
  9
$SURFTAB1
 70
    36
  9
$SURFTAB2
 70
    36
  9
$SURFTYPE
 70
     6
  9
$SURFU
 70
     6
  9
$SURFV
 70
     6
  9
$UCSNAME
  2

  9
$UCSORG
 10
0.0
 20
0.0
 30
0.0
  9
$UCSXDIR
 10
1.0
 20
0.0
 30
0.0
  9
$UCSYDIR
 10
0.0
 20
1.0
 30
0.0
  9
$PUCSNAME
  2

  9
$PUCSORG
 10
0.0
 20
0.0
 30
0.0
  9
$PUCSXDIR
 10
1.0
 20
0.0
 30
0.0
  9
$PUCSYDIR
 10
0.0
 20
1.0
 30
0.0
  9
$USERI1
 70
     0
  9
$USERI2
 70
     0
  9
$USERI3
 70
     0
  9
$USERI4
 70
     0
  9
$USERI5
 70
     0
  9
$USERR1
 40
0.0
  9
$USERR2
 40
0.0
  9
$USERR3
 40
0.0
  9
$USERR4
 40
0.0
  9
$USERR5
 40
0.0
  9
$WORLDVIEW
 70
     1
  9
$SHADEDGE
 70
     0
  9
$SHADEDIF
 70
    70
  9
$TILEMODE
 70
     1
  9
$MAXACTVP
 70
    16
  9
$PLIMCHECK
 70
     0
  9
$PEXTMIN
 10
-0.805942
 20
0.005011
 30
0.0
  9
$PEXTMAX
 10
20.250094
 20
11.356329
 30
0.0
  9
$PLIMMIN
 10
0.0
 20
0.0
  9
$PLIMMAX
 10
12.0
 20
9.0
  9
$UNITMODE
 70
     0
  9
$VISRETAIN
 70
     0
  9
$PLINEGEN
 70
     0
  9
$PSLTSCALE
 70
     0
  0
ENDSEC
  0
SECTION
  2
TABLES
  0
TABLE
  2
VPORT
 70
     2
  0
VPORT
  2
*ACTIVE
 70
     0
 10
0.0
 20
0.0
 11
1.0
 21
1.0
 12
135.425702
 22
404.97709
 13
0.0
 23
0.0
 14
1.0
 24
1.0
 15
50.0
 25
50.0
 16
0.0
 26
0.0
 36
1.0
 17
0.0
 27
0.0
 37
0.0
 40
835.16265
 41
1.865779
 42
50.0
 43
0.0
 44
0.0
 50
0.0
 51
0.0
 71
     0
 72
   100
 73
     1
 74
     1
 75
     0
 76
     0
 77
     0
 78
     0
  0
ENDTAB
  0
TABLE
  2
LTYPE
 70
     3
  0
LTYPE
  2
CONTINUOUS
 70
     0
  3
Solid Line
 72
    65
 73
     0
 40
0.0
  0
LTYPE
  2
31
 70
     0
  3

 72
    65
 73
     4
 40
2.1
 49
1.5
 49
-0.3
 49
0.0
 49
-0.3
  0
LTYPE
  2
22
 70
     0
  3

 72
    65
 73
     2
 40
1.4
 49
1.2
 49
-0.2
  0
ENDTAB
  0
TABLE
  2
LAYER
 70
    11
  0
LAYER
  2
0
 70
     0
 62
     7
  6
CONTINUOUS
  0
LAYER
  2
DEFPOINTS
 70
     0
 62
     7
  6
CONTINUOUS
  0
LAYER
  2
TEAM-BODY
 70
     0
 62
     2
  6
CONTINUOUS
  0
LAYER
  2
TEAM-AXE
 70
     0
 62
    10
  6
31
  0
LAYER
  2
TEAM-MAS
 70
     0
 62
     9
  6
CONTINUOUS
  0
LAYER
  2
TEAM-TXT
 70
     0
 62
    11
  6
CONTINUOUS
  0
LAYER
  2
TEAM-COLD
 70
     0
 62
     3
  6
CONTINUOUS
  0
LAYER
  2
TEAM-HIDE
 70
     0
 62
     8
  6
22
  0
LAYER
  2
TEAM-KAN
 70
     0
 62
     6
  6
CONTINUOUS
  0
LAYER
  2
TEAM-WARM
 70
     0
 62
     1
  6
CONTINUOUS
  0
LAYER
  2
TEAM-INSP
 70
     0
 62
     5
  6
CONTINUOUS
  0
ENDTAB
  0
TABLE
  2
STYLE
 70
     2
  0
STYLE
  2
STANDARD
 70
     0
 40
0.0
 41
1.0
 50
0.0
 71
     0
 42
200.0
  3
txt
  4

  0
STYLE
  2
TEAM
 70
     0
 40
0.0
 41
0.8
 50
15.0
 71
     0
 42
7.0
  3
ROMANS.shx
  4

  0
ENDTAB
  0
TABLE
  2
VIEW
 70
     0
  0
ENDTAB
  0
TABLE
  2
UCS
 70
     0
  0
ENDTAB
  0
TABLE
  2
APPID
 70
     1
  0
APPID
  2
ACAD
 70
     0
  0
ENDTAB
  0
TABLE
  2
DIMSTYLE
 70
     1
  0
DIMSTYLE
  2
TEAM
 70
     0
  3

  4

  5

  6

  7

 40
1.0
 41
20.0
 42
10.0
 43
1.0
 44
1.0
 45
0.0
 46
0.0
 47
0.0
 48
0.0
140
35.0
141
1.0
142
0.0
143
25.4
144
1.0
145
0.0
146
1.0
147
15.0
 71
     0
 72
     0
 73
     0
 74
     0
 75
     0
 76
     0
 77
     0
 78
     0
170
     0
171
     2
172
     0
173
     0
174
     0
175
     0
176
     9
177
     9
178
    11
  0
ENDTAB
  0
ENDSEC
  0
SECTION
  2
BLOCKS
  0
BLOCK
  8
0
  2
$MODEL_SPACE
 70
     0
 10
0.0
 20
0.0
 30
0.0
  3
$MODEL_SPACE
  1

  0
ENDBLK
  5
16D
  8
0
  0
BLOCK
 67
     1
  8
0
  2
$PAPER_SPACE
 70
     0
 10
0.0
 20
0.0
 30
0.0
  3
$PAPER_SPACE
  1

  0
ENDBLK
  5
16B
 67
     1
  8
0
  0
BLOCK
  8
0
  2
*D0
 70
     1
 10
0.0
 20
0.0
 30
0.0
  3
*D0
  1

  0
LINE
  5
22
  8
0
  6
BYBLOCK
 62
     9
 10
8050.0
 20
72400.0
 30
0.0
 11
8351.513986
 21
72400.0
 31
0.0
  0
LINE
  5
23
  8
0
  6
BYBLOCK
 62
     9
 10
8220.0
 20
72000.0
 30
0.0
 11
8351.513986
 21
72000.0
 31
0.0
  0
LINE
  5
24
  8
0
  6
BYBLOCK
 62
     9
 10
8350.513986
 20
72380.0
 30
0.0
 11
8350.513986
 21
72248.26378
 31
0.0
  0
LINE
  5
25
  8
0
  6
BYBLOCK
 62
     9
 10
8350.513986
 20
72020.0
 30
0.0
 11
8350.513986
 21
72151.73622
 31
0.0
  0
SOLID
  5
26
  8
0
  6
BYBLOCK
 62
     9
 10
8347.180652
 20
72380.0
 30
0.0
 11
8353.847319
 21
72380.0
 31
0.0
 12
8350.513986
 22
72400.0
 32
0.0
 13
8350.513986
 23
72400.0
 33
0.0
  0
SOLID
  5
27
  8
0
  6
BYBLOCK
 62
     9
 10
8347.180652
 20
72020.0
 30
0.0
 11
8353.847319
 21
72020.0
 31
0.0
 12
8350.513986
 22
72000.0
 32
0.0
 13
8350.513986
 23
72000.0
 33
0.0
  0
TEXT
  5
28
  8
0
  6
BYBLOCK
 62
    11
 10
8368.013986
 20
72161.48622
 30
0.0
 40
35.0
  1
400
 50
90.0
  0
POINT
  5
29
  8
DEFPOINTS
  6
BYBLOCK
 62
     0
 10
8040.0
 20
72400.0
 30
0.0
  0
POINT
  5
2B
  8
DEFPOINTS
  6
BYBLOCK
 62
     0
 10
8210.0
 20
72000.0
 30
10.0
  0
POINT
  5
2C
  8
DEFPOINTS
  6
BYBLOCK
 62
     0
 10
8350.513986
 20
72000.0
 30
20.0
  0
ENDBLK
  5
2E
  8
0
  0
BLOCK
  8
0
  2
*D1
 70
     1
 10
0.0
 20
0.0
 30
0.0
  3
*D1
  1

  0
LINE
  5
B9
  8
0
  6
BYBLOCK
 62
     9
 10
7910.0
 20
72579.0
 30
0.0
 11
7910.0
 21
72630.546338
 31
0.0
  0
LINE
  5
BA
  8
0
  6
BYBLOCK
 62
     9
 10
8090.0
 20
72579.0
 30
0.0
 11
8090.0
 21
72630.546338
 31
0.0
  0
LINE
  5
BB
  8
0
  6
BYBLOCK
 62
     9
 10
7930.0
 20
72629.546338
 30
0.0
 11
7956.98622
 21
72629.546338
 31
0.0
  0
LINE
  5
BC
  8
0
  6
BYBLOCK
 62
     9
 10
8070.0
 20
72629.546338
 30
0.0
 11
8043.01378
 21
72629.546338
 31
0.0
  0
SOLID
  5
BD
  8
0
  6
BYBLOCK
 62
     9
 10
7930.0
 20
72632.879672
 30
0.0
 11
7930.0
 21
72626.213005
 31
0.0
 12
7910.0
 22
72629.546338
 32
0.0
 13
7910.0
 23
72629.546338
 33
0.0
  0
SOLID
  5
BE
  8
0
  6
BYBLOCK
 62
     9
 10
8070.0
 20
72632.879672
 30
0.0
 11
8070.0
 21
72626.213005
 31
0.0
 12
8090.0
 22
72629.546338
 32
0.0
 13
8090.0
 23
72629.546338
 33
0.0
  0
TEXT
  5
BF
  8
0
  6
BYBLOCK
 62
    11
 10
7966.73622
 20
72612.046338
 30
0.0
 40
35.0
  1
180
  0
POINT
  5
C0
  8
DEFPOINTS
  6
BYBLOCK
 62
     0
 10
7910.0
 20
72569.0
 30
0.0
  0
POINT
  5
C1
  8
DEFPOINTS
  6
BYBLOCK
 62
     0
 10
8090.0
 20
72569.0
 30
0.0
  0
POINT
  5
C2
  8
DEFPOINTS
  6
BYBLOCK
 62
     0
 10
8090.0
 20
72629.546338
 30
0.0
  0
ENDBLK
  5
C4
  8
0
  0
BLOCK
  8
0
  2
*D2
 70
     1
 10
0.0
 20
0.0
 30
0.0
  3
*D2
  1

  0
LINE
  5
50
  8
0
  6
BYBLOCK
 62
     9
 10
8225.0
 20
72604.057342
 30
0.0
 11
8225.0
 21
72672.880597
 31
0.0
  0
LINE
  5
51
  8
0
  6
BYBLOCK
 62
     9
 10
7775.0
 20
72604.057342
 30
0.0
 11
7775.0
 21
72672.880597
 31
0.0
  0
LINE
  5
52
  8
0
  6
BYBLOCK
 62
     9
 10
8205.0
 20
72671.880597
 30
0.0
 11
8048.26378
 21
72671.880597
 31
0.0
  0
LINE
  5
53
  8
0
  6
BYBLOCK
 62
     9
 10
7795.0
 20
72671.880597
 30
0.0
 11
7951.73622
 21
72671.880597
 31
0.0
  0
SOLID
  5
54
  8
0
  6
BYBLOCK
 62
     9
 10
8205.0
 20
72675.213931
 30
0.0
 11
8205.0
 21
72668.547264
 31
0.0
 12
8225.0
 22
72671.880597
 32
0.0
 13
8225.0
 23
72671.880597
 33
0.0
  0
SOLID
  5
55
  8
0
  6
BYBLOCK
 62
     9
 10
7795.0
 20
72675.213931
 30
0.0
 11
7795.0
 21
72668.547264
 31
0.0
 12
7775.0
 22
72671.880597
 32
0.0
 13
7775.0
 23
72671.880597
 33
0.0
  0
TEXT
  5
56
  8
0
  6
BYBLOCK
 62
    11
 10
7961.48622
 20
72654.380597
 30
0.0
 40
35.0
  1
450
  0
POINT
  5
57
  8
DEFPOINTS
  6
BYBLOCK
 62
     0
 10
8225.0
 20
72594.057342
 30
0.0
  0
POINT
  5
58
  8
DEFPOINTS
  6
BYBLOCK
 62
     0
 10
7775.0
 20
72594.057342
 30
0.0
  0
POINT
  5
59
  8
DEFPOINTS
  6
BYBLOCK
 62
     0
 10
7775.0
 20
72671.880597
 30
0.0
  0
ENDBLK
  5
5B
  8
0
  0
BLOCK
  8
0
  2
*D3
 70
     1
 10
0.0
 20
0.0
 30
0.0
  3
*D3
  1

  0
LINE
  5
70
  8
0
  6
BYBLOCK
 62
     9
 10
8200.0
 20
72600.0
 30
0.0
 11
8305.329716
 21
72600.0
 31
0.0
  0
LINE
  5
71
  8
0
  6
BYBLOCK
 62
     9
 10
8043.711313
 20
72449.99769
 30
0.0
 11
8305.329716
 21
72449.99769
 31
0.0
  0
LINE
  5
72
  8
0
  6
BYBLOCK
 62
     9
 10
8304.329716
 20
72580.0
 30
0.0
 11
8304.329716
 21
72565.0
 31
0.0
  0
LINE
  5
73
  8
0
  6
BYBLOCK
 62
     9
 10
8304.329716
 20
72469.99769
 30
0.0
 11
8304.329716
 21
72494.48622
 31
0.0
  0
TEXT
  5
74
  8
0
  6
BYBLOCK
 62
    11
 10
8321.829716
 20
72504.23622
 30
0.0
 40
35.0
  1
150
 50
90.0
  0
SOLID
  5
75
  8
0
  6
BYBLOCK
 62
     9
 10
8300.996383
 20
72580.0
 30
0.0
 11
8307.663049
 21
72580.0
 31
0.0
 12
8304.329716
 22
72600.0
 32
0.0
 13
8304.329716
 23
72600.0
 33
0.0
  0
SOLID
  5
76
  8
0
  6
BYBLOCK
 62
     9
 10
8300.996383
 20
72469.99769
 30
0.0
 11
8307.663049
 21
72469.99769
 31
0.0
 12
8304.329716
 22
72449.99769
 32
0.0
 13
8304.329716
 23
72449.99769
 33
0.0
  0
POINT
  5
77
  8
DEFPOINTS
  6
BYBLOCK
 62
     0
 10
8190.0
 20
72600.0
 30
10.0
  0
POINT
  5
78
  8
DEFPOINTS
  6
BYBLOCK
 62
     0
 10
8033.711313
 20
72449.99769
 30
0.0
  0
POINT
  5
79
  8
DEFPOINTS
  6
BYBLOCK
 62
     0
 10
8304.329716
 20
72449.99769
 30
10.0
  0
ENDBLK
  5
7B
  8
0
  0
BLOCK
  8
0
  2
*D4
 70
     1
 10
0.0
 20
0.0
 30
0.0
  3
*D4
  1

  0
LINE
  5
C7
  8
0
  6
BYBLOCK
 62
     9
 10
7960.0
 20
72379.783522
 30
0.0
 11
7960.0
 21
72226.604288
 31
0.0
  0
LINE
  5
C8
  8
0
  6
BYBLOCK
 62
     9
 10
8040.0
 20
72380.0
 30
0.0
 11
8040.0
 21
72226.604288
 31
0.0
  0
LINE
  5
C9
  8
0
  6
BYBLOCK
 62
     9
 10
7980.0
 20
72227.604288
 30
0.0
 11
7995.0
 21
72227.604288
 31
0.0
  0
LINE
  5
CA
  8
0
  6
BYBLOCK
 62
     9
 10
8020.0
 20
72227.604288
 30
0.0
 11
8005.0
 21
72227.604288
 31
0.0
  0
TEXT
  5
CB
  8
0
  6
BYBLOCK
 62
    11
 10
7975.48622
 20
72210.104288
 30
0.0
 40
35.0
  1
80
  0
SOLID
  5
CC
  8
0
  6
BYBLOCK
 62
     9
 10
7980.0
 20
72230.937622
 30
0.0
 11
7980.0
 21
72224.270955
 31
0.0
 12
7960.0
 22
72227.604288
 32
0.0
 13
7960.0
 23
72227.604288
 33
0.0
  0
SOLID
  5
CD
  8
0
  6
BYBLOCK
 62
     9
 10
8020.0
 20
72230.937622
 30
0.0
 11
8020.0
 21
72224.270955
 31
0.0
 12
8040.0
 22
72227.604288
 32
0.0
 13
8040.0
 23
72227.604288
 33
0.0
  0
POINT
  5
CE
  8
DEFPOINTS
  6
BYBLOCK
 62
     0
 10
7960.0
 20
72389.783522
 30
20.0
  0
POINT
  5
CF
  8
DEFPOINTS
  6
BYBLOCK
 62
     0
 10
8040.0
 20
72390.0
 30
20.0
  0
POINT
  5
D0
  8
DEFPOINTS
  6
BYBLOCK
 62
     0
 10
8040.0
 20
72227.604288
 30
30.0
  0
ENDBLK
  5
D2
  8
0
  0
BLOCK
  8
0
  2
*D5
 70
     1
 10
0.0
 20
0.0
 30
0.0
  3
*D5
  1

  0
LINE
  5
9D
  8
0
  6
BYBLOCK
 62
     9
 10
8307.329716
 20
72600.0
 30
0.0
 11
8439.851898
 21
72600.0
 31
0.0
  0
LINE
  5
9E
  8
0
  6
BYBLOCK
 62
     9
 10
8010.0
 20
72000.0
 30
0.0
 11
8439.851898
 21
72000.0
 31
0.0
  0
LINE
  5
9F
  8
0
  6
BYBLOCK
 62
     9
 10
8438.851898
 20
72580.0
 30
0.0
 11
8438.851898
 21
72347.561024
 31
0.0
  0
LINE
  5
A0
  8
0
  6
BYBLOCK
 62
     9
 10
8438.851898
 20
72020.0
 30
0.0
 11
8438.851898
 21
72252.438976
 31
0.0
  0
SOLID
  5
A1
  8
0
  6
BYBLOCK
 62
     9
 10
8435.518565
 20
72580.0
 30
0.0
 11
8442.185232
 21
72580.0
 31
0.0
 12
8438.851898
 22
72600.0
 32
0.0
 13
8438.851898
 23
72600.0
 33
0.0
  0
SOLID
  5
A2
  8
0
  6
BYBLOCK
 62
     9
 10
8435.518565
 20
72020.0
 30
0.0
 11
8442.185232
 21
72020.0
 31
0.0
 12
8438.851898
 22
72000.0
 32
0.0
 13
8438.851898
 23
72000.0
 33
0.0
  0
TEXT
  5
A3
  8
0
  6
BYBLOCK
 62
    11
 10
8456.351898
 20
72264.283465
 30
0.0
 40
35.0
  1
600
 50
90.0
  0
POINT
  5
A4
  8
DEFPOINTS
  6
BYBLOCK
 62
     0
 10
8297.329716
 20
72600.0
 30
10.0
  0
POINT
  5
A5
  8
DEFPOINTS
  6
BYBLOCK
 62
     0
 10
8000.0
 20
72000.0
 30
0.0
  0
POINT
  5
A6
  8
DEFPOINTS
  6
BYBLOCK
 62
     0
 10
8438.851898
 20
72000.0
 30
10.0
  0
ENDBLK
  5
A8
  8
0
  0
BLOCK
  8
0
  2
*D6
 70
     1
 10
0.0
 20
0.0
 30
0.0
  3
*D6
  1

  0
LINE
  5
42
  8
0
  6
BYBLOCK
 62
     9
 10
8050.0
 20
72400.0
 30
0.0
 11
8351.513986
 21
72400.0
 31
0.0
  0
LINE
  5
43
  8
0
  6
BYBLOCK
 62
     9
 10
8233.592488
 20
72600.0
 30
0.0
 11
8351.513986
 21
72600.0
 31
0.0
  0
LINE
  5
44
  8
0
  6
BYBLOCK
 62
     9
 10
8350.513986
 20
72420.0
 30
0.0
 11
8350.513986
 21
72453.041831
 31
0.0
  0
LINE
  5
45
  8
0
  6
BYBLOCK
 62
     9
 10
8350.513986
 20
72580.0
 30
0.0
 11
8350.513986
 21
72546.958169
 31
0.0
  0
SOLID
  5
46
  8
0
  6
BYBLOCK
 62
     9
 10
8347.180652
 20
72420.0
 30
0.0
 11
8353.847319
 21
72420.0
 31
0.0
 12
8350.513986
 22
72400.0
 32
0.0
 13
8350.513986
 23
72400.0
 33
0.0
  0
SOLID
  5
47
  8
0
  6
BYBLOCK
 62
     9
 10
8347.180652
 20
72580.0
 30
0.0
 11
8353.847319
 21
72580.0
 31
0.0
 12
8350.513986
 22
72600.0
 32
0.0
 13
8350.513986
 23
72600.0
 33
0.0
  0
TEXT
  5
48
  8
0
  6
BYBLOCK
 62
    11
 10
8368.013986
 20
72463.68061
 30
0.0
 40
35.0
  1
200
 50
90.0
  0
POINT
  5
49
  8
DEFPOINTS
  6
BYBLOCK
 62
     0
 10
8040.0
 20
72400.0
 30
0.0
  0
POINT
  5
4A
  8
DEFPOINTS
  6
BYBLOCK
 62
     0
 10
8223.592488
 20
72600.0
 30
0.0
  0
POINT
  5
4B
  8
DEFPOINTS
  6
BYBLOCK
 62
     0
 10
8350.513986
 20
72600.0
 30
0.0
  0
ENDBLK
  5
4D
  8
0
  0
BLOCK
  8
0
  2
*D7
 70
     1
 10
0.0
 20
0.0
 30
0.0
  3
*D7
  1

  0
LINE
  5
FE
  8
0
  6
BYBLOCK
 62
     9
 10
8238.592488
 20
72600.0
 30
0.0
 11
8263.43822
 21
72600.0
 31
0.0
  0
LINE
  5
FF
  8
0
  6
BYBLOCK
 62
     9
 10
8125.0
 20
72555.0
 30
0.0
 11
8263.43822
 21
72555.0
 31
0.0
  0
LINE
  5
100
  8
0
  6
BYBLOCK
 62
     9
 10
8262.43822
 20
72620.0
 30
0.0
 11
8262.43822
 21
72640.0
 31
0.0
  0
LINE
  5
101
  8
0
  6
BYBLOCK
 62
     9
 10
8262.43822
 20
72535.0
 30
0.0
 11
8262.43822
 21
72515.0
 31
0.0
  0
TEXT
  5
102
  8
0
  6
BYBLOCK
 62
    11
 10
8280.446515
 20
72617.834128
 30
0.0
 40
35.0
  1
45
 50
90.0
  0
LINE
  5
103
  8
0
  6
BYBLOCK
 62
     9
 10
8262.43822
 20
72600.0
 30
0.0
 11
8262.43822
 21
72555.0
 31
0.0
  0
SOLID
  5
104
  8
0
  6
BYBLOCK
 62
     9
 10
8259.104887
 20
72620.0
 30
0.0
 11
8265.771553
 21
72620.0
 31
0.0
 12
8262.43822
 22
72600.0
 32
0.0
 13
8262.43822
 23
72600.0
 33
0.0
  0
SOLID
  5
105
  8
0
  6
BYBLOCK
 62
     9
 10
8259.104887
 20
72535.0
 30
0.0
 11
8265.771553
 21
72535.0
 31
0.0
 12
8262.43822
 22
72555.0
 32
0.0
 13
8262.43822
 23
72555.0
 33
0.0
  0
POINT
  5
106
  8
DEFPOINTS
  6
BYBLOCK
 62
     0
 10
8228.592488
 20
72600.0
 30
0.0
  0
POINT
  5
107
  8
DEFPOINTS
  6
BYBLOCK
 62
     0
 10
8115.0
 20
72555.0
 30
0.0
  0
POINT
  5
108
  8
DEFPOINTS
  6
BYBLOCK
 62
     0
 10
8262.43822
 20
72555.0
 30
0.0
  0
ENDBLK
  5
10A
  8
0
  0
BLOCK
  8
0
  2
*D8
 70
     1
 10
0.0
 20
0.0
 30
0.0
  3
*D8
  1

  0
LINE
  5
62
  8
0
  6
BYBLOCK
 62
     9
 10
7923.5
 20
72770.000007
 30
0.0
 11
7923.5
 21
72740.185215
 31
0.0
  0
LINE
  5
63
  8
0
  6
BYBLOCK
 62
     9
 10
8076.5
 20
72770.000007
 30
0.0
 11
8076.5
 21
72740.185215
 31
0.0
  0
LINE
  5
64
  8
0
  6
BYBLOCK
 62
     9
 10
7943.5
 20
72741.185215
 30
0.0
 11
7958.5
 21
72741.185215
 31
0.0
  0
LINE
  5
65
  8
0
  6
BYBLOCK
 62
     9
 10
8056.5
 20
72741.185215
 30
0.0
 11
8041.5
 21
72741.185215
 31
0.0
  0
TEXT
  5
66
  8
0
  6
BYBLOCK
 62
    11
 10
7964.743939
 20
72723.547387
 30
0.0
 40
35.0
  1
153
  0
SOLID
  5
67
  8
0
  6
BYBLOCK
 62
     9
 10
7943.5
 20
72744.518548
 30
0.0
 11
7943.5
 21
72737.851882
 31
0.0
 12
7923.5
 22
72741.185215
 32
0.0
 13
7923.5
 23
72741.185215
 33
0.0
  0
SOLID
  5
68
  8
0
  6
BYBLOCK
 62
     9
 10
8056.5
 20
72744.518548
 30
0.0
 11
8056.5
 21
72737.851882
 31
0.0
 12
8076.5
 22
72741.185215
 32
0.0
 13
8076.5
 23
72741.185215
 33
0.0
  0
POINT
  5
69
  8
DEFPOINTS
  6
BYBLOCK
 62
     0
 10
7923.5
 20
72780.000007
 30
0.0
  0
POINT
  5
6A
  8
DEFPOINTS
  6
BYBLOCK
 62
     0
 10
8076.5
 20
72780.000007
 30
0.0
  0
POINT
  5
6B
  8
DEFPOINTS
  6
BYBLOCK
 62
     0
 10
8076.5
 20
72741.185215
 30
0.0
  0
ENDBLK
  5
6D
  8
0
  0
BLOCK
  8
0
  2
*D9
 70
     1
 10
0.0
 20
0.0
 30
0.0
  3
*D9
  1

  0
LINE
  5
81
  8
0
  6
BYBLOCK
 62
     9
 10
8106.5
 20
72800.000007
 30
0.0
 11
8483.797637
 21
72800.000007
 31
0.0
  0
LINE
  5
82
  8
0
  6
BYBLOCK
 62
     9
 10
8010.0
 20
72000.0
 30
0.0
 11
8483.797637
 21
72000.0
 31
0.0
  0
LINE
  5
83
  8
0
  6
BYBLOCK
 62
     9
 10
8482.797637
 20
72780.000007
 30
0.0
 11
8482.797637
 21
72446.513783
 31
0.0
  0
LINE
  5
84
  8
0
  6
BYBLOCK
 62
     9
 10
8482.797637
 20
72020.0
 30
0.0
 11
8482.797637
 21
72353.486224
 31
0.0
  0
SOLID
  5
85
  8
0
  6
BYBLOCK
 62
     9
 10
8479.464304
 20
72780.000007
 30
0.0
 11
8486.130971
 21
72780.000007
 31
0.0
 12
8482.797637
 22
72800.000007
 32
0.0
 13
8482.797637
 23
72800.000007
 33
0.0
  0
SOLID
  5
86
  8
0
  6
BYBLOCK
 62
     9
 10
8479.464304
 20
72020.0
 30
0.0
 11
8486.130971
 21
72020.0
 31
0.0
 12
8482.797637
 22
72000.0
 32
0.0
 13
8482.797637
 23
72000.0
 33
0.0
  0
TEXT
  5
87
  8
0
  6
BYBLOCK
 62
    11
 10
8500.297637
 20
72363.236224
 30
0.0
 40
35.0
  1
800
 50
90.0
  0
POINT
  5
88
  8
DEFPOINTS
  6
BYBLOCK
 62
     0
 10
8096.5
 20
72800.000007
 30
0.0
  0
POINT
  5
89
  8
DEFPOINTS
  6
BYBLOCK
 62
     0
 10
8000.0
 20
72000.0
 30
0.0
  0
POINT
  5
8A
  8
DEFPOINTS
  6
BYBLOCK
 62
     0
 10
8482.797637
 20
72000.0
 30
0.0
  0
ENDBLK
  5
8C
  8
0
  0
BLOCK
  8
0
  2
*D10
 70
     1
 10
0.0
 20
0.0
 30
0.0
  3
*D10
  1

  0
LINE
  5
8F
  8
0
  6
BYBLOCK
 62
     9
 10
7970.186077
 20
72600.000007
 30
0.0
 11
8439.851898
 21
72600.000007
 31
0.0
  0
LINE
  5
90
  8
0
  6
BYBLOCK
 62
     9
 10
8180.686077
 20
72800.000007
 30
0.0
 11
8439.851898
 21
72800.000007
 31
0.0
  0
LINE
  5
91
  8
0
  6
BYBLOCK
 62
     9
 10
8438.851898
 20
72620.000007
 30
0.0
 11
8438.851898
 21
72653.041838
 31
0.0
  0
LINE
  5
92
  8
0
  6
BYBLOCK
 62
     9
 10
8438.851898
 20
72780.000007
 30
0.0
 11
8438.851898
 21
72746.958176
 31
0.0
  0
SOLID
  5
93
  8
0
  6
BYBLOCK
 62
     9
 10
8435.518565
 20
72620.000007
 30
0.0
 11
8442.185232
 21
72620.000007
 31
0.0
 12
8438.851898
 22
72600.000007
 32
0.0
 13
8438.851898
 23
72600.000007
 33
0.0
  0
SOLID
  5
94
  8
0
  6
BYBLOCK
 62
     9
 10
8435.518565
 20
72780.000007
 30
0.0
 11
8442.185232
 21
72780.000007
 31
0.0
 12
8438.851898
 22
72800.000007
 32
0.0
 13
8438.851898
 23
72800.000007
 33
0.0
  0
TEXT
  5
95
  8
0
  6
BYBLOCK
 62
    11
 10
8456.351898
 20
72663.680617
 30
0.0
 40
35.0
  1
200
 50
90.0
  0
POINT
  5
96
  8
DEFPOINTS
  6
BYBLOCK
 62
     0
 10
7960.186077
 20
72600.000007
 30
0.0
  0
POINT
  5
97
  8
DEFPOINTS
  6
BYBLOCK
 62
     0
 10
8170.686077
 20
72800.000007
 30
0.0
  0
POINT
  5
98
  8
DEFPOINTS
  6
BYBLOCK
 62
     0
 10
8438.851898
 20
72800.000007
 30
0.0
  0
ENDBLK
  5
9A
  8
0
  0
BLOCK
  8
0
  2
*D11
 70
     1
 10
0.0
 20
0.0
 30
0.0
  3
*D11
  1

  0
LINE
  5
31
  8
0
  6
BYBLOCK
 62
     9
 10
8010.0
 20
72330.0
 30
0.0
 11
8399.882371
 21
72330.0
 31
0.0
  0
LINE
  5
32
  8
0
  6
BYBLOCK
 62
     9
 10
8268.368385
 20
72000.0
 30
0.0
 11
8399.882371
 21
72000.0
 31
0.0
  0
LINE
  5
33
  8
0
  6
BYBLOCK
 62
     9
 10
8398.882371
 20
72310.0
 30
0.0
 11
8398.882371
 21
72211.51378
 31
0.0
  0
LINE
  5
34
  8
0
  6
BYBLOCK
 62
     9
 10
8398.882371
 20
72020.0
 30
0.0
 11
8398.882371
 21
72118.48622
 31
0.0
  0
SOLID
  5
35
  8
0
  6
BYBLOCK
 62
     9
 10
8395.549037
 20
72310.0
 30
0.0
 11
8402.215704
 21
72310.0
 31
0.0
 12
8398.882371
 22
72330.0
 32
0.0
 13
8398.882371
 23
72330.0
 33
0.0
  0
SOLID
  5
36
  8
0
  6
BYBLOCK
 62
     9
 10
8395.549037
 20
72020.0
 30
0.0
 11
8402.215704
 21
72020.0
 31
0.0
 12
8398.882371
 22
72000.0
 32
0.0
 13
8398.882371
 23
72000.0
 33
0.0
  0
TEXT
  5
37
  8
0
  6
BYBLOCK
 62
    11
 10
8416.382371
 20
72128.23622
 30
0.0
 40
35.0
  1
330
 50
90.0
  0
POINT
  5
38
  8
DEFPOINTS
  6
BYBLOCK
 62
     0
 10
8000.0
 20
72330.0
 30
0.0
  0
POINT
  5
39
  8
DEFPOINTS
  6
BYBLOCK
 62
     0
 10
8258.368385
 20
72000.0
 30
10.0
  0
POINT
  5
3A
  8
DEFPOINTS
  6
BYBLOCK
 62
     0
 10
8398.882371
 20
72000.0
 30
20.0
  0
ENDBLK
  5
3C
  8
0
  0
BLOCK
  8
0
  2
*D12
 70
     1
 10
0.0
 20
0.0
 30
0.0
  3
*D12
  1

  0
LINE
  5
AB
  8
0
  6
BYBLOCK
 62
     9
 10
8010.0
 20
72330.0
 30
0.0
 11
8399.882371
 21
72330.0
 31
0.0
  0
LINE
  5
AC
  8
0
  6
BYBLOCK
 62
     9
 10
8281.960873
 20
72600.0
 30
0.0
 11
8399.882371
 21
72600.0
 31
0.0
  0
LINE
  5
AD
  8
0
  6
BYBLOCK
 62
     9
 10
8398.882371
 20
72350.0
 30
0.0
 11
8398.882371
 21
72418.041831
 31
0.0
  0
LINE
  5
AE
  8
0
  6
BYBLOCK
 62
     9
 10
8398.882371
 20
72580.0
 30
0.0
 11
8398.882371
 21
72511.958169
 31
0.0
  0
SOLID
  5
AF
  8
0
  6
BYBLOCK
 62
     9
 10
8395.549037
 20
72350.0
 30
0.0
 11
8402.215704
 21
72350.0
 31
0.0
 12
8398.882371
 22
72330.0
 32
0.0
 13
8398.882371
 23
72330.0
 33
0.0
  0
SOLID
  5
B0
  8
0
  6
BYBLOCK
 62
     9
 10
8395.549037
 20
72580.0
 30
0.0
 11
8402.215704
 21
72580.0
 31
0.0
 12
8398.882371
 22
72600.0
 32
0.0
 13
8398.882371
 23
72600.0
 33
0.0
  0
TEXT
  5
B1
  8
0
  6
BYBLOCK
 62
    11
 10
8416.382371
 20
72428.68061
 30
0.0
 40
35.0
  1
270
 50
90.0
  0
POINT
  5
B2
  8
DEFPOINTS
  6
BYBLOCK
 62
     0
 10
8000.0
 20
72330.0
 30
0.0
  0
POINT
  5
B3
  8
DEFPOINTS
  6
BYBLOCK
 62
     0
 10
8271.960873
 20
72600.0
 30
0.0
  0
POINT
  5
B4
  8
DEFPOINTS
  6
BYBLOCK
 62
     0
 10
8398.882371
 20
72600.0
 30
0.0
  0
ENDBLK
  5
B6
  8
0
  0
ENDSEC
  0
SECTION
  2
ENTITIES
  0
DIMENSION
  5
20
  8
TEAM-MAS
  2
*D0
 10
350.513986
 20
0.0
 30
20.0
 11
350.513986
 21
200.0
 31
0.0
 12
-8000.0
 22
-72000.0
 32
0.0
 13
40.0
 23
400.0
 33
0.0
 14
210.0
 24
0.0
 34
10.0
 50
90.0
1001
ACAD
1000
DSTYLE
1002
{
1070
    40
1040
1.0
1002
}
  0
DIMENSION
  5
2F
  8
TEAM-MAS
  2
*D11
 10
398.882371
 20
0.0
 30
20.0
 11
398.882371
 21
165.0
 31
0.0
 12
-8000.0
 22
-72000.0
 32
0.0
 13
0.0
 23
330.0
 33
0.0
 14
258.368385
 24
0.0
 34
10.0
 50
90.0
1001
ACAD
1000
DSTYLE
1002
{
1070
    40
1040
1.0
1002
}
  0
LINE
  5
3D
  8
TEAM-BODY
 10
168.952384
 20
470.057342
 30
0.0
 11
-169.019528
 21
470.057342
 31
0.0
  0
LINE
  5
3F
  8
TEAM-BODY
 10
0.0
 20
600.0
 30
0.0
 11
219.406838
 21
600.043533
 31
0.0
  0
DIMENSION
  5
40
  8
TEAM-MAS
  2
*D6
 10
350.513986
 20
600.0
 30
0.0
 11
350.513986
 21
500.0
 31
0.0
 12
-8000.0
 22
-72000.0
 32
0.0
 13
40.0
 23
400.0
 33
0.0
 14
223.592488
 24
600.0
 34
0.0
 50
90.0
1001
ACAD
1000
DSTYLE
1002
{
1070
    40
1040
1.0
1002
}
  0
DIMENSION
  5
4E
  8
TEAM-MAS
  2
*D2
 10
-225.0
 20
671.880597
 30
0.0
 11
0.0
 21
671.880597
 31
0.0
 12
-8000.0
 22
-72000.0
 32
0.0
 13
225.0
 23
594.057342
 33
0.0
 14
-225.0
 24
594.057342
 34
0.0
1001
ACAD
1000
DSTYLE
1002
{
1070
    40
1040
1.0
1002
}
  0
LINE
  5
5C
  8
TEAM-AXE
 10
96.5
 20
800.000007
 30
0.0
 11
56.5
 21
800.000007
 31
0.0
  0
LINE
  5
5F
  8
TEAM-AXE
 10
56.5
 20
800.000007
 30
0.0
 11
96.5
 21
800.000007
 31
0.0
  0
DIMENSION
  5
60
  8
TEAM-MAS
  2
*D8
 10
76.5
 20
741.185215
 30
0.0
 11
-1.281187
 21
741.047387
 31
0.0
 12
-8000.0
 22
-72000.0
 32
0.0
 70
   128
 13
-76.5
 23
780.000007
 33
0.0
 14
76.5
 24
780.000007
 34
0.0
1001
ACAD
1000
DSTYLE
1002
{
1070
    40
1040
1.0
1002
}
  0
DIMENSION
  5
6E
  8
TEAM-MAS
  2
*D3
 10
304.329716
 20
449.99769
 30
10.0
 11
304.329716
 21
537.5
 31
0.0
 12
-8000.0
 22
-72000.0
 32
0.0
 70
   128
 13
190.0
 23
600.0
 33
10.0
 14
33.711313
 24
449.99769
 34
0.0
 50
90.0
1001
ACAD
1000
DSTYLE
1002
{
1070
    40
1040
1.0
1002
}
  0
TEXT
  5
7C
  8
TEAM-TXT
 10
-102.315485
 20
477.20834
 30
0.0
 40
30.0
  1
team 221048
 41
0.8
 51
15.0
  7
TEAM
  0
DIMENSION
  5
7F
  8
TEAM-MAS
  2
*D9
 10
482.797637
 20
0.0
 30
0.0
 11
482.797637
 21
400.000004
 31
0.0
 12
-8000.0
 22
-72000.0
 32
0.0
 13
96.5
 23
800.000007
 33
0.0
 14
0.0
 24
0.0
 34
0.0
 50
90.0
1001
ACAD
1000
DSTYLE
1002
{
1070
    40
1040
1.0
1002
}
  0
DIMENSION
  5
8D
  8
TEAM-MAS
  2
*D10
 10
438.851898
 20
800.000007
 30
0.0
 11
438.851898
 21
700.000007
 31
0.0
 12
-8000.0
 22
-72000.0
 32
0.0
 13
-39.813923
 23
600.000007
 33
0.0
 14
170.686077
 24
800.000007
 34
0.0
 50
90.0
1001
ACAD
1000
DSTYLE
1002
{
1070
    40
1040
1.0
1002
}
  0
DIMENSION
  5
9B
  8
TEAM-MAS
  2
*D5
 10
438.851898
 20
0.0
 30
10.0
 11
438.851898
 21
300.0
 31
0.0
 12
-8000.0
 22
-72000.0
 32
0.0
 13
297.329716
 23
600.0
 33
10.0
 14
0.0
 24
0.0
 34
0.0
 50
90.0
1001
ACAD
1000
DSTYLE
1002
{
1070
    40
1040
1.0
1002
}
  0
DIMENSION
  5
A9
  8
TEAM-MAS
  2
*D12
 10
398.882371
 20
600.0
 30
0.0
 11
398.882371
 21
465.0
 31
0.0
 12
-8000.0
 22
-72000.0
 32
0.0
 13
0.0
 23
330.0
 33
0.0
 14
271.960873
 24
600.0
 34
0.0
 50
90.0
1001
ACAD
1000
DSTYLE
1002
{
1070
    40
1040
1.0
1002
}
  0
DIMENSION
  5
B7
  8
TEAM-MAS
  2
*D1
 10
90.0
 20
629.546338
 30
0.0
 11
0.0
 21
629.546338
 31
0.0
 12
-8000.0
 22
-72000.0
 32
0.0
 13
-90.0
 23
569.0
 33
0.0
 14
90.0
 24
569.0
 34
0.0
1001
ACAD
1000
DSTYLE
1002
{
1070
    40
1040
1.0
1002
}
  0
DIMENSION
  5
C5
  8
TEAM-MAS
  2
*D4
 10
40.0
 20
227.604288
 30
10.0
 11
0.0
 21
227.604288
 31
-20.0
 12
-8000.0
 22
-72000.0
 32
-20.0
 70
   128
 13
-40.0
 23
389.783522
 33
0.0
 14
40.0
 24
390.0
 34
0.0
1001
ACAD
1000
DSTYLE
1002
{
1070
    40
1040
1.0
1002
}
  0
ARC
  5
D3
  8
TEAM-BODY
 10
-169.019528
 20
520.057342
 30
0.0
 40
50.0
 50
185.059805
 51
270.0
  0
LINE
  5
D4
  8
TEAM-BODY
 10
-219.824233
 20
600.0
 30
0.0
 11
0.0
 21
600.0
 31
0.0
  0
ARC
  5
D5
  8
TEAM-BODY
 10
-218.834687
 20
593.912904
 30
0.0
 40
6.167004
 50
99.233484
 51
178.657944
  0
ARC
  5
D6
  8
TEAM-BODY
 10
272.229939
 20
613.170364
 30
0.0
 40
497.597146
 50
182.201309
 51
187.705829
  0
ARC
  5
D7
  8
TEAM-BODY
 10
483.740191
 20
577.853037
 30
0.0
 40
705.313355
 50
182.55193
 51
185.059805
  0
LINE
  5
D8
  8
TEAM-BODY
 10
0.0
 20
600.0
 30
0.0
 11
0.0
 21
600.0
 31
0.0
  0
LINE
  5
D9
  8
TEAM-AXE
 10
40.0
 20
390.0
 30
0.0
 11
40.0
 21
410.0
 31
0.0
  0
CIRCLE
  5
DA
  8
TEAM-INSP
 10
0.0
 20
0.0
 30
0.0
 40
10.0
  0
LINE
  5
DC
  8
TEAM-AXE
 10
-56.5
 20
800.000007
 30
0.0
 11
-96.5
 21
800.000007
 31
0.0
  0
LINE
  5
DD
  8
TEAM-AXE
 10
-96.5
 20
800.000007
 30
0.0
 11
-56.5
 21
800.000007
 31
0.0
  0
CIRCLE
  5
DE
  8
TEAM-WARM
 10
-76.5
 20
800.000007
 30
0.0
 40
10.0
  0
LINE
  5
E0
  8
TEAM-AXE
 10
-76.5
 20
820.000007
 30
0.0
 11
-76.5
 21
780.000007
 31
0.0
210
-0.0
220
-0.0
230
-1.0
  0
LINE
  5
E1
  8
TEAM-AXE
 10
-76.5
 20
820.000007
 30
0.0
 11
-76.5
 21
780.000007
 31
0.0
210
0.0
220
-0.0
230
-1.0
  0
POLYLINE
  5
E2
  8
TEAM-BODY
 66
     1
 10
0.0
 20
0.0
 30
0.0
  0
VERTEX
  5
173
  8
TEAM-BODY
 10
-36.768705
 20
470.057342
 30
0.0
  0
VERTEX
  5
174
  8
TEAM-BODY
 10
-35.475007
 20
451.605151
 30
0.0
 42
0.399578
  0
VERTEX
  5
175
  8
TEAM-BODY
 10
-33.711313
 20
449.99769
 30
0.0
  0
VERTEX
  5
176
  8
TEAM-BODY
 10
33.711313
 20
449.99769
 30
0.0
 42
0.387338
  0
VERTEX
  5
177
  8
TEAM-BODY
 10
35.475007
 20
451.605151
 30
0.0
  0
VERTEX
  5
178
  8
TEAM-BODY
 10
36.768705
 20
470.057342
 30
0.0
  0
SEQEND
  5
179
  8
TEAM-BODY
  0
LINE
  5
E3
  8
TEAM-AXE
 10
0.0
 20
310.0
 30
0.0
 11
0.0
 21
350.0
 31
0.0
  0
LINE
  5
E4
  8
TEAM-AXE
 10
20.0
 20
330.0
 30
0.0
 11
-20.0
 21
330.0
 31
0.0
  0
CIRCLE
  5
E5
  8
TEAM-KAN
 10
0.0
 20
330.0
 30
0.0
 40
20.0
  0
LINE
  5
E7
  8
TEAM-AXE
 10
0.0
 20
295.087506
 30
0.0
 11
0.0
 21
600.0
 31
0.0
  0
CIRCLE
  5
E8
  8
TEAM-WARM
 10
-40.0
 20
399.783522
 30
0.0
 40
10.0
  0
LINE
  5
E9
  8
TEAM-AXE
 10
-30.050126
 20
399.783522
 30
0.0
 11
-49.949874
 21
399.783522
 31
0.0
  0
LINE
  5
EA
  8
TEAM-AXE
 10
-40.0
 20
389.783522
 30
0.0
 11
-40.0
 21
409.783522
 31
0.0
  0
LINE
  5
EB
  8
TEAM-AXE
 10
-90.0
 20
569.0
 30
0.0
 11
-90.0
 21
541.0
 31
0.0
  0
LINE
  5
EC
  8
TEAM-AXE
 10
-115.0
 20
555.0
 30
0.0
 11
-65.0
 21
555.0
 31
0.0
  0
POLYLINE
  5
ED
  8
TEAM-HIDE
 66
     1
 10
0.0
 20
0.0
 30
0.0
 70
     1
  0
VERTEX
  5
17A
  8
TEAM-HIDE
 10
-79.0
 20
546.0
 30
0.0
 42
1.0
  0
VERTEX
  5
17B
  8
TEAM-HIDE
 10
-79.0
 20
564.0
 30
0.0
  0
VERTEX
  5
17C
  8
TEAM-HIDE
 10
-101.0
 20
564.0
 30
0.0
 42
1.0
  0
VERTEX
  5
17D
  8
TEAM-HIDE
 10
-101.0
 20
546.0
 30
0.0
  0
SEQEND
  5
17E
  8
TEAM-HIDE
  0
CIRCLE
  5
F0
  8
TEAM-COLD
 10
40.0
 20
400.0
 30
0.0
 40
10.0
  0
LINE
  5
F2
  8
TEAM-AXE
 10
49.949874
 20
400.0
 30
0.0
 11
30.050126
 21
400.0
 31
0.0
  0
ARC
  5
F3
  8
TEAM-BODY
 10
168.952384
 20
520.057342
 30
0.0
 40
50.0
 50
270.0
 51
354.675556
  0
ARC
  5
F4
  8
TEAM-BODY
 10
-635.220806
 20
595.004288
 30
0.0
 40
857.658074
 50
354.675556
 51
356.754536
  0
ARC
  5
F5
  8
TEAM-BODY
 10
881.740699
 20
515.763004
 30
0.0
 40
661.391223
 50
173.201484
 51
177.340738
  0
ARC
  5
F6
  8
TEAM-BODY
 10
219.407836
 20
594.438401
 30
0.0
 40
5.605132
 50
356.101795
 51
90.010205
  0
CIRCLE
  5
F7
  8
TEAM-COLD
 10
76.5
 20
800.000007
 30
0.0
 40
10.0
  0
LINE
  5
F8
  8
TEAM-AXE
 10
76.5
 20
820.000007
 30
0.0
 11
76.5
 21
780.000007
 31
0.0
210
-0.0
220
-0.0
230
-1.0
  0
LINE
  5
F9
  8
TEAM-AXE
 10
76.5
 20
820.000007
 30
0.0
 11
76.5
 21
780.000007
 31
0.0
210
0.0
220
-0.0
230
-1.0
  0
LINE
  5
FA
  8
TEAM-AXE
 10
65.0
 20
555.0
 30
0.0
 11
115.0
 21
555.0
 31
0.0
  0
LINE
  5
FB
  8
TEAM-AXE
 10
90.0
 20
569.0
 30
0.0
 11
90.0
 21
541.0
 31
0.0
  0
DIMENSION
  5
FC
  8
TEAM-MAS
  2
*D7
 10
262.43822
 20
555.0
 30
0.0
 11
262.946515
 21
644.809002
 31
0.0
 12
-8000.0
 22
-72000.0
 32
0.0
 70
   128
 13
228.592488
 23
600.0
 33
0.0
 14
115.0
 24
555.0
 34
0.0
 50
90.0
1001
ACAD
1000
DSTYLE
1002
{
1070
    40
1040
1.0
1002
}
  0
POLYLINE
  5
10B
  8
TEAM-HIDE
 66
     1
 10
0.0
 20
0.0
 30
0.0
 70
     1
  0
VERTEX
  5
17F
  8
TEAM-HIDE
 10
101.0
 20
546.0
 30
0.0
 42
1.0
  0
VERTEX
  5
180
  8
TEAM-HIDE
 10
101.0
 20
564.0
 30
0.0
  0
VERTEX
  5
181
  8
TEAM-HIDE
 10
79.0
 20
564.0
 30
0.0
 42
1.0
  0
VERTEX
  5
182
  8
TEAM-HIDE
 10
79.0
 20
546.0
 30
0.0
  0
SEQEND
  5
183
  8
TEAM-HIDE
  0
ENDSEC
  0
EOF
