  0
SECTION
  2
HEADER
  9
$ACADVER
  1
AC1009
  9
$INSBASE
 10
0.0
 20
0.0
 30
0.0
  9
$EXTMIN
 10
-74.208674
 20
-539.708556
 30
0.0
  9
$EXTMAX
 10
601.696673
 20
283.492379
 30
0.0
  9
$LIMMIN
 10
-74.208674
 20
-539.708556
  9
$LIMMAX
 10
601.696673
 20
283.492379
  9
$ORTHOMODE
 70
     1
  9
$REGENMODE
 70
     1
  9
$FILLMODE
 70
     1
  9
$QTEXTMODE
 70
     0
  9
$MIRRTEXT
 70
     0
  9
$DRAGMODE
 70
     2
  9
$LTSCALE
 40
25.0
  9
$OSMODE
 70
     0
  9
$ATTMODE
 70
     1
  9
$TEXTSIZE
 40
200.0
  9
$TRACEWID
 40
1.0
  9
$TEXTSTYLE
  7
STANDARD
  9
$CLAYER
  8
TEAM-MAS
  9
$CELTYPE
  6
BYLAYER
  9
$CECOLOR
 62
   256
  9
$DIMSCALE
 40
0.0
  9
$DIMASZ
 40
20.0
  9
$DIMEXO
 40
10.0
  9
$DIMDLI
 40
1.0
  9
$DIMRND
 40
0.0
  9
$DIMDLE
 40
0.0
  9
$DIMEXE
 40
1.0
  9
$DIMTP
 40
0.0
  9
$DIMTM
 40
0.0
  9
$DIMTXT
 40
35.0
  9
$DIMCEN
 40
1.0
  9
$DIMTSZ
 40
0.0
  9
$DIMTOL
 70
     0
  9
$DIMLIM
 70
     0
  9
$DIMTIH
 70
     0
  9
$DIMTOH
 70
     0
  9
$DIMSE1
 70
     0
  9
$DIMSE2
 70
     0
  9
$DIMTAD
 70
     0
  9
$DIMZIN
 70
     0
  9
$DIMBLK
  1

  9
$DIMASO
 70
     1
  9
$DIMSHO
 70
     0
  9
$DIMPOST
  1

  9
$DIMAPOST
  1

  9
$DIMALT
 70
     0
  9
$DIMALTD
 70
     2
  9
$DIMALTF
 40
25.4
  9
$DIMLFAC
 40
1.0
  9
$DIMTOFL
 70
     0
  9
$DIMTVP
 40
0.0
  9
$DIMTIX
 70
     0
  9
$DIMSOXD
 70
     0
  9
$DIMSAH
 70
     0
  9
$DIMBLK1
  1

  9
$DIMBLK2
  1

  9
$DIMSTYLE
  2
TEAM
  9
$DIMCLRD
 70
     9
  9
$DIMCLRE
 70
     9
  9
$DIMCLRT
 70
    11
  9
$DIMTFAC
 40
1.0
  9
$DIMGAP
 40
15.0
  9
$LUNITS
 70
     2
  9
$LUPREC
 70
     1
  9
$SKETCHINC
 40
1.0
  9
$FILLETRAD
 40
50.0
  9
$AUNITS
 70
     0
  9
$AUPREC
 70
     0
  9
$MENU
  1
ROPLANS
  9
$ELEVATION
 40
0.0
  9
$PELEVATION
 40
0.0
  9
$THICKNESS
 40
0.0
  9
$LIMCHECK
 70
     0
  9
$BLIPMODE
 70
     1
  9
$CHAMFERA
 40
0.0
  9
$CHAMFERB
 40
0.0
  9
$SKPOLY
 70
     0
  9
$TDCREATE
 40
2450392.957851
  9
$TDUPDATE
 40
2455505.390806
  9
$TDINDWG
 40
2.108696
  9
$TDUSRTIMER
 40
2.108696
  9
$USRTIMER
 70
     1
  9
$ANGBASE
 50
0.0
  9
$ANGDIR
 70
     0
  9
$PDMODE
 70
     0
  9
$PDSIZE
 40
0.0
  9
$PLINEWID
 40
0.0
  9
$COORDS
 70
     2
  9
$SPLFRAME
 70
     0
  9
$SPLINETYPE
 70
     6
  9
$SPLINESEGS
 70
     8
  9
$ATTDIA
 70
     0
  9
$ATTREQ
 70
     0
  9
$HANDLING
 70
     1
  9
$HANDSEED
  5
F0
  9
$SURFTAB1
 70
    24
  9
$SURFTAB2
 70
    24
  9
$SURFTYPE
 70
     6
  9
$SURFU
 70
     6
  9
$SURFV
 70
     6
  9
$UCSNAME
  2

  9
$UCSORG
 10
0.0
 20
0.0
 30
0.0
  9
$UCSXDIR
 10
1.0
 20
0.0
 30
0.0
  9
$UCSYDIR
 10
0.0
 20
1.0
 30
0.0
  9
$PUCSNAME
  2

  9
$PUCSORG
 10
0.0
 20
0.0
 30
0.0
  9
$PUCSXDIR
 10
1.0
 20
0.0
 30
0.0
  9
$PUCSYDIR
 10
0.0
 20
1.0
 30
0.0
  9
$USERI1
 70
     0
  9
$USERI2
 70
     0
  9
$USERI3
 70
     0
  9
$USERI4
 70
     0
  9
$USERI5
 70
     0
  9
$USERR1
 40
0.0
  9
$USERR2
 40
0.0
  9
$USERR3
 40
0.0
  9
$USERR4
 40
0.0
  9
$USERR5
 40
0.0
  9
$WORLDVIEW
 70
     1
  9
$SHADEDGE
 70
     0
  9
$SHADEDIF
 70
    70
  9
$TILEMODE
 70
     1
  9
$MAXACTVP
 70
    16
  9
$PLIMCHECK
 70
     0
  9
$PEXTMIN
 10
-0.805942
 20
0.005011
 30
0.0
  9
$PEXTMAX
 10
20.250094
 20
11.356329
 30
0.0
  9
$PLIMMIN
 10
0.0
 20
0.0
  9
$PLIMMAX
 10
12.0
 20
9.0
  9
$UNITMODE
 70
     0
  9
$VISRETAIN
 70
     0
  9
$PLINEGEN
 70
     0
  9
$PSLTSCALE
 70
     0
  0
ENDSEC
  0
SECTION
  2
TABLES
  0
TABLE
  2
VPORT
 70
     2
  0
VPORT
  2
*ACTIVE
 70
     0
 10
0.0
 20
0.0
 11
1.0
 21
1.0
 12
263.743999
 22
-128.108088
 13
0.0
 23
0.0
 14
1.0
 24
1.0
 15
50.0
 25
50.0
 16
0.0
 26
0.0
 36
1.0
 17
0.0
 27
0.0
 37
0.0
 40
828.256417
 41
1.865779
 42
50.0
 43
0.0
 44
0.0
 50
0.0
 51
0.0
 71
     0
 72
   100
 73
     1
 74
     1
 75
     0
 76
     0
 77
     0
 78
     0
  0
ENDTAB
  0
TABLE
  2
LTYPE
 70
     2
  0
LTYPE
  2
CONTINUOUS
 70
     0
  3
Solid Line
 72
    65
 73
     0
 40
0.0
  0
LTYPE
  2
31
 70
     0
  3

 72
    65
 73
     4
 40
2.1
 49
1.5
 49
-0.3
 49
0.0
 49
-0.3
  0
ENDTAB
  0
TABLE
  2
LAYER
 70
     8
  0
LAYER
  2
0
 70
     0
 62
     7
  6
CONTINUOUS
  0
LAYER
  2
DEFPOINTS
 70
     0
 62
     7
  6
CONTINUOUS
  0
LAYER
  2
TEAM-BODY
 70
     0
 62
     2
  6
CONTINUOUS
  0
LAYER
  2
TEAM-AXE
 70
     0
 62
    10
  6
31
  0
LAYER
  2
TEAM-MAS
 70
     0
 62
     9
  6
CONTINUOUS
  0
LAYER
  2
TEAM-TXT
 70
     0
 62
    11
  6
CONTINUOUS
  0
LAYER
  2
TEAM-DET1
 70
     0
 62
     4
  6
CONTINUOUS
  0
LAYER
  2
TEAM-INSP
 70
     0
 62
     5
  6
CONTINUOUS
  0
ENDTAB
  0
TABLE
  2
STYLE
 70
     2
  0
STYLE
  2
STANDARD
 70
     0
 40
0.0
 41
1.0
 50
0.0
 71
     0
 42
200.0
  3
txt
  4

  0
STYLE
  2
TEAM
 70
     0
 40
0.0
 41
0.8
 50
15.0
 71
     0
 42
7.0
  3
ROMANS.shx
  4

  0
ENDTAB
  0
TABLE
  2
VIEW
 70
     0
  0
ENDTAB
  0
TABLE
  2
UCS
 70
     0
  0
ENDTAB
  0
TABLE
  2
APPID
 70
     1
  0
APPID
  2
ACAD
 70
     0
  0
ENDTAB
  0
TABLE
  2
DIMSTYLE
 70
     1
  0
DIMSTYLE
  2
TEAM
 70
     0
  3

  4

  5

  6

  7

 40
0.0
 41
20.0
 42
10.0
 43
1.0
 44
1.0
 45
0.0
 46
0.0
 47
0.0
 48
0.0
140
35.0
141
1.0
142
0.0
143
25.4
144
1.0
145
0.0
146
1.0
147
15.0
 71
     0
 72
     0
 73
     0
 74
     0
 75
     0
 76
     0
 77
     0
 78
     0
170
     0
171
     2
172
     0
173
     0
174
     0
175
     0
176
     9
177
     9
178
    11
  0
ENDTAB
  0
ENDSEC
  0
SECTION
  2
BLOCKS
  0
BLOCK
  8
0
  2
$MODEL_SPACE
 70
     0
 10
0.0
 20
0.0
 30
0.0
  3
$MODEL_SPACE
  1

  0
ENDBLK
  5
E9
  8
0
  0
BLOCK
 67
     1
  8
0
  2
$PAPER_SPACE
 70
     0
 10
0.0
 20
0.0
 30
0.0
  3
$PAPER_SPACE
  1

  0
ENDBLK
  5
E7
 67
     1
  8
0
  0
BLOCK
  8
0
  2
*D0
 70
     1
 10
0.0
 20
0.0
 30
0.0
  3
*D0
  1

  0
LINE
  5
5B
  8
0
  6
BYBLOCK
 62
     9
 10
7.071068
 20
148007.071068
 30
0.0
 11
283.456048
 21
148283.456048
 31
0.0
  0
LINE
  5
5C
  8
0
  6
BYBLOCK
 62
     9
 10
325.269119
 20
147688.873016
 30
0.0
 11
601.654099
 21
147965.257996
 31
0.0
  0
LINE
  5
5D
  8
0
  6
BYBLOCK
 62
     9
 10
296.891077
 20
148268.606805
 30
0.0
 11
407.720321
 21
148157.777561
 31
0.0
  0
LINE
  5
5E
  8
0
  6
BYBLOCK
 62
     9
 10
586.804857
 20
147978.693025
 30
0.0
 11
475.975613
 21
148089.52227
 31
0.0
  0
SOLID
  5
5F
  8
0
  6
BYBLOCK
 62
     9
 10
299.248099
 20
148270.963828
 30
0.0
 11
294.534054
 21
148266.249783
 31
0.0
 12
282.748941
 22
148282.748941
 32
0.0
 13
282.748941
 23
148282.748941
 33
0.0
  0
SOLID
  5
60
  8
0
  6
BYBLOCK
 62
     9
 10
589.16188
 20
147981.050048
 30
0.0
 11
584.447834
 21
147976.336003
 31
0.0
 12
600.946993
 22
147964.55089
 32
0.0
 13
600.946993
 23
147964.55089
 33
0.0
  0
TEXT
  5
61
  8
0
  6
BYBLOCK
 62
    11
 10
402.240244
 20
148138.508901
 30
0.0
 40
35.0
  1
450
 50
315.0
  0
POINT
  5
62
  8
DEFPOINTS
  6
BYBLOCK
 62
     0
 10
0.0
 20
148000.0
 30
0.0
  0
POINT
  5
63
  8
DEFPOINTS
  6
BYBLOCK
 62
     0
 10
318.198052
 20
147681.801948
 30
0.0
  0
POINT
  5
64
  8
DEFPOINTS
  6
BYBLOCK
 62
     0
 10
600.946993
 20
147964.55089
 30
0.0
  0
ENDBLK
  5
66
  8
0
  0
BLOCK
  8
0
  2
*D1
 70
     1
 10
0.0
 20
0.0
 30
0.0
  3
*D1
  1

  0
LINE
  5
4D
  8
0
  6
BYBLOCK
 62
     9
 10
0.0
 20
148010.0
 30
0.0
 11
0.0
 21
148091.228922
 31
0.0
  0
LINE
  5
4E
  8
0
  6
BYBLOCK
 62
     9
 10
415.0
 20
148010.0
 30
0.0
 11
415.0
 21
148091.228922
 31
0.0
  0
LINE
  5
4F
  8
0
  6
BYBLOCK
 62
     9
 10
20.0
 20
148090.228922
 30
0.0
 11
162.025126
 21
148090.228922
 31
0.0
  0
LINE
  5
50
  8
0
  6
BYBLOCK
 62
     9
 10
395.0
 20
148090.228922
 30
0.0
 11
252.974874
 21
148090.228922
 31
0.0
  0
SOLID
  5
51
  8
0
  6
BYBLOCK
 62
     9
 10
20.0
 20
148093.562255
 30
0.0
 11
20.0
 21
148086.895588
 31
0.0
 12
0.0
 22
148090.228922
 32
0.0
 13
0.0
 23
148090.228922
 33
0.0
  0
SOLID
  5
52
  8
0
  6
BYBLOCK
 62
     9
 10
395.0
 20
148093.562255
 30
0.0
 11
395.0
 21
148086.895588
 31
0.0
 12
415.0
 22
148090.228922
 32
0.0
 13
415.0
 23
148090.228922
 33
0.0
  0
TEXT
  5
53
  8
0
  6
BYBLOCK
 62
    11
 10
171.775126
 20
148072.728922
 30
0.0
 40
35.0
  1
415
  0
POINT
  5
54
  8
DEFPOINTS
  6
BYBLOCK
 62
     0
 10
0.0
 20
148000.0
 30
0.0
  0
POINT
  5
55
  8
DEFPOINTS
  6
BYBLOCK
 62
     0
 10
415.0
 20
148000.0
 30
0.0
  0
POINT
  5
56
  8
DEFPOINTS
  6
BYBLOCK
 62
     0
 10
415.0
 20
148090.228922
 30
0.0
  0
ENDBLK
  5
58
  8
0
  0
BLOCK
  8
0
  2
*D2
 70
     1
 10
0.0
 20
0.0
 30
0.0
  3
*D2
  1

  0
LINE
  5
3F
  8
0
  6
BYBLOCK
 62
     9
 10
0.0
 20
148010.0
 30
0.0
 11
0.0
 21
148045.886486
 31
0.0
  0
LINE
  5
40
  8
0
  6
BYBLOCK
 62
     9
 10
155.0
 20
147895.0
 30
0.0
 11
155.0
 21
148045.886486
 31
0.0
  0
LINE
  5
41
  8
0
  6
BYBLOCK
 62
     9
 10
-20.0
 20
148044.886486
 30
0.0
 11
-40.0
 21
148044.886486
 31
0.0
  0
LINE
  5
42
  8
0
  6
BYBLOCK
 62
     9
 10
175.0
 20
148044.886486
 30
0.0
 11
195.0
 21
148044.886486
 31
0.0
  0
SOLID
  5
43
  8
0
  6
BYBLOCK
 62
     9
 10
-20.0
 20
148048.219819
 30
0.0
 11
-20.0
 21
148041.553152
 31
0.0
 12
0.0
 22
148044.886486
 32
0.0
 13
0.0
 23
148044.886486
 33
0.0
  0
SOLID
  5
44
  8
0
  6
BYBLOCK
 62
     9
 10
175.0
 20
148048.219819
 30
0.0
 11
175.0
 21
148041.553152
 31
0.0
 12
155.0
 22
148044.886486
 32
0.0
 13
155.0
 23
148044.886486
 33
0.0
  0
TEXT
  5
45
  8
0
  6
BYBLOCK
 62
    11
 10
43.525126
 20
148027.386486
 30
0.0
 40
35.0
  1
155
  0
POINT
  5
46
  8
DEFPOINTS
  6
BYBLOCK
 62
     0
 10
0.0
 20
148000.0
 30
0.0
  0
POINT
  5
47
  8
DEFPOINTS
  6
BYBLOCK
 62
     0
 10
155.0
 20
147885.0
 30
0.0
  0
POINT
  5
48
  8
DEFPOINTS
  6
BYBLOCK
 62
     0
 10
155.0
 20
148044.886486
 30
0.0
  0
ENDBLK
  5
4A
  8
0
  0
BLOCK
  8
0
  2
*D3
 70
     1
 10
0.0
 20
0.0
 30
0.0
  3
*D3
  1

  0
LINE
  5
31
  8
0
  6
BYBLOCK
 62
     9
 10
105.0
 20
147845.0
 30
0.0
 11
-59.457739
 21
147845.0
 31
0.0
  0
LINE
  5
32
  8
0
  6
BYBLOCK
 62
     9
 10
-10.0
 20
148000.0
 30
0.0
 11
-59.457739
 21
148000.0
 31
0.0
  0
LINE
  5
33
  8
0
  6
BYBLOCK
 62
     9
 10
-58.457739
 20
147825.0
 30
0.0
 11
-58.457739
 21
147805.0
 31
0.0
  0
LINE
  5
34
  8
0
  6
BYBLOCK
 62
     9
 10
-58.457739
 20
148020.0
 30
0.0
 11
-58.457739
 21
148040.0
 31
0.0
  0
SOLID
  5
35
  8
0
  6
BYBLOCK
 62
     9
 10
-61.791072
 20
147825.0
 30
0.0
 11
-55.124405
 21
147825.0
 31
0.0
 12
-58.457739
 22
147845.0
 32
0.0
 13
-58.457739
 23
147845.0
 33
0.0
  0
SOLID
  5
36
  8
0
  6
BYBLOCK
 62
     9
 10
-61.791072
 20
148020.0
 30
0.0
 11
-55.124405
 21
148020.0
 31
0.0
 12
-58.457739
 22
148000.0
 32
0.0
 13
-58.457739
 23
148000.0
 33
0.0
  0
TEXT
  5
37
  8
0
  6
BYBLOCK
 62
    11
 10
-40.957739
 20
147888.525126
 30
0.0
 40
35.0
  1
155
 50
90.0
  0
POINT
  5
38
  8
DEFPOINTS
  6
BYBLOCK
 62
     0
 10
115.0
 20
147845.0
 30
0.0
  0
POINT
  5
39
  8
DEFPOINTS
  6
BYBLOCK
 62
     0
 10
0.0
 20
148000.0
 30
0.0
  0
POINT
  5
3A
  8
DEFPOINTS
  6
BYBLOCK
 62
     0
 10
-58.457739
 20
148000.0
 30
0.0
  0
ENDBLK
  5
3C
  8
0
  0
BLOCK
  8
0
  2
*D4
 70
     1
 10
0.0
 20
0.0
 30
0.0
  3
*D4
  1

  0
LINE
  5
22
  8
0
  6
BYBLOCK
 62
     9
 10
422.071068
 20
147992.928932
 30
0.0
 11
565.742986
 21
147849.257014
 31
0.0
  0
LINE
  5
23
  8
0
  6
BYBLOCK
 62
     9
 10
6.660946
 20
147630.51881
 30
0.0
 11
176.832864
 21
147460.346892
 31
0.0
  0
LINE
  5
24
  8
0
  6
BYBLOCK
 62
     9
 10
550.893744
 20
147835.821985
 30
0.0
 11
403.471028
 21
147688.399268
 31
0.0
  0
LINE
  5
25
  8
0
  6
BYBLOCK
 62
     9
 10
190.267893
 20
147475.196134
 30
0.0
 11
337.69061
 21
147622.61885
 31
0.0
  0
SOLID
  5
26
  8
0
  6
BYBLOCK
 62
     9
 10
548.536721
 20
147838.179007
 30
0.0
 11
553.250767
 21
147833.464962
 31
0.0
 12
565.03588
 22
147849.96412
 32
0.0
 13
565.03588
 23
147849.96412
 33
0.0
  0
SOLID
  5
27
  8
0
  6
BYBLOCK
 62
     9
 10
187.910871
 20
147477.553157
 30
0.0
 11
192.624916
 21
147472.839111
 31
0.0
 12
176.125758
 22
147461.053998
 32
0.0
 13
176.125758
 23
147461.053998
 33
0.0
  0
TEXT
  5
28
  8
0
  6
BYBLOCK
 62
    11
 10
356.95927
 20
147617.138773
 30
0.0
 40
35.0
  1
550
 50
45.0
  0
POINT
  5
29
  8
DEFPOINTS
  6
BYBLOCK
 62
     0
 10
415.0
 20
148000.0
 30
0.0
  0
POINT
  5
2B
  8
DEFPOINTS
  6
BYBLOCK
 62
     0
 10
-0.410122
 20
147637.589878
 30
0.0
  0
POINT
  5
2C
  8
DEFPOINTS
  6
BYBLOCK
 62
     0
 10
176.125758
 20
147461.053998
 30
0.0
  0
ENDBLK
  5
2E
  8
0
  0
ENDSEC
  0
SECTION
  2
ENTITIES
  0
DIMENSION
  5
20
  8
TEAM-MAS
  2
*D4
 10
176.125758
 20
-538.946002
 30
0.0
 11
370.580819
 21
-344.490941
 31
0.0
 12
0.0
 22
-148000.0
 32
0.0
 13
415.0
 23
0.0
 33
0.0
 14
-0.410122
 24
-362.410122
 34
0.0
 50
45.0
1001
ACAD
1000
DSTYLE
1002
{
1070
    40
1040
1.0
1002
}
  0
DIMENSION
  5
2F
  8
TEAM-MAS
  2
*D3
 10
-58.457739
 20
0.0
 30
0.0
 11
-58.457739
 21
-77.5
 31
0.0
 12
0.0
 22
-148000.0
 32
0.0
 13
115.0
 23
-155.0
 33
0.0
 14
0.0
 24
0.0
 34
0.0
 50
90.0
1001
ACAD
1000
DSTYLE
1002
{
1070
    40
1040
1.0
1002
}
  0
DIMENSION
  5
3D
  8
TEAM-MAS
  2
*D2
 10
155.0
 20
44.886486
 30
0.0
 11
77.5
 21
44.886486
 31
0.0
 12
0.0
 22
-148000.0
 32
0.0
 13
0.0
 23
0.0
 33
0.0
 14
155.0
 24
-115.0
 34
0.0
1001
ACAD
1000
DSTYLE
1002
{
1070
    40
1040
1.0
1002
}
  0
DIMENSION
  5
4B
  8
TEAM-MAS
  2
*D1
 10
415.0
 20
90.228922
 30
0.0
 11
207.5
 21
90.228922
 31
0.0
 12
0.0
 22
-148000.0
 32
0.0
 13
0.0
 23
0.0
 33
0.0
 14
415.0
 24
0.0
 34
0.0
1001
ACAD
1000
DSTYLE
1002
{
1070
    40
1040
1.0
1002
}
  0
DIMENSION
  5
59
  8
TEAM-MAS
  2
*D0
 10
600.946993
 20
-35.44911
 30
0.0
 11
441.847967
 21
123.649915
 31
0.0
 12
0.0
 22
-148000.0
 32
0.0
 70
     1
 13
0.0
 23
0.0
 33
0.0
 14
318.198052
 24
-318.198052
 34
0.0
1001
ACAD
1000
DSTYLE
1002
{
1070
    40
1040
1.0
1002
}
  0
TEXT
  5
67
  8
TEAM-TXT
 10
49.170558
 20
-291.868078
 30
0.0
 40
30.0
  1
team 221313
 41
0.8
 51
15.0
  7
TEAM
  0
ARC
  5
6A
  8
TEAM-BODY
 10
122.751165
 20
-83.843186
 30
0.0
 40
304.037928
 50
246.188035
 51
16.007641
  0
LINE
  5
6C
  8
TEAM-BODY
 10
415.0
 20
0.0
 30
0.0
 11
0.0
 21
0.0
 31
0.0
  0
LINE
  5
6D
  8
TEAM-AXE
 10
27.487528
 20
-47.487528
 30
0.0
 11
67.487528
 21
-47.487528
 31
0.0
  0
ARC
  5
70
  8
TEAM-DET1
 10
150.60178
 20
-137.414773
 30
0.0
 40
109.601551
 50
93.357528
 51
176.642472
  0
LINE
  5
72
  8
TEAM-DET1
 10
144.182814
 20
-28.001351
 30
0.0
 11
41.188359
 21
-130.995807
 31
0.0
  0
ARC
  5
73
  8
TEAM-DET1
 10
127.06744
 20
-113.880432
 30
0.0
 40
255.304543
 50
254.553133
 51
15.446867
  0
CIRCLE
  5
74
  8
TEAM-DET1
 10
47.487528
 20
-47.487528
 30
0.0
 40
15.0
  0
LINE
  5
75
  8
TEAM-AXE
 10
47.487528
 20
-67.487528
 30
0.0
 11
47.487528
 21
-27.487528
 31
0.0
  0
LINE
  5
76
  8
TEAM-BODY
 10
0.0
 20
0.0
 30
0.0
 11
0.0
 21
-362.0
 31
0.0
  0
LINE
  5
77
  8
TEAM-DET1
 10
31.013869
 20
-319.423379
 30
0.0
 11
41.188359
 21
-130.995807
 31
0.0
  0
ARC
  5
78
  8
TEAM-DET1
 10
70.946076
 20
-321.766085
 30
0.0
 40
40.000868
 50
176.642472
 51
252.726435
  0
CIRCLE
  5
79
  8
TEAM-INSP
 10
0.0
 20
0.0
 30
0.0
 40
10.0
  0
CIRCLE
  5
7B
  8
TEAM-DET1
 10
155.0
 20
-155.0
 30
0.0
 40
30.0
  0
CIRCLE
  5
7C
  8
TEAM-BODY
 10
155.0
 20
-155.0
 30
0.0
 40
20.0
  0
LINE
  5
7D
  8
TEAM-AXE
 10
155.0
 20
-195.0
 30
0.0
 11
155.0
 21
-115.0
 31
0.0
  0
LINE
  5
7E
  8
TEAM-AXE
 10
115.0
 20
-155.0
 30
0.0
 11
195.0
 21
-155.0
 31
0.0
  0
ARC
  5
7F
  8
TEAM-DET1
 10
334.953093
 20
-57.759068
 30
0.0
 40
40.000868
 50
17.273565
 51
93.357528
  0
LINE
  5
80
  8
TEAM-DET1
 10
332.610386
 20
-17.826862
 30
0.0
 11
144.182814
 21
-28.001351
 31
0.0
  0
ENDSEC
  0
EOF
