  0
SECTION
  2
HEADER
  9
$ACADVER
  1
AC1009
  9
$INSBASE
 10
0.0
 20
0.0
 30
0.0
  9
$EXTMIN
 10
-673.971806
 20
-10.043564
 30
0.0
  9
$EXTMAX
 10
670.336658
 20
960.166081
 30
0.0
  9
$LIMMIN
 10
-673.971806
 20
-10.043564
  9
$LIMMAX
 10
670.336658
 20
960.166081
  9
$ORTHOMODE
 70
     1
  9
$REGENMODE
 70
     1
  9
$FILLMODE
 70
     1
  9
$QTEXTMODE
 70
     0
  9
$MIRRTEXT
 70
     0
  9
$DRAGMODE
 70
     2
  9
$LTSCALE
 40
25.0
  9
$OSMODE
 70
     0
  9
$ATTMODE
 70
     1
  9
$TEXTSIZE
 40
200.0
  9
$TRACEWID
 40
1.0
  9
$TEXTSTYLE
  7
STANDARD
  9
$CLAYER
  8
TEAM-MAS
  9
$CELTYPE
  6
BYLAYER
  9
$CECOLOR
 62
   256
  9
$DIMSCALE
 40
0.0
  9
$DIMASZ
 40
20.0
  9
$DIMEXO
 40
10.0
  9
$DIMDLI
 40
1.0
  9
$DIMRND
 40
0.0
  9
$DIMDLE
 40
0.0
  9
$DIMEXE
 40
1.0
  9
$DIMTP
 40
0.0
  9
$DIMTM
 40
0.0
  9
$DIMTXT
 40
35.0
  9
$DIMCEN
 40
1.0
  9
$DIMTSZ
 40
0.0
  9
$DIMTOL
 70
     0
  9
$DIMLIM
 70
     0
  9
$DIMTIH
 70
     0
  9
$DIMTOH
 70
     0
  9
$DIMSE1
 70
     0
  9
$DIMSE2
 70
     0
  9
$DIMTAD
 70
     0
  9
$DIMZIN
 70
     0
  9
$DIMBLK
  1

  9
$DIMASO
 70
     1
  9
$DIMSHO
 70
     0
  9
$DIMPOST
  1

  9
$DIMAPOST
  1

  9
$DIMALT
 70
     0
  9
$DIMALTD
 70
     2
  9
$DIMALTF
 40
25.4
  9
$DIMLFAC
 40
1.0
  9
$DIMTOFL
 70
     0
  9
$DIMTVP
 40
0.0
  9
$DIMTIX
 70
     0
  9
$DIMSOXD
 70
     0
  9
$DIMSAH
 70
     0
  9
$DIMBLK1
  1

  9
$DIMBLK2
  1

  9
$DIMSTYLE
  2
TEAM
  9
$DIMCLRD
 70
     9
  9
$DIMCLRE
 70
     9
  9
$DIMCLRT
 70
    11
  9
$DIMTFAC
 40
1.0
  9
$DIMGAP
 40
15.0
  9
$LUNITS
 70
     2
  9
$LUPREC
 70
     1
  9
$SKETCHINC
 40
1.0
  9
$FILLETRAD
 40
50.0
  9
$AUNITS
 70
     0
  9
$AUPREC
 70
     0
  9
$MENU
  1
ROPLANS
  9
$ELEVATION
 40
0.0
  9
$PELEVATION
 40
0.0
  9
$THICKNESS
 40
0.0
  9
$LIMCHECK
 70
     0
  9
$BLIPMODE
 70
     1
  9
$CHAMFERA
 40
0.0
  9
$CHAMFERB
 40
0.0
  9
$SKPOLY
 70
     0
  9
$TDCREATE
 40
2450392.957851
  9
$TDUPDATE
 40
2455505.390806
  9
$TDINDWG
 40
2.108696
  9
$TDUSRTIMER
 40
2.108696
  9
$USRTIMER
 70
     1
  9
$ANGBASE
 50
0.0
  9
$ANGDIR
 70
     0
  9
$PDMODE
 70
     0
  9
$PDSIZE
 40
0.0
  9
$PLINEWID
 40
0.0
  9
$COORDS
 70
     2
  9
$SPLFRAME
 70
     0
  9
$SPLINETYPE
 70
     6
  9
$SPLINESEGS
 70
     8
  9
$ATTDIA
 70
     0
  9
$ATTREQ
 70
     0
  9
$HANDLING
 70
     1
  9
$HANDSEED
  5
143
  9
$SURFTAB1
 70
    24
  9
$SURFTAB2
 70
    24
  9
$SURFTYPE
 70
     6
  9
$SURFU
 70
     6
  9
$SURFV
 70
     6
  9
$UCSNAME
  2

  9
$UCSORG
 10
0.0
 20
0.0
 30
0.0
  9
$UCSXDIR
 10
1.0
 20
0.0
 30
0.0
  9
$UCSYDIR
 10
0.0
 20
1.0
 30
0.0
  9
$PUCSNAME
  2

  9
$PUCSORG
 10
0.0
 20
0.0
 30
0.0
  9
$PUCSXDIR
 10
1.0
 20
0.0
 30
0.0
  9
$PUCSYDIR
 10
0.0
 20
1.0
 30
0.0
  9
$USERI1
 70
     0
  9
$USERI2
 70
     0
  9
$USERI3
 70
     0
  9
$USERI4
 70
     0
  9
$USERI5
 70
     0
  9
$USERR1
 40
0.0
  9
$USERR2
 40
0.0
  9
$USERR3
 40
0.0
  9
$USERR4
 40
0.0
  9
$USERR5
 40
0.0
  9
$WORLDVIEW
 70
     1
  9
$SHADEDGE
 70
     0
  9
$SHADEDIF
 70
    70
  9
$TILEMODE
 70
     1
  9
$MAXACTVP
 70
    16
  9
$PLIMCHECK
 70
     0
  9
$PEXTMIN
 10
-0.805942
 20
0.005011
 30
0.0
  9
$PEXTMAX
 10
20.250094
 20
11.356329
 30
0.0
  9
$PLIMMIN
 10
0.0
 20
0.0
  9
$PLIMMAX
 10
12.0
 20
9.0
  9
$UNITMODE
 70
     0
  9
$VISRETAIN
 70
     0
  9
$PLINEGEN
 70
     0
  9
$PSLTSCALE
 70
     0
  0
ENDSEC
  0
SECTION
  2
TABLES
  0
TABLE
  2
VPORT
 70
     2
  0
VPORT
  2
*ACTIVE
 70
     0
 10
0.0
 20
0.0
 11
1.0
 21
1.0
 12
-1.817574
 22
475.061258
 13
0.0
 23
0.0
 14
1.0
 24
1.0
 15
50.0
 25
50.0
 16
0.0
 26
0.0
 36
1.0
 17
0.0
 27
0.0
 37
0.0
 40
976.167944
 41
1.865779
 42
50.0
 43
0.0
 44
0.0
 50
0.0
 51
0.0
 71
     0
 72
   100
 73
     1
 74
     1
 75
     0
 76
     0
 77
     0
 78
     0
  0
ENDTAB
  0
TABLE
  2
LTYPE
 70
     3
  0
LTYPE
  2
CONTINUOUS
 70
     0
  3
Solid Line
 72
    65
 73
     0
 40
0.0
  0
LTYPE
  2
31
 70
     0
  3

 72
    65
 73
     4
 40
2.1
 49
1.5
 49
-0.3
 49
0.0
 49
-0.3
  0
LTYPE
  2
22
 70
     0
  3

 72
    65
 73
     2
 40
1.4
 49
1.2
 49
-0.2
  0
ENDTAB
  0
TABLE
  2
LAYER
 70
    11
  0
LAYER
  2
0
 70
     0
 62
     7
  6
CONTINUOUS
  0
LAYER
  2
DEFPOINTS
 70
     0
 62
     7
  6
CONTINUOUS
  0
LAYER
  2
TEAM-BODY
 70
     0
 62
     2
  6
CONTINUOUS
  0
LAYER
  2
TEAM-AXE
 70
     0
 62
    10
  6
31
  0
LAYER
  2
TEAM-MAS
 70
     0
 62
     9
  6
CONTINUOUS
  0
LAYER
  2
TEAM-TXT
 70
     0
 62
    11
  6
CONTINUOUS
  0
LAYER
  2
TEAM-COLD
 70
     0
 62
     3
  6
CONTINUOUS
  0
LAYER
  2
TEAM-HIDE
 70
     0
 62
     8
  6
22
  0
LAYER
  2
TEAM-KAN
 70
     0
 62
     6
  6
CONTINUOUS
  0
LAYER
  2
TEAM-WARM
 70
     0
 62
     1
  6
CONTINUOUS
  0
LAYER
  2
TEAM-INSP
 70
     0
 62
     5
  6
CONTINUOUS
  0
ENDTAB
  0
TABLE
  2
STYLE
 70
     2
  0
STYLE
  2
STANDARD
 70
     0
 40
0.0
 41
1.0
 50
0.0
 71
     0
 42
200.0
  3
txt
  4

  0
STYLE
  2
TEAM
 70
     0
 40
0.0
 41
0.8
 50
15.0
 71
     0
 42
7.0
  3
ROMANS.shx
  4

  0
ENDTAB
  0
TABLE
  2
VIEW
 70
     0
  0
ENDTAB
  0
TABLE
  2
UCS
 70
     0
  0
ENDTAB
  0
TABLE
  2
APPID
 70
     1
  0
APPID
  2
ACAD
 70
     0
  0
ENDTAB
  0
TABLE
  2
DIMSTYLE
 70
     1
  0
DIMSTYLE
  2
TEAM
 70
     0
  3

  4

  5

  6

  7

 40
0.0
 41
20.0
 42
10.0
 43
1.0
 44
1.0
 45
0.0
 46
0.0
 47
0.0
 48
0.0
140
35.0
141
1.0
142
0.0
143
25.4
144
1.0
145
0.0
146
1.0
147
15.0
 71
     0
 72
     0
 73
     0
 74
     0
 75
     0
 76
     0
 77
     0
 78
     0
170
     0
171
     2
172
     0
173
     0
174
     0
175
     0
176
     9
177
     9
178
    11
  0
ENDTAB
  0
ENDSEC
  0
SECTION
  2
BLOCKS
  0
BLOCK
  8
0
  2
$MODEL_SPACE
 70
     0
 10
0.0
 20
0.0
 30
0.0
  3
$MODEL_SPACE
  1

  0
ENDBLK
  5
13C
  8
0
  0
BLOCK
 67
     1
  8
0
  2
$PAPER_SPACE
 70
     0
 10
0.0
 20
0.0
 30
0.0
  3
$PAPER_SPACE
  1

  0
ENDBLK
  5
13A
 67
     1
  8
0
  0
BLOCK
  8
0
  2
*D0
 70
     1
 10
0.0
 20
0.0
 30
0.0
  3
*D0
  1

  0
LINE
  5
5C
  8
0
  6
BYBLOCK
 62
     9
 10
4010.0
 20
148850.000007
 30
0.0
 11
4654.084529
 21
148850.000007
 31
0.0
  0
LINE
  5
5D
  8
0
  6
BYBLOCK
 62
     9
 10
4010.0
 20
148000.0
 30
0.0
 11
4654.084529
 21
148000.0
 31
0.0
  0
LINE
  5
5E
  8
0
  6
BYBLOCK
 62
     9
 10
4653.084529
 20
148830.000007
 30
0.0
 11
4653.084529
 21
148471.513783
 31
0.0
  0
LINE
  5
5F
  8
0
  6
BYBLOCK
 62
     9
 10
4653.084529
 20
148020.0
 30
0.0
 11
4653.084529
 21
148378.486224
 31
0.0
  0
SOLID
  5
60
  8
0
  6
BYBLOCK
 62
     9
 10
4649.751196
 20
148830.000007
 30
0.0
 11
4656.417863
 21
148830.000007
 31
0.0
 12
4653.084529
 22
148850.000007
 32
0.0
 13
4653.084529
 23
148850.000007
 33
0.0
  0
SOLID
  5
61
  8
0
  6
BYBLOCK
 62
     9
 10
4649.751196
 20
148020.0
 30
0.0
 11
4656.417863
 21
148020.0
 31
0.0
 12
4653.084529
 22
148000.0
 32
0.0
 13
4653.084529
 23
148000.0
 33
0.0
  0
TEXT
  5
62
  8
0
  6
BYBLOCK
 62
    11
 10
4670.584529
 20
148388.236224
 30
0.0
 40
35.0
  1
850
 50
90.0
  0
POINT
  5
63
  8
DEFPOINTS
  6
BYBLOCK
 62
     0
 10
4000.0
 20
148850.000007
 30
0.0
  0
POINT
  5
64
  8
DEFPOINTS
  6
BYBLOCK
 62
     0
 10
4000.0
 20
148000.0
 30
0.0
  0
POINT
  5
65
  8
DEFPOINTS
  6
BYBLOCK
 62
     0
 10
4653.084529
 20
148000.0
 30
0.0
  0
ENDBLK
  5
67
  8
0
  0
BLOCK
  8
0
  2
*D1
 70
     1
 10
0.0
 20
0.0
 30
0.0
  3
*D1
  1

  0
LINE
  5
4D
  8
0
  6
BYBLOCK
 62
     9
 10
4345.857818
 20
148850.000007
 30
0.0
 11
4459.393664
 21
148850.000007
 31
0.0
  0
LINE
  5
4E
  8
0
  6
BYBLOCK
 62
     9
 10
4085.0
 20
148805.000007
 30
0.0
 11
4459.393664
 21
148805.000007
 31
0.0
  0
LINE
  5
4F
  8
0
  6
BYBLOCK
 62
     9
 10
4458.393664
 20
148870.000007
 30
0.0
 11
4458.393664
 21
148890.000007
 31
0.0
  0
LINE
  5
50
  8
0
  6
BYBLOCK
 62
     9
 10
4458.393664
 20
148785.000007
 30
0.0
 11
4458.393664
 21
148765.000007
 31
0.0
  0
TEXT
  5
51
  8
0
  6
BYBLOCK
 62
    11
 10
4477.771774
 20
148729.90112
 30
0.0
 40
35.0
  1
45
 50
90.0
  0
LINE
  5
52
  8
0
  6
BYBLOCK
 62
     9
 10
4458.393664
 20
148850.000007
 30
0.0
 11
4458.393664
 21
148805.000007
 31
0.0
  0
SOLID
  5
53
  8
0
  6
BYBLOCK
 62
     9
 10
4455.060331
 20
148870.000007
 30
0.0
 11
4461.726997
 21
148870.000007
 31
0.0
 12
4458.393664
 22
148850.000007
 32
0.0
 13
4458.393664
 23
148850.000007
 33
0.0
  0
SOLID
  5
54
  8
0
  6
BYBLOCK
 62
     9
 10
4455.060331
 20
148785.000007
 30
0.0
 11
4461.726997
 21
148785.000007
 31
0.0
 12
4458.393664
 22
148805.000007
 32
0.0
 13
4458.393664
 23
148805.000007
 33
0.0
  0
POINT
  5
55
  8
DEFPOINTS
  6
BYBLOCK
 62
     0
 10
4335.857818
 20
148850.000007
 30
0.0
  0
POINT
  5
56
  8
DEFPOINTS
  6
BYBLOCK
 62
     0
 10
4075.0
 20
148805.000007
 30
0.0
  0
POINT
  5
57
  8
DEFPOINTS
  6
BYBLOCK
 62
     0
 10
4458.393664
 20
148805.000007
 30
0.0
  0
ENDBLK
  5
59
  8
0
  0
BLOCK
  8
0
  2
*D2
 70
     1
 10
0.0
 20
0.0
 30
0.0
  3
*D2
  1

  0
LINE
  5
3F
  8
0
  6
BYBLOCK
 62
     9
 10
4010.0
 20
148850.000007
 30
0.0
 11
4528.881741
 21
148850.000007
 31
0.0
  0
LINE
  5
40
  8
0
  6
BYBLOCK
 62
     9
 10
4045.0
 20
148655.000007
 30
0.0
 11
4528.881741
 21
148655.000007
 31
0.0
  0
LINE
  5
41
  8
0
  6
BYBLOCK
 62
     9
 10
4527.881741
 20
148830.000007
 30
0.0
 11
4527.881741
 21
148796.286032
 31
0.0
  0
LINE
  5
42
  8
0
  6
BYBLOCK
 62
     9
 10
4527.881741
 20
148675.000007
 30
0.0
 11
4527.881741
 21
148708.713983
 31
0.0
  0
SOLID
  5
43
  8
0
  6
BYBLOCK
 62
     9
 10
4524.548408
 20
148830.000007
 30
0.0
 11
4531.215074
 21
148830.000007
 31
0.0
 12
4527.881741
 22
148850.000007
 32
0.0
 13
4527.881741
 23
148850.000007
 33
0.0
  0
SOLID
  5
44
  8
0
  6
BYBLOCK
 62
     9
 10
4524.548408
 20
148675.000007
 30
0.0
 11
4531.215074
 21
148675.000007
 31
0.0
 12
4527.881741
 22
148655.000007
 32
0.0
 13
4527.881741
 23
148655.000007
 33
0.0
  0
TEXT
  5
45
  8
0
  6
BYBLOCK
 62
    11
 10
4545.381741
 20
148718.463983
 30
0.0
 40
35.0
  1
195
 50
90.0
  0
POINT
  5
46
  8
DEFPOINTS
  6
BYBLOCK
 62
     0
 10
4000.0
 20
148850.000007
 30
0.0
  0
POINT
  5
47
  8
DEFPOINTS
  6
BYBLOCK
 62
     0
 10
4035.0
 20
148655.000007
 30
0.0
  0
POINT
  5
48
  8
DEFPOINTS
  6
BYBLOCK
 62
     0
 10
4527.881741
 20
148655.000007
 30
0.0
  0
ENDBLK
  5
4A
  8
0
  0
BLOCK
  8
0
  2
*D3
 70
     1
 10
0.0
 20
0.0
 30
0.0
  3
*D3
  1

  0
LINE
  5
31
  8
0
  6
BYBLOCK
 62
     9
 10
4010.0
 20
148850.000007
 30
0.0
 11
4593.019949
 21
148850.000007
 31
0.0
  0
LINE
  5
32
  8
0
  6
BYBLOCK
 62
     9
 10
4030.0
 20
148560.0
 30
0.0
 11
4593.019949
 21
148560.0
 31
0.0
  0
LINE
  5
33
  8
0
  6
BYBLOCK
 62
     9
 10
4592.019949
 20
148830.000007
 30
0.0
 11
4592.019949
 21
148752.019324
 31
0.0
  0
LINE
  5
34
  8
0
  6
BYBLOCK
 62
     9
 10
4592.019949
 20
148580.0
 30
0.0
 11
4592.019949
 21
148657.980684
 31
0.0
  0
SOLID
  5
35
  8
0
  6
BYBLOCK
 62
     9
 10
4588.686616
 20
148830.000007
 30
0.0
 11
4595.353283
 21
148830.000007
 31
0.0
 12
4592.019949
 22
148850.000007
 32
0.0
 13
4592.019949
 23
148850.000007
 33
0.0
  0
SOLID
  5
36
  8
0
  6
BYBLOCK
 62
     9
 10
4588.686616
 20
148580.0
 30
0.0
 11
4595.353283
 21
148580.0
 31
0.0
 12
4592.019949
 22
148560.0
 32
0.0
 13
4592.019949
 23
148560.0
 33
0.0
  0
TEXT
  5
37
  8
0
  6
BYBLOCK
 62
    11
 10
4609.519949
 20
148668.619463
 30
0.0
 40
35.0
  1
290
 50
90.0
  0
POINT
  5
38
  8
DEFPOINTS
  6
BYBLOCK
 62
     0
 10
4000.0
 20
148850.000007
 30
0.0
  0
POINT
  5
39
  8
DEFPOINTS
  6
BYBLOCK
 62
     0
 10
4020.0
 20
148560.0
 30
0.0
  0
POINT
  5
3A
  8
DEFPOINTS
  6
BYBLOCK
 62
     0
 10
4592.019949
 20
148560.0
 30
0.0
  0
ENDBLK
  5
3C
  8
0
  0
BLOCK
  8
0
  2
*D4
 70
     1
 10
0.0
 20
0.0
 30
0.0
  3
*D4
  1

  0
LINE
  5
8D
  8
0
  6
BYBLOCK
 62
     9
 10
3845.0
 20
148869.9999
 30
0.0
 11
3845.0
 21
148943.658942
 31
0.0
  0
LINE
  5
8E
  8
0
  6
BYBLOCK
 62
     9
 10
4045.0
 20
148834.000007
 30
0.0
 11
4045.0
 21
148943.658942
 31
0.0
  0
LINE
  5
8F
  8
0
  6
BYBLOCK
 62
     9
 10
3865.0
 20
148942.658942
 30
0.0
 11
3898.041831
 21
148942.658942
 31
0.0
  0
LINE
  5
90
  8
0
  6
BYBLOCK
 62
     9
 10
4025.0
 20
148942.658942
 30
0.0
 11
3991.958169
 21
148942.658942
 31
0.0
  0
SOLID
  5
91
  8
0
  6
BYBLOCK
 62
     9
 10
3865.0
 20
148945.992276
 30
0.0
 11
3865.0
 21
148939.325609
 31
0.0
 12
3845.0
 22
148942.658942
 32
0.0
 13
3845.0
 23
148942.658942
 33
0.0
  0
SOLID
  5
92
  8
0
  6
BYBLOCK
 62
     9
 10
4025.0
 20
148945.992276
 30
0.0
 11
4025.0
 21
148939.325609
 31
0.0
 12
4045.0
 22
148942.658942
 32
0.0
 13
4045.0
 23
148942.658942
 33
0.0
  0
TEXT
  5
93
  8
0
  6
BYBLOCK
 62
    11
 10
3908.68061
 20
148925.158942
 30
0.0
 40
35.0
  1
200
  0
POINT
  5
94
  8
DEFPOINTS
  6
BYBLOCK
 62
     0
 10
3845.0
 20
148859.9999
 30
0.0
  0
POINT
  5
95
  8
DEFPOINTS
  6
BYBLOCK
 62
     0
 10
4045.0
 20
148824.000007
 30
0.0
  0
POINT
  5
96
  8
DEFPOINTS
  6
BYBLOCK
 62
     0
 10
4045.0
 20
148942.658942
 30
0.0
  0
ENDBLK
  5
98
  8
0
  0
BLOCK
  8
0
  2
*D5
 70
     1
 10
0.0
 20
0.0
 30
0.0
  3
*D5
  1

  0
LINE
  5
80
  8
0
  6
BYBLOCK
 62
     9
 10
3925.0
 20
148530.0
 30
0.0
 11
3925.0
 21
148436.356566
 31
0.0
  0
LINE
  5
81
  8
0
  6
BYBLOCK
 62
     9
 10
4075.0
 20
148530.0
 30
0.0
 11
4075.0
 21
148436.356566
 31
0.0
  0
LINE
  5
82
  8
0
  6
BYBLOCK
 62
     9
 10
3945.0
 20
148437.356566
 30
0.0
 11
4055.0
 21
148437.356566
 31
0.0
  0
TEXT
  5
83
  8
0
  6
BYBLOCK
 62
    11
 10
3962.789897
 20
148452.35782
 30
0.0
 40
35.0
  1
150
  0
SOLID
  5
84
  8
0
  6
BYBLOCK
 62
     9
 10
3945.0
 20
148440.689899
 30
0.0
 11
3945.0
 21
148434.023232
 31
0.0
 12
3925.0
 22
148437.356566
 32
0.0
 13
3925.0
 23
148437.356566
 33
0.0
  0
SOLID
  5
85
  8
0
  6
BYBLOCK
 62
     9
 10
4055.0
 20
148440.689899
 30
0.0
 11
4055.0
 21
148434.023232
 31
0.0
 12
4075.0
 22
148437.356566
 32
0.0
 13
4075.0
 23
148437.356566
 33
0.0
  0
POINT
  5
86
  8
DEFPOINTS
  6
BYBLOCK
 62
     0
 10
3925.0
 20
148540.0
 30
0.0
  0
POINT
  5
87
  8
DEFPOINTS
  6
BYBLOCK
 62
     0
 10
4075.0
 20
148540.0
 30
0.0
  0
POINT
  5
88
  8
DEFPOINTS
  6
BYBLOCK
 62
     0
 10
4075.0
 20
148437.356566
 30
0.0
  0
ENDBLK
  5
8A
  8
0
  0
BLOCK
  8
0
  2
*D6
 70
     1
 10
0.0
 20
0.0
 30
0.0
  3
*D6
  1

  0
LINE
  5
72
  8
0
  6
BYBLOCK
 62
     9
 10
3845.0
 20
148879.9999
 30
0.0
 11
3845.0
 21
148895.614532
 31
0.0
  0
LINE
  5
73
  8
0
  6
BYBLOCK
 62
     9
 10
4000.0
 20
148869.9999
 30
0.0
 11
4000.0
 21
148895.614532
 31
0.0
  0
LINE
  5
74
  8
0
  6
BYBLOCK
 62
     9
 10
3825.0
 20
148894.614532
 30
0.0
 11
3805.0
 21
148894.614532
 31
0.0
  0
LINE
  5
75
  8
0
  6
BYBLOCK
 62
     9
 10
4020.0
 20
148894.614532
 30
0.0
 11
4040.0
 21
148894.614532
 31
0.0
  0
SOLID
  5
76
  8
0
  6
BYBLOCK
 62
     9
 10
3825.0
 20
148897.947865
 30
0.0
 11
3825.0
 21
148891.281198
 31
0.0
 12
3845.0
 22
148894.614532
 32
0.0
 13
3845.0
 23
148894.614532
 33
0.0
  0
SOLID
  5
77
  8
0
  6
BYBLOCK
 62
     9
 10
4020.0
 20
148897.947865
 30
0.0
 11
4020.0
 21
148891.281198
 31
0.0
 12
4000.0
 22
148894.614532
 32
0.0
 13
4000.0
 23
148894.614532
 33
0.0
  0
TEXT
  5
78
  8
0
  6
BYBLOCK
 62
    11
 10
3888.525126
 20
148877.114532
 30
0.0
 40
35.0
  1
155
  0
POINT
  5
79
  8
DEFPOINTS
  6
BYBLOCK
 62
     0
 10
3845.0
 20
148869.9999
 30
0.0
  0
POINT
  5
7A
  8
DEFPOINTS
  6
BYBLOCK
 62
     0
 10
4000.0
 20
148859.9999
 30
0.0
  0
POINT
  5
7B
  8
DEFPOINTS
  6
BYBLOCK
 62
     0
 10
4000.0
 20
148894.614532
 30
0.0
  0
ENDBLK
  5
7D
  8
0
  0
BLOCK
  8
0
  2
*D7
 70
     1
 10
0.0
 20
0.0
 30
0.0
  3
*D7
  1

  0
LINE
  5
22
  8
0
  6
BYBLOCK
 62
     9
 10
4030.0
 20
148560.0
 30
0.0
 11
4593.019949
 21
148560.0
 31
0.0
  0
LINE
  5
23
  8
0
  6
BYBLOCK
 62
     9
 10
4010.0
 20
148000.0
 30
0.0
 11
4593.019949
 21
148000.0
 31
0.0
  0
LINE
  5
24
  8
0
  6
BYBLOCK
 62
     9
 10
4592.019949
 20
148540.0
 30
0.0
 11
4592.019949
 21
148326.51378
 31
0.0
  0
LINE
  5
25
  8
0
  6
BYBLOCK
 62
     9
 10
4592.019949
 20
148020.0
 30
0.0
 11
4592.019949
 21
148233.48622
 31
0.0
  0
SOLID
  5
26
  8
0
  6
BYBLOCK
 62
     9
 10
4588.686616
 20
148540.0
 30
0.0
 11
4595.353283
 21
148540.0
 31
0.0
 12
4592.019949
 22
148560.0
 32
0.0
 13
4592.019949
 23
148560.0
 33
0.0
  0
SOLID
  5
27
  8
0
  6
BYBLOCK
 62
     9
 10
4588.686616
 20
148020.0
 30
0.0
 11
4595.353283
 21
148020.0
 31
0.0
 12
4592.019949
 22
148000.0
 32
0.0
 13
4592.019949
 23
148000.0
 33
0.0
  0
TEXT
  5
28
  8
0
  6
BYBLOCK
 62
    11
 10
4609.519949
 20
148243.23622
 30
0.0
 40
35.0
  1
560
 50
90.0
  0
POINT
  5
29
  8
DEFPOINTS
  6
BYBLOCK
 62
     0
 10
4020.0
 20
148560.0
 30
0.0
  0
POINT
  5
2B
  8
DEFPOINTS
  6
BYBLOCK
 62
     0
 10
4000.0
 20
148000.0
 30
0.0
  0
POINT
  5
2C
  8
DEFPOINTS
  6
BYBLOCK
 62
     0
 10
4592.019949
 20
148000.0
 30
0.0
  0
ENDBLK
  5
2E
  8
0
  0
ENDSEC
  0
SECTION
  2
ENTITIES
  0
DIMENSION
  5
20
  8
TEAM-MAS
  2
*D7
 10
592.019949
 20
0.0
 30
0.0
 11
592.019949
 21
280.0
 31
0.0
 12
-4000.0
 22
-148000.0
 32
0.0
 13
20.0
 23
560.0
 33
0.0
 14
0.0
 24
0.0
 34
0.0
 50
90.0
1001
ACAD
1000
DSTYLE
1002
{
1070
    40
1040
1.0
1002
}
  0
DIMENSION
  5
2F
  8
TEAM-MAS
  2
*D3
 10
592.019949
 20
560.0
 30
0.0
 11
592.019949
 21
705.000004
 31
0.0
 12
-4000.0
 22
-148000.0
 32
0.0
 13
0.0
 23
850.000007
 33
0.0
 14
20.0
 24
560.0
 34
0.0
 50
90.0
1001
ACAD
1000
DSTYLE
1002
{
1070
    40
1040
1.0
1002
}
  0
DIMENSION
  5
3D
  8
TEAM-MAS
  2
*D2
 10
527.881741
 20
655.000007
 30
0.0
 11
527.881741
 21
752.500007
 31
0.0
 12
-4000.0
 22
-148000.0
 32
0.0
 13
0.0
 23
850.000007
 33
0.0
 14
35.0
 24
655.000007
 34
0.0
 50
90.0
1001
ACAD
1000
DSTYLE
1002
{
1070
    40
1040
1.0
1002
}
  0
DIMENSION
  5
4B
  8
TEAM-MAS
  2
*D1
 10
458.393664
 20
805.000007
 30
0.0
 11
460.271774
 21
756.875994
 31
0.0
 12
-4000.0
 22
-148000.0
 32
0.0
 70
   128
 13
335.857818
 23
850.000007
 33
0.0
 14
75.0
 24
805.000007
 34
0.0
 50
90.0
1001
ACAD
1000
DSTYLE
1002
{
1070
    40
1040
1.0
1002
}
  0
DIMENSION
  5
5A
  8
TEAM-MAS
  2
*D0
 10
653.084529
 20
0.0
 30
0.0
 11
653.084529
 21
425.000004
 31
0.0
 12
-4000.0
 22
-148000.0
 32
0.0
 13
0.0
 23
850.000007
 33
0.0
 14
0.0
 24
0.0
 34
0.0
 50
90.0
1001
ACAD
1000
DSTYLE
1002
{
1070
    40
1040
1.0
1002
}
  0
LINE
  5
68
  8
TEAM-BODY
 10
335.857818
 20
850.000007
 30
0.0
 11
-152.645175
 21
850.000007
 31
0.0
  0
ARC
  5
6A
  8
TEAM-BODY
 10
40.885721
 20
1049.92512
 30
0.0
 40
371.325716
 50
263.678491
 51
324.484139
  0
ARC
  5
6B
  8
TEAM-HIDE
 10
-350.885721
 20
1049.92512
 30
0.0
 40
371.325716
 50
215.515861
 51
276.321509
  0
LINE
  5
6E
  8
TEAM-HIDE
 10
-645.857818
 20
850.000007
 30
0.0
 11
-157.354825
 21
850.000007
 31
0.0
  0
ARC
  5
6F
  8
TEAM-HIDE
 10
-645.0
 20
840.036868
 30
0.0
 40
10.0
 50
94.920985
 51
215.629143
  0
DIMENSION
  5
70
  8
TEAM-MAS
  2
*D6
 10
0.0
 20
894.614532
 30
0.0
 11
-77.5
 21
894.614532
 31
0.0
 12
-4000.0
 22
-148000.0
 32
0.0
 13
-155.0
 23
869.9999
 33
0.0
 14
0.0
 24
859.9999
 34
0.0
1001
ACAD
1000
DSTYLE
1002
{
1070
    40
1040
1.0
1002
}
  0
DIMENSION
  5
7E
  8
TEAM-MAS
  2
*D5
 10
75.0
 20
437.356566
 30
0.0
 11
-3.946323
 21
469.85782
 31
0.0
 12
-4000.0
 22
-148000.0
 32
0.0
 70
   128
 13
-75.0
 23
540.0
 33
0.0
 14
75.0
 24
540.0
 34
0.0
1001
ACAD
1000
DSTYLE
1002
{
1070
    40
1040
1.0
1002
}
  0
DIMENSION
  5
8B
  8
TEAM-MAS
  2
*D4
 10
45.0
 20
942.658942
 30
0.0
 11
-55.0
 21
942.658942
 31
0.0
 12
-4000.0
 22
-148000.0
 32
0.0
 13
-155.0
 23
859.9999
 33
0.0
 14
45.0
 24
824.000007
 34
0.0
1001
ACAD
1000
DSTYLE
1002
{
1070
    40
1040
1.0
1002
}
  0
CIRCLE
  5
99
  8
TEAM-KAN
 10
0.0
 20
560.0
 30
0.0
 40
20.0
  0
LINE
  5
9B
  8
TEAM-AXE
 10
0.0
 20
859.9999
 30
0.0
 11
0.0
 21
519.046136
 31
0.0
210
0.0
220
-0.0
230
-1.0
  0
LINE
  5
9E
  8
TEAM-HIDE
 10
-155.0
 20
859.9999
 30
0.0
 11
-155.0
 21
554.046136
 31
0.0
210
-0.0
220
-0.0
230
-1.0
  0
LINE
  5
9F
  8
TEAM-HIDE
 10
-155.0
 20
859.9999
 30
0.0
 11
-155.0
 21
554.046136
 31
0.0
210
0.0
220
-0.0
230
-1.0
  0
LINE
  5
A0
  8
TEAM-AXE
 10
-45.0
 20
560.0
 30
0.0
 11
15.0
 21
560.0
 31
0.0
  0
LINE
  5
A1
  8
TEAM-AXE
 10
32.5
 20
560.0
 30
0.0
 11
72.5
 21
560.0
 31
0.0
  0
CIRCLE
  5
A2
  8
TEAM-WARM
 10
-75.0
 20
560.0
 30
0.0
 40
10.0
  0
LINE
  5
A4
  8
TEAM-AXE
 10
-95.0
 20
560.0
 30
0.0
 11
-55.0
 21
560.0
 31
0.0
  0
LINE
  5
A5
  8
TEAM-AXE
 10
-75.0
 20
580.0
 30
0.0
 11
-75.0
 21
540.0
 31
0.0
210
0.0
220
-0.0
230
-1.0
  0
LINE
  5
A6
  8
TEAM-AXE
 10
75.0
 20
580.0
 30
0.0
 11
75.0
 21
540.0
 31
0.0
210
0.0
220
-0.0
230
-1.0
  0
CIRCLE
  5
A7
  8
TEAM-COLD
 10
75.0
 20
560.0
 30
0.0
 40
10.0
  0
ARC
  5
A9
  8
TEAM-BODY
 10
-8.290594
 20
826.824963
 30
0.0
 40
146.203037
 50
170.879419
 51
273.25076
  0
LINE
  5
AA
  8
TEAM-HIDE
 10
-35.0
 20
680.857179
 30
0.0
 11
35.0
 21
680.857179
 31
0.0
  0
LINE
  5
AB
  8
TEAM-HIDE
 10
35.0
 20
680.857179
 30
0.0
 11
35.0
 21
655.000007
 31
0.0
  0
LINE
  5
AC
  8
TEAM-HIDE
 10
-35.0
 20
655.000007
 30
0.0
 11
-35.0
 21
680.857179
 31
0.0
  0
LINE
  5
AD
  8
TEAM-HIDE
 10
35.0
 20
655.000007
 30
0.0
 11
-35.0
 21
655.000007
 31
0.0
  0
LINE
  5
AE
  8
TEAM-HIDE
 10
56.0
 20
814.000007
 30
0.0
 11
34.0
 21
814.000007
 31
0.0
  0
LINE
  5
AF
  8
TEAM-HIDE
 10
56.0
 20
814.000007
 30
0.0
 11
34.0
 21
814.000007
 31
0.0
  0
LINE
  5
B0
  8
TEAM-HIDE
 10
34.0
 20
796.000007
 30
0.0
 11
56.0
 21
796.000007
 31
0.0
  0
LINE
  5
B1
  8
TEAM-HIDE
 10
34.0
 20
796.000007
 30
0.0
 11
56.0
 21
796.000007
 31
0.0
  0
LINE
  5
B2
  8
TEAM-AXE
 10
15.0
 20
805.000007
 30
0.0
 11
75.0
 21
805.000007
 31
0.0
  0
LINE
  5
B3
  8
TEAM-AXE
 10
15.0
 20
805.000007
 30
0.0
 11
75.0
 21
805.000007
 31
0.0
  0
ARC
  5
B4
  8
TEAM-HIDE
 10
34.0
 20
805.000007
 30
0.0
 40
9.0
 50
90.0
 51
270.0
  0
ARC
  5
B5
  8
TEAM-HIDE
 10
34.0
 20
805.000007
 30
0.0
 40
9.0
 50
90.0
 51
270.0
  0
LINE
  5
B6
  8
TEAM-AXE
 10
45.0
 20
824.000007
 30
0.0
 11
45.0
 21
786.000007
 31
0.0
  0
LINE
  5
B7
  8
TEAM-AXE
 10
45.0
 20
824.000007
 30
0.0
 11
45.0
 21
786.000007
 31
0.0
  0
ARC
  5
B8
  8
TEAM-HIDE
 10
56.0
 20
805.000007
 30
0.0
 40
9.0
 50
270.0
 51
90.0
  0
ARC
  5
B9
  8
TEAM-HIDE
 10
56.0
 20
805.000007
 30
0.0
 40
9.0
 50
270.0
 51
90.0
  0
TEXT
  5
BA
  8
TEAM-TXT
 10
-96.277296
 20
714.143421
 30
0.0
 40
30.0
  1
team 221313
 41
0.8
 51
15.0
  7
TEAM
  0
LINE
  5
BD
  8
TEAM-HIDE
 10
-310.0
 20
859.9999
 30
0.0
 11
-310.0
 21
504.046136
 31
0.0
210
-0.0
220
-0.0
230
-1.0
  0
LINE
  5
BE
  8
TEAM-HIDE
 10
-275.0
 20
680.857179
 30
0.0
 11
-345.0
 21
680.857179
 31
0.0
  0
LINE
  5
BF
  8
TEAM-HIDE
 10
-275.0
 20
655.000007
 30
0.0
 11
-275.0
 21
680.857179
 31
0.0
  0
LINE
  5
C0
  8
TEAM-HIDE
 10
-345.0
 20
680.857179
 30
0.0
 11
-345.0
 21
655.000007
 31
0.0
  0
LINE
  5
C1
  8
TEAM-HIDE
 10
-345.0
 20
655.000007
 30
0.0
 11
-275.0
 21
655.000007
 31
0.0
  0
ARC
  5
C2
  8
TEAM-HIDE
 10
-301.709406
 20
826.824963
 30
0.0
 40
146.203037
 50
266.74924
 51
9.120581
  0
CIRCLE
  5
C3
  8
TEAM-INSP
 10
0.0
 20
0.0
 30
0.0
 40
10.0
  0
ARC
  5
C5
  8
TEAM-BODY
 10
335.0
 20
840.036868
 30
0.0
 40
10.0
 50
324.370857
 51
85.079015
  0
ENDSEC
  0
EOF
