  0
SECTION
  2
HEADER
  9
$ACADVER
  1
AC1009
  9
$INSBASE
 10
0.0
 20
0.0
 30
0.0
  9
$EXTMIN
 10
-241.686376
 20
-374.148994
 30
-0.000006
  9
$EXTMAX
 10
319.659834
 20
54.431075
 30
0.000005
  9
$LIMMIN
 10
-241.686376
 20
-374.148994
  9
$LIMMAX
 10
319.659834
 20
54.431075
  9
$ORTHOMODE
 70
     1
  9
$REGENMODE
 70
     1
  9
$FILLMODE
 70
     1
  9
$QTEXTMODE
 70
     0
  9
$MIRRTEXT
 70
     0
  9
$DRAGMODE
 70
     2
  9
$LTSCALE
 40
50.0
  9
$OSMODE
 70
     7
  9
$ATTMODE
 70
     1
  9
$TEXTSIZE
 40
200.0
  9
$TRACEWID
 40
1.0
  9
$TEXTSTYLE
  7
STANDARD
  9
$CLAYER
  8
TEAM-MAS
  9
$CELTYPE
  6
BYLAYER
  9
$CECOLOR
 62
   256
  9
$DIMSCALE
 40
0.0
  9
$DIMASZ
 40
20.0
  9
$DIMEXO
 40
10.0
  9
$DIMDLI
 40
1.0
  9
$DIMRND
 40
0.0
  9
$DIMDLE
 40
0.0
  9
$DIMEXE
 40
1.0
  9
$DIMTP
 40
0.0
  9
$DIMTM
 40
0.0
  9
$DIMTXT
 40
35.0
  9
$DIMCEN
 40
1.0
  9
$DIMTSZ
 40
0.0
  9
$DIMTOL
 70
     0
  9
$DIMLIM
 70
     0
  9
$DIMTIH
 70
     0
  9
$DIMTOH
 70
     0
  9
$DIMSE1
 70
     0
  9
$DIMSE2
 70
     0
  9
$DIMTAD
 70
     0
  9
$DIMZIN
 70
     0
  9
$DIMBLK
  1

  9
$DIMASO
 70
     1
  9
$DIMSHO
 70
     0
  9
$DIMPOST
  1

  9
$DIMAPOST
  1

  9
$DIMALT
 70
     0
  9
$DIMALTD
 70
     2
  9
$DIMALTF
 40
25.4
  9
$DIMLFAC
 40
1.0
  9
$DIMTOFL
 70
     0
  9
$DIMTVP
 40
0.0
  9
$DIMTIX
 70
     0
  9
$DIMSOXD
 70
     0
  9
$DIMSAH
 70
     0
  9
$DIMBLK1
  1

  9
$DIMBLK2
  1

  9
$DIMSTYLE
  2
TEAM
  9
$DIMCLRD
 70
     9
  9
$DIMCLRE
 70
     9
  9
$DIMCLRT
 70
    11
  9
$DIMTFAC
 40
1.0
  9
$DIMGAP
 40
15.0
  9
$LUNITS
 70
     2
  9
$LUPREC
 70
     1
  9
$SKETCHINC
 40
1.0
  9
$FILLETRAD
 40
50.0
  9
$AUNITS
 70
     0
  9
$AUPREC
 70
     0
  9
$MENU
  1
ROPLANS
  9
$ELEVATION
 40
0.0
  9
$PELEVATION
 40
0.0
  9
$THICKNESS
 40
0.0
  9
$LIMCHECK
 70
     0
  9
$BLIPMODE
 70
     1
  9
$CHAMFERA
 40
0.0
  9
$CHAMFERB
 40
0.0
  9
$SKPOLY
 70
     0
  9
$TDCREATE
 40
2450392.957851
  9
$TDUPDATE
 40
2455912.603428
  9
$TDINDWG
 40
2.400615
  9
$TDUSRTIMER
 40
2.400615
  9
$USRTIMER
 70
     1
  9
$ANGBASE
 50
0.0
  9
$ANGDIR
 70
     0
  9
$PDMODE
 70
     0
  9
$PDSIZE
 40
0.0
  9
$PLINEWID
 40
0.0
  9
$COORDS
 70
     2
  9
$SPLFRAME
 70
     0
  9
$SPLINETYPE
 70
     6
  9
$SPLINESEGS
 70
     8
  9
$ATTDIA
 70
     0
  9
$ATTREQ
 70
     0
  9
$HANDLING
 70
     1
  9
$HANDSEED
  5
D1
  9
$SURFTAB1
 70
    48
  9
$SURFTAB2
 70
    48
  9
$SURFTYPE
 70
     6
  9
$SURFU
 70
     6
  9
$SURFV
 70
     6
  9
$UCSNAME
  2

  9
$UCSORG
 10
0.0
 20
0.0
 30
0.0
  9
$UCSXDIR
 10
1.0
 20
0.0
 30
0.0
  9
$UCSYDIR
 10
0.0
 20
1.0
 30
0.0
  9
$PUCSNAME
  2

  9
$PUCSORG
 10
0.0
 20
0.0
 30
0.0
  9
$PUCSXDIR
 10
1.0
 20
0.0
 30
0.0
  9
$PUCSYDIR
 10
0.0
 20
1.0
 30
0.0
  9
$USERI1
 70
     0
  9
$USERI2
 70
     0
  9
$USERI3
 70
     0
  9
$USERI4
 70
     0
  9
$USERI5
 70
     0
  9
$USERR1
 40
0.0
  9
$USERR2
 40
0.0
  9
$USERR3
 40
0.0
  9
$USERR4
 40
0.0
  9
$USERR5
 40
0.0
  9
$WORLDVIEW
 70
     1
  9
$SHADEDGE
 70
     0
  9
$SHADEDIF
 70
    70
  9
$TILEMODE
 70
     1
  9
$MAXACTVP
 70
    16
  9
$PLIMCHECK
 70
     0
  9
$PEXTMIN
 10
-0.805942
 20
0.005011
 30
0.0
  9
$PEXTMAX
 10
20.250094
 20
11.356329
 30
0.0
  9
$PLIMMIN
 10
0.0
 20
0.0
  9
$PLIMMAX
 10
12.0
 20
9.0
  9
$UNITMODE
 70
     0
  9
$VISRETAIN
 70
     0
  9
$PLINEGEN
 70
     0
  9
$PSLTSCALE
 70
     0
  0
ENDSEC
  0
SECTION
  2
TABLES
  0
TABLE
  2
VPORT
 70
     2
  0
VPORT
  2
*ACTIVE
 70
     0
 10
0.0
 20
0.0
 11
1.0
 21
1.0
 12
38.986729
 22
-159.858959
 13
0.0
 23
0.0
 14
1.0
 24
1.0
 15
50.0
 25
50.0
 16
0.0
 26
0.0
 36
1.0
 17
0.0
 27
0.0
 37
0.0
 40
431.267091
 41
1.903766
 42
50.0
 43
0.0
 44
0.0
 50
0.0
 51
0.0
 71
     0
 72
   100
 73
     1
 74
     1
 75
     0
 76
     0
 77
     0
 78
     0
  0
ENDTAB
  0
TABLE
  2
LTYPE
 70
     2
  0
LTYPE
  2
CONTINUOUS
 70
     0
  3
Solid Line
 72
    65
 73
     0
 40
0.0
  0
LTYPE
  2
31
 70
     0
  3

 72
    65
 73
     4
 40
2.1
 49
1.5
 49
-0.3
 49
0.0
 49
-0.3
  0
ENDTAB
  0
TABLE
  2
LAYER
 70
     8
  0
LAYER
  2
0
 70
     0
 62
     7
  6
CONTINUOUS
  0
LAYER
  2
DEFPOINTS
 70
     0
 62
     7
  6
CONTINUOUS
  0
LAYER
  2
TEAM-BODY
 70
     0
 62
     2
  6
CONTINUOUS
  0
LAYER
  2
TEAM-AXE
 70
     0
 62
    10
  6
31
  0
LAYER
  2
TEAM-MAS
 70
     0
 62
     9
  6
CONTINUOUS
  0
LAYER
  2
TEAM-TXT
 70
     0
 62
    11
  6
CONTINUOUS
  0
LAYER
  2
TEAM-DET1
 70
     0
 62
     4
  6
CONTINUOUS
  0
LAYER
  2
TEAM-INSP
 70
     0
 62
     5
  6
CONTINUOUS
  0
ENDTAB
  0
TABLE
  2
STYLE
 70
     2
  0
STYLE
  2
STANDARD
 70
     0
 40
0.0
 41
1.0
 50
0.0
 71
     0
 42
200.0
  3
txt
  4

  0
STYLE
  2
TEAM
 70
     0
 40
0.0
 41
0.8
 50
15.0
 71
     0
 42
7.0
  3
ROMANS.shx
  4

  0
ENDTAB
  0
TABLE
  2
VIEW
 70
     0
  0
ENDTAB
  0
TABLE
  2
UCS
 70
     0
  0
ENDTAB
  0
TABLE
  2
APPID
 70
     1
  0
APPID
  2
ACAD
 70
     0
  0
ENDTAB
  0
TABLE
  2
DIMSTYLE
 70
     1
  0
DIMSTYLE
  2
TEAM
 70
     0
  3

  4

  5

  6

  7

 40
0.0
 41
20.0
 42
10.0
 43
1.0
 44
1.0
 45
0.0
 46
0.0
 47
0.0
 48
0.0
140
35.0
141
1.0
142
0.0
143
25.4
144
1.0
145
0.0
146
1.0
147
15.0
 71
     0
 72
     0
 73
     0
 74
     0
 75
     0
 76
     0
 77
     0
 78
     0
170
     0
171
     2
172
     0
173
     0
174
     0
175
     0
176
     9
177
     9
178
    11
  0
ENDTAB
  0
ENDSEC
  0
SECTION
  2
BLOCKS
  0
BLOCK
  8
0
  2
$MODEL_SPACE
 70
     0
 10
0.0
 20
0.0
 30
0.0
  3
$MODEL_SPACE
  1

  0
ENDBLK
  5
B5
  8
0
  0
BLOCK
 67
     1
  8
0
  2
$PAPER_SPACE
 70
     0
 10
0.0
 20
0.0
 30
0.0
  3
$PAPER_SPACE
  1

  0
ENDBLK
  5
B3
 67
     1
  8
0
  0
BLOCK
  8
0
  2
*D0
 70
     1
 10
0.0
 20
0.0
 30
0.0
  3
*D0
  1

  0
LINE
  5
28
  8
0
  6
BYBLOCK
 62
     9
 10
11762.481562
 20
92010.0
 30
0.0
 11
11762.481562
 21
92037.921022
 31
0.0
  0
LINE
  5
29
  8
0
  6
BYBLOCK
 62
     9
 10
12212.481562
 20
92010.0
 30
0.0
 11
12212.481562
 21
92037.921022
 31
0.0
  0
LINE
  5
2A
  8
0
  6
BYBLOCK
 62
     9
 10
11782.481562
 20
92036.921022
 30
0.0
 11
11928.731562
 21
92036.921022
 31
0.0
  0
LINE
  5
2B
  8
0
  6
BYBLOCK
 62
     9
 10
12192.481562
 20
92036.921022
 30
0.0
 11
12046.231562
 21
92036.921022
 31
0.0
  0
SOLID
  5
2C
  8
0
  6
BYBLOCK
 62
     9
 10
11782.481562
 20
92040.254356
 30
0.0
 11
11782.481562
 21
92033.587689
 31
0.0
 12
11762.481562
 22
92036.921022
 32
0.0
 13
11762.481562
 23
92036.921022
 33
0.0
  0
SOLID
  5
2D
  8
0
  6
BYBLOCK
 62
     9
 10
12192.481562
 20
92040.254356
 30
0.0
 11
12192.481562
 21
92033.587689
 31
0.0
 12
12212.481562
 22
92036.921022
 32
0.0
 13
12212.481562
 23
92036.921022
 33
0.0
  0
TEXT
  5
2E
  8
0
  6
BYBLOCK
 62
    11
 10
11943.731562
 20
92019.421022
 30
0.0
 40
35.0
  1
450
  0
POINT
  5
2F
  8
DEFPOINTS
  6
BYBLOCK
 62
     0
 10
11762.481562
 20
92000.0
 30
0.0
  0
POINT
  5
31
  8
DEFPOINTS
  6
BYBLOCK
 62
     0
 10
12212.481562
 20
92000.0
 30
0.0
  0
POINT
  5
32
  8
DEFPOINTS
  6
BYBLOCK
 62
     0
 10
12212.481562
 20
92036.921022
 30
0.0
  0
ENDBLK
  5
34
  8
0
  0
BLOCK
  8
0
  2
*D1
 70
     1
 10
0.0
 20
0.0
 30
0.0
  3
*D1
  1

  0
LINE
  5
4E
  8
0
  6
BYBLOCK
 62
     9
 10
12219.684981
 20
92000.0
 30
0.0
 11
12257.811563
 21
92000.0
 31
0.0
  0
LINE
  5
4F
  8
0
  6
BYBLOCK
 62
     9
 10
12050.0
 20
91820.0
 30
0.0
 11
12257.811563
 21
91820.0
 31
0.0
  0
LINE
  5
50
  8
0
  6
BYBLOCK
 62
     9
 10
12256.811563
 20
91980.0
 30
0.0
 11
12256.811563
 21
91965.0
 31
0.0
  0
LINE
  5
51
  8
0
  6
BYBLOCK
 62
     9
 10
12256.811563
 20
91840.0
 30
0.0
 11
12256.811563
 21
91859.583333
 31
0.0
  0
TEXT
  5
52
  8
0
  6
BYBLOCK
 62
    11
 10
12274.311563
 20
91874.583333
 30
0.0
 40
35.0
  1
180
 50
90.0
  0
SOLID
  5
53
  8
0
  6
BYBLOCK
 62
     9
 10
12253.47823
 20
91980.0
 30
0.0
 11
12260.144897
 21
91980.0
 31
0.0
 12
12256.811563
 22
92000.0
 32
0.0
 13
12256.811563
 23
92000.0
 33
0.0
  0
SOLID
  5
54
  8
0
  6
BYBLOCK
 62
     9
 10
12253.47823
 20
91840.0
 30
0.0
 11
12260.144897
 21
91840.0
 31
0.0
 12
12256.811563
 22
91820.0
 32
0.0
 13
12256.811563
 23
91820.0
 33
0.0
  0
POINT
  5
55
  8
DEFPOINTS
  6
BYBLOCK
 62
     0
 10
12209.684981
 20
92000.0
 30
0.0
  0
POINT
  5
56
  8
DEFPOINTS
  6
BYBLOCK
 62
     0
 10
12040.0
 20
91820.0
 30
0.0
  0
POINT
  5
57
  8
DEFPOINTS
  6
BYBLOCK
 62
     0
 10
12256.811563
 20
91820.0
 30
0.0
  0
ENDBLK
  5
59
  8
0
  0
BLOCK
  8
0
  2
*D2
 70
     1
 10
0.0
 20
0.0
 30
0.0
  3
*D2
  1

  0
LINE
  5
40
  8
0
  6
BYBLOCK
 62
     9
 10
12202.481562
 20
91630.0
 30
0.0
 11
12303.147392
 21
91630.0
 31
0.0
  0
LINE
  5
41
  8
0
  6
BYBLOCK
 62
     9
 10
12010.0
 20
92000.0
 30
0.0
 11
12303.147392
 21
92000.0
 31
0.0
  0
LINE
  5
42
  8
0
  6
BYBLOCK
 62
     9
 10
12302.147392
 20
91650.0
 30
0.0
 11
12302.147392
 21
91746.25
 31
0.0
  0
LINE
  5
43
  8
0
  6
BYBLOCK
 62
     9
 10
12302.147392
 20
91980.0
 30
0.0
 11
12302.147392
 21
91863.75
 31
0.0
  0
TEXT
  5
44
  8
0
  6
BYBLOCK
 62
    11
 10
12319.647392
 20
91761.25
 30
0.0
 40
35.0
  1
370
 50
90.0
  0
SOLID
  5
45
  8
0
  6
BYBLOCK
 62
     9
 10
12298.814059
 20
91650.0
 30
0.0
 11
12305.480726
 21
91650.0
 31
0.0
 12
12302.147392
 22
91630.0
 32
0.0
 13
12302.147392
 23
91630.0
 33
0.0
  0
SOLID
  5
46
  8
0
  6
BYBLOCK
 62
     9
 10
12298.814059
 20
91980.0
 30
0.0
 11
12305.480726
 21
91980.0
 31
0.0
 12
12302.147392
 22
92000.0
 32
0.0
 13
12302.147392
 23
92000.0
 33
0.0
  0
POINT
  5
47
  8
DEFPOINTS
  6
BYBLOCK
 62
     0
 10
12192.481562
 20
91630.0
 30
0.0
  0
POINT
  5
48
  8
DEFPOINTS
  6
BYBLOCK
 62
     0
 10
12000.0
 20
92000.0
 30
0.0
  0
POINT
  5
49
  8
DEFPOINTS
  6
BYBLOCK
 62
     0
 10
12302.147392
 20
92000.0
 30
0.0
  0
ENDBLK
  5
4B
  8
0
  0
ENDSEC
  0
SECTION
  2
ENTITIES
  0
TEXT
  5
20
  8
TEAM-TXT
 10
-108.836879
 20
-268.287499
 30
0.0
 40
30.0
  1
team 221351
 41
0.8
 51
15.0
  7
TEAM
  0
POLYLINE
  5
23
  8
TEAM-BODY
 66
     1
 10
0.0
 20
0.0
 30
0.0
  0
VERTEX
  5
BB
  8
TEAM-BODY
 10
-12.518438
 20
-100.564707
 30
0.0
  0
VERTEX
  5
BC
  8
TEAM-BODY
 10
156.301562
 20
-100.564707
 30
0.0
 42
-0.42344
  0
VERTEX
  5
BD
  8
TEAM-BODY
 10
179.981443
 20
-125.0
 30
0.0
  0
VERTEX
  5
BE
  8
TEAM-BODY
 10
179.981443
 20
-313.0
 30
0.0
 42
-0.419032
  0
VERTEX
  5
BF
  8
TEAM-BODY
 10
156.301562
 20
-336.294121
 30
0.0
  0
VERTEX
  5
C0
  8
TEAM-BODY
 10
-181.338439
 20
-336.294301
 30
0.0
 42
-0.409414
  0
VERTEX
  5
C1
  8
TEAM-BODY
 10
-205.018319
 20
-313.0
 30
0.0
  0
VERTEX
  5
C2
  8
TEAM-BODY
 10
-205.018319
 20
-125.0
 30
0.0
 42
-0.405047
  0
VERTEX
  5
C3
  8
TEAM-BODY
 10
-181.338438
 20
-100.564707
 30
0.0
  0
VERTEX
  5
C4
  8
TEAM-BODY
 10
-12.518438
 20
-100.564707
 30
0.0
  0
SEQEND
  5
C5
  8
TEAM-BODY
  0
POLYLINE
  5
25
  8
TEAM-BODY
 66
     1
 10
0.0
 20
0.0
 30
0.0
  0
VERTEX
  5
C6
  8
TEAM-BODY
 10
0.0
 20
0.0
 30
0.0
  0
VERTEX
  5
C7
  8
TEAM-BODY
 10
209.684981
 20
0.0
 30
0.0
  0
VERTEX
  5
C8
  8
TEAM-BODY
 10
212.481562
 20
0.0
 30
0.0
  0
VERTEX
  5
C9
  8
TEAM-BODY
 10
212.481562
 20
-350.0
 30
0.0
 42
-0.414214
  0
VERTEX
  5
CA
  8
TEAM-BODY
 10
192.481562
 20
-370.0
 30
0.0
  0
VERTEX
  5
CB
  8
TEAM-BODY
 10
-217.518438
 20
-370.0
 30
0.0
 42
-0.414214
  0
VERTEX
  5
CC
  8
TEAM-BODY
 10
-237.518438
 20
-350.0
 30
0.0
  0
VERTEX
  5
CD
  8
TEAM-BODY
 10
-237.518438
 20
0.0
 30
0.0
  0
VERTEX
  5
CE
  8
TEAM-BODY
 10
0.0
 20
0.0
 30
0.0
  0
SEQEND
  5
CF
  8
TEAM-BODY
  0
DIMENSION
  5
26
  8
TEAM-MAS
  2
*D0
 10
212.481562
 20
36.921022
 30
0.0
 11
-12.518438
 21
36.921022
 31
0.0
 12
-12000.0
 22
-92000.0
 32
0.0
 13
-237.518438
 23
0.0
 33
0.0
 14
212.481562
 24
0.0
 34
0.0
1001
ACAD
1000
DSTYLE
1002
{
1070
    40
1040
1.0
1002
}
  0
CIRCLE
  5
35
  8
TEAM-INSP
 10
0.0
 20
0.0
 30
0.0
 40
10.0
  0
CIRCLE
  5
37
  8
TEAM-BODY
 10
0.0
 20
-180.0
 30
0.0
 40
20.0
  0
LINE
  5
38
  8
TEAM-AXE
 10
0.0
 20
-220.0
 30
0.0
 11
0.0
 21
-140.0
 31
0.0
  0
LINE
  5
3B
  8
TEAM-AXE
 10
-40.0
 20
-180.0
 30
0.0
 11
40.0
 21
-180.0
 31
0.0
  0
CIRCLE
  5
3C
  8
TEAM-DET1
 10
0.0
 20
-180.0
 30
0.0
 40
30.0
  0
DIMENSION
  5
3E
  8
TEAM-MAS
  2
*D2
 10
302.147392
 20
0.0
 30
0.0
 11
302.147392
 21
-195.0
 31
0.0
 12
-12000.0
 22
-92000.0
 32
0.0
 70
   128
 13
192.481562
 23
-370.0
 33
0.0
 14
0.0
 24
0.0
 34
0.0
 50
90.0
1001
ACAD
1000
DSTYLE
1002
{
1070
    40
1040
1.0
1002
}
  0
DIMENSION
  5
4C
  8
TEAM-MAS
  2
*D1
 10
256.811563
 20
-180.0
 30
0.0
 11
256.811563
 21
-87.5
 31
0.0
 12
-12000.0
 22
-92000.0
 32
0.0
 70
   128
 13
209.684981
 23
0.0
 33
0.0
 14
40.0
 24
-180.0
 34
0.0
 50
90.0
1001
ACAD
1000
DSTYLE
1002
{
1070
    40
1040
1.0
1002
}
  0
ENDSEC
  0
EOF
