  0
SECTION
  2
HEADER
  9
$ACADVER
  1
AC1009
  9
$INSBASE
 10
0.0
 20
0.0
 30
0.0
  9
$EXTMIN
 10
-180.02794
 20
-673.892822
 30
-10.00061
  9
$EXTMAX
 10
278.537691
 20
10.041702
 30
0.00061
  9
$LIMMIN
 10
-180.02794
 20
-673.892822
  9
$LIMMAX
 10
278.537691
 20
10.041702
  9
$ORTHOMODE
 70
     1
  9
$REGENMODE
 70
     1
  9
$FILLMODE
 70
     1
  9
$QTEXTMODE
 70
     0
  9
$MIRRTEXT
 70
     0
  9
$DRAGMODE
 70
     2
  9
$LTSCALE
 40
25.0
  9
$OSMODE
 70
     0
  9
$ATTMODE
 70
     1
  9
$TEXTSIZE
 40
200.0
  9
$TRACEWID
 40
1.0
  9
$TEXTSTYLE
  7
STANDARD
  9
$CLAYER
  8
TEAM-MAS
  9
$CELTYPE
  6
BYLAYER
  9
$CECOLOR
 62
   256
  9
$DIMSCALE
 40
0.0
  9
$DIMASZ
 40
20.0
  9
$DIMEXO
 40
10.0
  9
$DIMDLI
 40
1.0
  9
$DIMRND
 40
0.0
  9
$DIMDLE
 40
0.0
  9
$DIMEXE
 40
1.0
  9
$DIMTP
 40
0.0
  9
$DIMTM
 40
0.0
  9
$DIMTXT
 40
35.0
  9
$DIMCEN
 40
1.0
  9
$DIMTSZ
 40
0.0
  9
$DIMTOL
 70
     0
  9
$DIMLIM
 70
     0
  9
$DIMTIH
 70
     0
  9
$DIMTOH
 70
     0
  9
$DIMSE1
 70
     0
  9
$DIMSE2
 70
     0
  9
$DIMTAD
 70
     0
  9
$DIMZIN
 70
     0
  9
$DIMBLK
  1

  9
$DIMASO
 70
     1
  9
$DIMSHO
 70
     0
  9
$DIMPOST
  1

  9
$DIMAPOST
  1

  9
$DIMALT
 70
     0
  9
$DIMALTD
 70
     2
  9
$DIMALTF
 40
25.4
  9
$DIMLFAC
 40
1.0
  9
$DIMTOFL
 70
     0
  9
$DIMTVP
 40
0.0
  9
$DIMTIX
 70
     0
  9
$DIMSOXD
 70
     0
  9
$DIMSAH
 70
     0
  9
$DIMBLK1
  1

  9
$DIMBLK2
  1

  9
$DIMSTYLE
  2
TEAM
  9
$DIMCLRD
 70
     9
  9
$DIMCLRE
 70
     9
  9
$DIMCLRT
 70
    11
  9
$DIMTFAC
 40
1.0
  9
$DIMGAP
 40
15.0
  9
$LUNITS
 70
     2
  9
$LUPREC
 70
     1
  9
$SKETCHINC
 40
1.0
  9
$FILLETRAD
 40
50.0
  9
$AUNITS
 70
     0
  9
$AUPREC
 70
     0
  9
$MENU
  1
ROPLANS
  9
$ELEVATION
 40
0.0
  9
$PELEVATION
 40
0.0
  9
$THICKNESS
 40
0.0
  9
$LIMCHECK
 70
     0
  9
$BLIPMODE
 70
     1
  9
$CHAMFERA
 40
0.0
  9
$CHAMFERB
 40
0.0
  9
$SKPOLY
 70
     0
  9
$TDCREATE
 40
2450392.957851
  9
$TDUPDATE
 40
2455505.390806
  9
$TDINDWG
 40
2.108696
  9
$TDUSRTIMER
 40
2.108696
  9
$USRTIMER
 70
     1
  9
$ANGBASE
 50
0.0
  9
$ANGDIR
 70
     0
  9
$PDMODE
 70
     0
  9
$PDSIZE
 40
0.0
  9
$PLINEWID
 40
0.0
  9
$COORDS
 70
     2
  9
$SPLFRAME
 70
     0
  9
$SPLINETYPE
 70
     6
  9
$SPLINESEGS
 70
     8
  9
$ATTDIA
 70
     0
  9
$ATTREQ
 70
     0
  9
$HANDLING
 70
     1
  9
$HANDSEED
  5
39F
  9
$SURFTAB1
 70
    24
  9
$SURFTAB2
 70
    24
  9
$SURFTYPE
 70
     6
  9
$SURFU
 70
     6
  9
$SURFV
 70
     6
  9
$UCSNAME
  2

  9
$UCSORG
 10
0.0
 20
0.0
 30
0.0
  9
$UCSXDIR
 10
1.0
 20
0.0
 30
0.0
  9
$UCSYDIR
 10
0.0
 20
1.0
 30
0.0
  9
$PUCSNAME
  2

  9
$PUCSORG
 10
0.0
 20
0.0
 30
0.0
  9
$PUCSXDIR
 10
1.0
 20
0.0
 30
0.0
  9
$PUCSYDIR
 10
0.0
 20
1.0
 30
0.0
  9
$USERI1
 70
     0
  9
$USERI2
 70
     0
  9
$USERI3
 70
     0
  9
$USERI4
 70
     0
  9
$USERI5
 70
     0
  9
$USERR1
 40
0.0
  9
$USERR2
 40
0.0
  9
$USERR3
 40
0.0
  9
$USERR4
 40
0.0
  9
$USERR5
 40
0.0
  9
$WORLDVIEW
 70
     1
  9
$SHADEDGE
 70
     0
  9
$SHADEDIF
 70
    70
  9
$TILEMODE
 70
     1
  9
$MAXACTVP
 70
    16
  9
$PLIMCHECK
 70
     0
  9
$PEXTMIN
 10
-0.805942
 20
0.005011
 30
0.0
  9
$PEXTMAX
 10
20.250094
 20
11.356329
 30
0.0
  9
$PLIMMIN
 10
0.0
 20
0.0
  9
$PLIMMAX
 10
12.0
 20
9.0
  9
$UNITMODE
 70
     0
  9
$VISRETAIN
 70
     0
  9
$PLINEGEN
 70
     0
  9
$PSLTSCALE
 70
     0
  0
ENDSEC
  0
SECTION
  2
TABLES
  0
TABLE
  2
VPORT
 70
     2
  0
VPORT
  2
*ACTIVE
 70
     0
 10
0.0
 20
0.0
 11
1.0
 21
1.0
 12
49.254875
 22
-331.92556
 13
0.0
 23
0.0
 14
1.0
 24
1.0
 15
50.0
 25
50.0
 16
0.0
 26
0.0
 36
1.0
 17
0.0
 27
0.0
 37
0.0
 40
688.134736
 41
1.865779
 42
50.0
 43
0.0
 44
0.0
 50
0.0
 51
0.0
 71
     0
 72
   100
 73
     1
 74
     1
 75
     0
 76
     0
 77
     0
 78
     0
  0
ENDTAB
  0
TABLE
  2
LTYPE
 70
     2
  0
LTYPE
  2
CONTINUOUS
 70
     0
  3
Solid Line
 72
    65
 73
     0
 40
0.0
  0
LTYPE
  2
31
 70
     0
  3

 72
    65
 73
     4
 40
2.1
 49
1.5
 49
-0.3
 49
0.0
 49
-0.3
  0
ENDTAB
  0
TABLE
  2
LAYER
 70
     8
  0
LAYER
  2
0
 70
     0
 62
     7
  6
CONTINUOUS
  0
LAYER
  2
DEFPOINTS
 70
     0
 62
     7
  6
CONTINUOUS
  0
LAYER
  2
TEAM-BODY
 70
     0
 62
     2
  6
CONTINUOUS
  0
LAYER
  2
TEAM-AXE
 70
     0
 62
    10
  6
31
  0
LAYER
  2
TEAM-MAS
 70
     0
 62
     9
  6
CONTINUOUS
  0
LAYER
  2
TEAM-TXT
 70
     0
 62
    11
  6
CONTINUOUS
  0
LAYER
  2
TEAM-DET1
 70
     0
 62
     4
  6
CONTINUOUS
  0
LAYER
  2
TEAM-INSP
 70
     0
 62
     5
  6
CONTINUOUS
  0
ENDTAB
  0
TABLE
  2
STYLE
 70
     2
  0
STYLE
  2
STANDARD
 70
     0
 40
0.0
 41
1.0
 50
0.0
 71
     0
 42
200.0
  3
txt
  4

  0
STYLE
  2
TEAM
 70
     0
 40
0.0
 41
0.8
 50
15.0
 71
     0
 42
7.0
  3
ROMANS.shx
  4

  0
ENDTAB
  0
TABLE
  2
VIEW
 70
     0
  0
ENDTAB
  0
TABLE
  2
UCS
 70
     0
  0
ENDTAB
  0
TABLE
  2
APPID
 70
     1
  0
APPID
  2
ACAD
 70
     0
  0
ENDTAB
  0
TABLE
  2
DIMSTYLE
 70
     1
  0
DIMSTYLE
  2
TEAM
 70
     0
  3

  4

  5

  6

  7

 40
0.0
 41
20.0
 42
10.0
 43
1.0
 44
1.0
 45
0.0
 46
0.0
 47
0.0
 48
0.0
140
35.0
141
1.0
142
0.0
143
25.4
144
1.0
145
0.0
146
1.0
147
15.0
 71
     0
 72
     0
 73
     0
 74
     0
 75
     0
 76
     0
 77
     0
 78
     0
170
     0
171
     2
172
     0
173
     0
174
     0
175
     0
176
     9
177
     9
178
    11
  0
ENDTAB
  0
ENDSEC
  0
SECTION
  2
BLOCKS
  0
BLOCK
  8
0
  2
$MODEL_SPACE
 70
     0
 10
0.0
 20
0.0
 30
0.0
  3
$MODEL_SPACE
  1

  0
ENDBLK
  5
306
  8
0
  0
BLOCK
 67
     1
  8
0
  2
$PAPER_SPACE
 70
     0
 10
0.0
 20
0.0
 30
0.0
  3
$PAPER_SPACE
  1

  0
ENDBLK
  5
304
 67
     1
  8
0
  0
BLOCK
  8
0
  2
*D0
 70
     1
 10
0.0
 20
0.0
 30
0.0
  3
*D0
  1

  0
LINE
  5
31
  8
0
  6
BYBLOCK
 62
     9
 10
3820.0
 20
223644.228162
 30
0.0
 11
3820.0
 21
223342.318334
 31
0.0
  0
LINE
  5
32
  8
0
  6
BYBLOCK
 62
     9
 10
4180.0
 20
223653.385267
 30
0.0
 11
4180.0
 21
223342.318334
 31
0.0
  0
LINE
  5
33
  8
0
  6
BYBLOCK
 62
     9
 10
3840.0
 20
223343.318334
 30
0.0
 11
3953.48622
 21
223343.318334
 31
0.0
  0
LINE
  5
34
  8
0
  6
BYBLOCK
 62
     9
 10
4160.0
 20
223343.318334
 30
0.0
 11
4046.51378
 21
223343.318334
 31
0.0
  0
SOLID
  5
35
  8
0
  6
BYBLOCK
 62
     9
 10
3840.0
 20
223346.651667
 30
0.0
 11
3840.0
 21
223339.985
 31
0.0
 12
3820.0
 22
223343.318334
 32
0.0
 13
3820.0
 23
223343.318334
 33
0.0
  0
SOLID
  5
36
  8
0
  6
BYBLOCK
 62
     9
 10
4160.0
 20
223346.651667
 30
0.0
 11
4160.0
 21
223339.985
 31
0.0
 12
4180.0
 22
223343.318334
 32
0.0
 13
4180.0
 23
223343.318334
 33
0.0
  0
TEXT
  5
37
  8
0
  6
BYBLOCK
 62
    11
 10
3963.23622
 20
223325.818334
 30
0.0
 40
35.0
  1
360
  0
POINT
  5
38
  8
DEFPOINTS
  6
BYBLOCK
 62
     0
 10
3820.0
 20
223654.228162
 30
0.0
  0
POINT
  5
39
  8
DEFPOINTS
  6
BYBLOCK
 62
     0
 10
4180.0
 20
223663.385267
 30
0.0
  0
POINT
  5
3A
  8
DEFPOINTS
  6
BYBLOCK
 62
     0
 10
4180.0
 20
223343.318334
 30
-10.0
  0
ENDBLK
  5
3C
  8
0
  0
BLOCK
  8
0
  2
*D1
 70
     1
 10
0.0
 20
0.0
 30
0.0
  3
*D1
  1

  0
LINE
  5
22
  8
0
  6
BYBLOCK
 62
     9
 10
4185.956192
 20
224000.0
 30
0.0
 11
4262.316197
 21
224000.0
 31
0.0
  0
LINE
  5
23
  8
0
  6
BYBLOCK
 62
     9
 10
4017.225793
 20
223440.0
 30
0.0
 11
4262.316197
 21
223440.0
 31
0.0
  0
LINE
  5
24
  8
0
  6
BYBLOCK
 62
     9
 10
4261.316197
 20
223980.0
 30
0.0
 11
4261.316197
 21
223766.51378
 31
0.0
  0
LINE
  5
25
  8
0
  6
BYBLOCK
 62
     9
 10
4261.316197
 20
223460.0
 30
0.0
 11
4261.316197
 21
223673.48622
 31
0.0
  0
SOLID
  5
26
  8
0
  6
BYBLOCK
 62
     9
 10
4257.982863
 20
223980.0
 30
0.0
 11
4264.64953
 21
223980.0
 31
0.0
 12
4261.316197
 22
224000.0
 32
0.0
 13
4261.316197
 23
224000.0
 33
0.0
  0
SOLID
  5
27
  8
0
  6
BYBLOCK
 62
     9
 10
4257.982863
 20
223460.0
 30
0.0
 11
4264.64953
 21
223460.0
 31
0.0
 12
4261.316197
 22
223440.0
 32
0.0
 13
4261.316197
 23
223440.0
 33
0.0
  0
TEXT
  5
28
  8
0
  6
BYBLOCK
 62
    11
 10
4278.816197
 20
223683.23622
 30
0.0
 40
35.0
  1
560
 50
90.0
  0
POINT
  5
29
  8
DEFPOINTS
  6
BYBLOCK
 62
     0
 10
4175.956192
 20
224000.0
 30
0.0
  0
POINT
  5
2B
  8
DEFPOINTS
  6
BYBLOCK
 62
     0
 10
4007.225793
 20
223440.0
 30
0.0
  0
POINT
  5
2C
  8
DEFPOINTS
  6
BYBLOCK
 62
     0
 10
4261.316197
 20
223440.0
 30
0.0
  0
ENDBLK
  5
2E
  8
0
  0
ENDSEC
  0
SECTION
  2
ENTITIES
  0
DIMENSION
  5
20
  8
TEAM-MAS
  2
*D1
 10
261.316197
 20
-560.0
 30
0.0
 11
261.316197
 21
-280.0
 31
0.0
 12
-4000.0
 22
-224000.0
 32
0.0
 13
175.956192
 23
0.0
 33
0.0
 14
7.225793
 24
-560.0
 34
0.0
 50
90.0
1001
ACAD
1000
DSTYLE
1002
{
1070
    40
1040
1.0
1002
}
  0
DIMENSION
  5
2F
  8
TEAM-MAS
  2
*D0
 10
180.0
 20
-656.681666
 30
-10.0
 11
0.0
 21
-656.681666
 31
0.0
 12
-4000.0
 22
-224000.0
 32
0.0
 13
-180.0
 23
-345.771838
 33
0.0
 14
180.0
 24
-336.614733
 34
0.0
1001
ACAD
1000
DSTYLE
1002
{
1070
    40
1040
1.0
1002
}
  0
POLYLINE
  5
3D
  8
TEAM-BODY
 66
     1
 10
0.0
 20
0.0
 30
0.0
  0
VERTEX
  5
30C
  8
TEAM-BODY
 10
102.316819
 20
-242.320437
 30
0.0
  0
VERTEX
  5
30D
  8
TEAM-BODY
 10
99.590012
 20
-237.320651
 30
0.0
  0
VERTEX
  5
30E
  8
TEAM-BODY
 10
94.208008
 20
-228.856661
 30
0.0
  0
VERTEX
  5
30F
  8
TEAM-BODY
 10
88.090012
 20
-220.898654
 30
0.0
  0
VERTEX
  5
310
  8
TEAM-BODY
 10
81.316529
 20
-213.504153
 30
0.0
  0
VERTEX
  5
311
  8
TEAM-BODY
 10
73.922028
 20
-206.730654
 30
0.0
  0
VERTEX
  5
312
  8
TEAM-BODY
 10
65.964035
 20
-200.612673
 30
0.0
  0
VERTEX
  5
313
  8
TEAM-BODY
 10
57.500046
 20
-195.230685
 30
0.0
  0
VERTEX
  5
314
  8
TEAM-BODY
 10
48.599045
 20
-190.596163
 30
0.0
  0
VERTEX
  5
315
  8
TEAM-BODY
 10
39.330056
 20
-186.755191
 30
0.0
  0
VERTEX
  5
316
  8
TEAM-BODY
 10
29.762062
 20
-183.74219
 30
0.0
  0
VERTEX
  5
317
  8
TEAM-BODY
 10
19.964066
 20
-181.568667
 30
0.0
  0
VERTEX
  5
318
  8
TEAM-BODY
 10
10.028073
 20
-180.257693
 30
0.0
  0
VERTEX
  5
319
  8
TEAM-BODY
 10
0.00008
 20
-179.820681
 30
0.0
  0
VERTEX
  5
31A
  8
TEAM-BODY
 10
-10.027912
 20
-180.257693
 30
0.0
  0
VERTEX
  5
31B
  8
TEAM-BODY
 10
-19.963907
 20
-181.568667
 30
0.0
  0
VERTEX
  5
31C
  8
TEAM-BODY
 10
-29.7619
 20
-183.74219
 30
0.0
  0
VERTEX
  5
31D
  8
TEAM-BODY
 10
-39.329895
 20
-186.755191
 30
0.0
  0
VERTEX
  5
31E
  8
TEAM-BODY
 10
-48.598888
 20
-190.596163
 30
0.0
  0
VERTEX
  5
31F
  8
TEAM-BODY
 10
-57.499881
 20
-195.230685
 30
0.0
  0
VERTEX
  5
320
  8
TEAM-BODY
 10
-65.963875
 20
-200.612673
 30
0.0
  0
VERTEX
  5
321
  8
TEAM-BODY
 10
-73.921867
 20
-206.730654
 30
0.0
  0
VERTEX
  5
322
  8
TEAM-BODY
 10
-81.316362
 20
-213.504153
 30
0.0
  0
VERTEX
  5
323
  8
TEAM-BODY
 10
-88.089859
 20
-220.898654
 30
0.0
  0
VERTEX
  5
324
  8
TEAM-BODY
 10
-94.207855
 20
-228.856661
 30
0.0
  0
VERTEX
  5
325
  8
TEAM-BODY
 10
-99.589855
 20
-237.320651
 30
0.0
  0
VERTEX
  5
326
  8
TEAM-BODY
 10
-102.316669
 20
-242.320437
 30
0.0
  0
SEQEND
  5
327
  8
TEAM-BODY
  0
POLYLINE
  5
3F
  8
TEAM-BODY
 66
     1
 10
0.0
 20
0.0
 30
0.0
  0
VERTEX
  5
328
  8
TEAM-BODY
 10
-102.31689
 20
-452.320605
 30
0.0
  0
VERTEX
  5
329
  8
TEAM-BODY
 10
-99.135097
 20
-458.112708
 30
0.0
  0
VERTEX
  5
32A
  8
TEAM-BODY
 10
-95.671512
 20
-463.65034
 30
0.0
  0
VERTEX
  5
32B
  8
TEAM-BODY
 10
-91.939167
 20
-468.929122
 30
0.0
  0
VERTEX
  5
32C
  8
TEAM-BODY
 10
-87.951099
 20
-473.944678
 30
0.0
  0
VERTEX
  5
32D
  8
TEAM-BODY
 10
-83.720344
 20
-478.692622
 30
0.0
  0
VERTEX
  5
32E
  8
TEAM-BODY
 10
-79.259933
 20
-483.168582
 30
0.0
  0
VERTEX
  5
32F
  8
TEAM-BODY
 10
-74.582903
 20
-487.36817
 30
0.0
  0
VERTEX
  5
330
  8
TEAM-BODY
 10
-69.702289
 20
-491.287011
 30
0.0
  0
VERTEX
  5
331
  8
TEAM-BODY
 10
-64.631124
 20
-494.920725
 30
0.0
  0
VERTEX
  5
332
  8
TEAM-BODY
 10
-59.382444
 20
-498.264933
 30
0.0
  0
VERTEX
  5
333
  8
TEAM-BODY
 10
-53.969283
 20
-501.315255
 30
0.0
  0
VERTEX
  5
334
  8
TEAM-BODY
 10
-48.404677
 20
-504.067309
 30
0.0
  0
VERTEX
  5
335
  8
TEAM-BODY
 10
-42.701658
 20
-506.516718
 30
0.0
  0
VERTEX
  5
336
  8
TEAM-BODY
 10
-36.873263
 20
-508.659101
 30
0.0
  0
VERTEX
  5
337
  8
TEAM-BODY
 10
-30.932525
 20
-510.49008
 30
0.0
  0
VERTEX
  5
338
  8
TEAM-BODY
 10
-24.892481
 20
-512.005273
 30
0.0
  0
VERTEX
  5
339
  8
TEAM-BODY
 10
-18.766165
 20
-513.200302
 30
0.0
  0
VERTEX
  5
33A
  8
TEAM-BODY
 10
-12.566608
 20
-514.070787
 30
0.0
  0
VERTEX
  5
33B
  8
TEAM-BODY
 10
-6.306846
 20
-514.612347
 30
0.0
  0
VERTEX
  5
33C
  8
TEAM-BODY
 10
0.00008
 20
-514.820605
 30
0.0
  0
SEQEND
  5
33D
  8
TEAM-BODY
  0
POLYLINE
  5
40
  8
TEAM-BODY
 66
     1
 10
0.0
 20
0.0
 30
0.0
  0
VERTEX
  5
33E
  8
TEAM-BODY
 10
-179.822326
 20
-345.771838
 30
0.0
  0
VERTEX
  5
33F
  8
TEAM-BODY
 10
-179.142013
 20
-368.24187
 30
0.0
  0
VERTEX
  5
340
  8
TEAM-BODY
 10
-177.149132
 20
-389.312152
 30
0.0
  0
VERTEX
  5
341
  8
TEAM-BODY
 10
-173.915725
 20
-409.009524
 30
0.0
  0
VERTEX
  5
342
  8
TEAM-BODY
 10
-168.513847
 20
-427.360819
 30
0.0
  0
VERTEX
  5
343
  8
TEAM-BODY
 10
-163.015564
 20
-444.392886
 30
0.0
  0
VERTEX
  5
344
  8
TEAM-BODY
 10
-156.49292
 20
-460.132563
 30
0.0
  0
VERTEX
  5
345
  8
TEAM-BODY
 10
-149.017975
 20
-474.606688
 30
0.0
  0
VERTEX
  5
346
  8
TEAM-BODY
 10
-140.662796
 20
-487.842112
 30
0.0
  0
VERTEX
  5
347
  8
TEAM-BODY
 10
-131.49942
 20
-499.865668
 30
0.0
  0
VERTEX
  5
348
  8
TEAM-BODY
 10
-121.599922
 20
-510.704203
 30
0.0
  0
VERTEX
  5
349
  8
TEAM-BODY
 10
-111.036342
 20
-520.384557
 30
0.0
  0
VERTEX
  5
34A
  8
TEAM-BODY
 10
-99.880745
 20
-528.933571
 30
0.0
  0
VERTEX
  5
34B
  8
TEAM-BODY
 10
-88.205185
 20
-536.378088
 30
0.0
  0
VERTEX
  5
34C
  8
TEAM-BODY
 10
-76.081714
 20
-542.744948
 30
0.0
  0
VERTEX
  5
34D
  8
TEAM-BODY
 10
-63.582393
 20
-548.060994
 30
0.0
  0
VERTEX
  5
34E
  8
TEAM-BODY
 10
-50.779276
 20
-552.353068
 30
0.0
  0
VERTEX
  5
34F
  8
TEAM-BODY
 10
-37.744419
 20
-555.648009
 30
0.0
  0
VERTEX
  5
350
  8
TEAM-BODY
 10
-24.549879
 20
-557.972663
 30
0.0
  0
VERTEX
  5
351
  8
TEAM-BODY
 10
-11.267708
 20
-559.353869
 30
0.0
  0
VERTEX
  5
352
  8
TEAM-BODY
 10
2.030033
 20
-559.818469
 30
0.0
  0
SEQEND
  5
353
  8
TEAM-BODY
  0
POLYLINE
  5
41
  8
TEAM-BODY
 66
     1
 10
0.0
 20
0.0
 30
0.0
  0
VERTEX
  5
354
  8
TEAM-BODY
 10
-102.316818
 20
-242.320193
 30
0.0
  0
VERTEX
  5
355
  8
TEAM-BODY
 10
-106.13219
 20
-250.122561
 30
0.0
  0
VERTEX
  5
356
  8
TEAM-BODY
 10
-113.814193
 20
-268.660571
 30
0.0
  0
VERTEX
  5
357
  8
TEAM-BODY
 10
-119.840194
 20
-287.796588
 30
0.0
  0
VERTEX
  5
358
  8
TEAM-BODY
 10
-124.187195
 20
-307.392596
 30
0.0
  0
VERTEX
  5
359
  8
TEAM-BODY
 10
-126.809204
 20
-327.26459
 30
0.0
  0
VERTEX
  5
35A
  8
TEAM-BODY
 10
-127.683197
 20
-347.320605
 30
0.0
  0
VERTEX
  5
35B
  8
TEAM-BODY
 10
-126.809204
 20
-367.37662
 30
0.0
  0
VERTEX
  5
35C
  8
TEAM-BODY
 10
-124.187195
 20
-387.248614
 30
0.0
  0
VERTEX
  5
35D
  8
TEAM-BODY
 10
-119.840194
 20
-406.84463
 30
0.0
  0
VERTEX
  5
35E
  8
TEAM-BODY
 10
-113.814193
 20
-425.980639
 30
0.0
  0
VERTEX
  5
35F
  8
TEAM-BODY
 10
-106.13219
 20
-444.518641
 30
0.0
  0
VERTEX
  5
360
  8
TEAM-BODY
 10
-102.316818
 20
-452.321025
 30
0.0
  0
SEQEND
  5
361
  8
TEAM-BODY
  0
POLYLINE
  5
42
  8
TEAM-BODY
 66
     1
 10
0.0
 20
0.0
 30
0.0
  0
VERTEX
  5
362
  8
TEAM-BODY
 10
0.00008
 20
-514.820605
 30
0.0
  0
VERTEX
  5
363
  8
TEAM-BODY
 10
6.605957
 20
-514.633961
 30
0.0
  0
VERTEX
  5
364
  8
TEAM-BODY
 10
13.114075
 20
-514.080427
 30
0.0
  0
VERTEX
  5
365
  8
TEAM-BODY
 10
19.51458
 20
-513.169602
 30
0.0
  0
VERTEX
  5
366
  8
TEAM-BODY
 10
25.797638
 20
-511.911084
 30
0.0
  0
VERTEX
  5
367
  8
TEAM-BODY
 10
31.953385
 20
-510.31447
 30
0.0
  0
VERTEX
  5
368
  8
TEAM-BODY
 10
37.971977
 20
-508.389359
 30
0.0
  0
VERTEX
  5
369
  8
TEAM-BODY
 10
43.843575
 20
-506.14535
 30
0.0
  0
VERTEX
  5
36A
  8
TEAM-BODY
 10
49.558327
 20
-503.59204
 30
0.0
  0
VERTEX
  5
36B
  8
TEAM-BODY
 10
55.106385
 20
-500.739028
 30
0.0
  0
VERTEX
  5
36C
  8
TEAM-BODY
 10
60.477906
 20
-497.595912
 30
0.0
  0
VERTEX
  5
36D
  8
TEAM-BODY
 10
65.66304
 20
-494.17229
 30
0.0
  0
VERTEX
  5
36E
  8
TEAM-BODY
 10
70.651932
 20
-490.477759
 30
0.0
  0
VERTEX
  5
36F
  8
TEAM-BODY
 10
75.434746
 20
-486.521918
 30
0.0
  0
VERTEX
  5
370
  8
TEAM-BODY
 10
80.001633
 20
-482.314364
 30
0.0
  0
VERTEX
  5
371
  8
TEAM-BODY
 10
84.342743
 20
-477.864699
 30
0.0
  0
VERTEX
  5
372
  8
TEAM-BODY
 10
88.448227
 20
-473.182521
 30
0.0
  0
VERTEX
  5
373
  8
TEAM-BODY
 10
92.308243
 20
-468.277423
 30
0.0
  0
VERTEX
  5
374
  8
TEAM-BODY
 10
95.912934
 20
-463.159003
 30
0.0
  0
VERTEX
  5
375
  8
TEAM-BODY
 10
99.252457
 20
-457.836867
 30
0.0
  0
VERTEX
  5
376
  8
TEAM-BODY
 10
102.316971
 20
-452.320605
 30
0.0
  0
SEQEND
  5
377
  8
TEAM-BODY
  0
POLYLINE
  5
43
  8
TEAM-BODY
 66
     1
 10
0.0
 20
0.0
 30
0.0
  0
VERTEX
  5
378
  8
TEAM-BODY
 10
2.030033
 20
-559.818469
 30
0.0
  0
VERTEX
  5
379
  8
TEAM-BODY
 10
15.363869
 20
-559.268614
 30
0.0
  0
VERTEX
  5
37A
  8
TEAM-BODY
 10
28.623268
 20
-557.617339
 30
0.0
  0
VERTEX
  5
37B
  8
TEAM-BODY
 10
41.742348
 20
-554.862063
 30
0.0
  0
VERTEX
  5
37C
  8
TEAM-BODY
 10
54.655213
 20
-551.000212
 30
0.0
  0
VERTEX
  5
37D
  8
TEAM-BODY
 10
67.295967
 20
-546.029212
 30
0.0
  0
VERTEX
  5
37E
  8
TEAM-BODY
 10
79.598725
 20
-539.946484
 30
0.0
  0
VERTEX
  5
37F
  8
TEAM-BODY
 10
91.497605
 20
-532.749455
 30
0.0
  0
VERTEX
  5
380
  8
TEAM-BODY
 10
102.926697
 20
-524.435549
 30
0.0
  0
VERTEX
  5
381
  8
TEAM-BODY
 10
113.820114
 20
-515.00219
 30
0.0
  0
VERTEX
  5
382
  8
TEAM-BODY
 10
124.111969
 20
-504.446803
 30
0.0
  0
VERTEX
  5
383
  8
TEAM-BODY
 10
133.736374
 20
-492.766812
 30
0.0
  0
VERTEX
  5
384
  8
TEAM-BODY
 10
142.627426
 20
-479.959639
 30
0.0
  0
VERTEX
  5
385
  8
TEAM-BODY
 10
150.719254
 20
-466.022715
 30
0.0
  0
VERTEX
  5
386
  8
TEAM-BODY
 10
157.945938
 20
-450.953456
 30
0.0
  0
VERTEX
  5
387
  8
TEAM-BODY
 10
165.241608
 20
-434.749293
 30
0.0
  0
VERTEX
  5
388
  8
TEAM-BODY
 10
170.540375
 20
-417.407649
 30
0.0
  0
VERTEX
  5
389
  8
TEAM-BODY
 10
174.776322
 20
-398.925944
 30
0.0
  0
VERTEX
  5
38A
  8
TEAM-BODY
 10
177.883591
 20
-379.301608
 30
0.0
  0
VERTEX
  5
38B
  8
TEAM-BODY
 10
179.796265
 20
-358.532061
 30
0.0
  0
VERTEX
  5
38C
  8
TEAM-BODY
 10
180.448471
 20
-336.614733
 30
0.0
  0
SEQEND
  5
38D
  8
TEAM-BODY
  0
POLYLINE
  5
44
  8
TEAM-BODY
 66
     1
 10
0.0
 20
0.0
 30
0.0
  0
VERTEX
  5
38E
  8
TEAM-BODY
 10
102.316742
 20
-452.320986
 30
0.0
  0
VERTEX
  5
38F
  8
TEAM-BODY
 10
106.132111
 20
-444.518603
 30
0.0
  0
VERTEX
  5
390
  8
TEAM-BODY
 10
113.814118
 20
-425.980609
 30
0.0
  0
VERTEX
  5
391
  8
TEAM-BODY
 10
119.840103
 20
-406.844607
 30
0.0
  0
VERTEX
  5
392
  8
TEAM-BODY
 10
124.187104
 20
-387.248599
 30
0.0
  0
VERTEX
  5
393
  8
TEAM-BODY
 10
126.809113
 20
-367.376605
 30
0.0
  0
VERTEX
  5
394
  8
TEAM-BODY
 10
127.683106
 20
-347.320605
 30
0.0
  0
SEQEND
  5
395
  8
TEAM-BODY
  0
POLYLINE
  5
45
  8
TEAM-BODY
 66
     1
 10
0.0
 20
0.0
 30
0.0
  0
VERTEX
  5
396
  8
TEAM-BODY
 10
127.683106
 20
-347.320605
 30
0.0
  0
VERTEX
  5
397
  8
TEAM-BODY
 10
126.809113
 20
-327.264605
 30
0.0
  0
VERTEX
  5
398
  8
TEAM-BODY
 10
124.187104
 20
-307.392611
 30
0.0
  0
VERTEX
  5
399
  8
TEAM-BODY
 10
119.840103
 20
-287.796603
 30
0.0
  0
VERTEX
  5
39A
  8
TEAM-BODY
 10
113.814118
 20
-268.660601
 30
0.0
  0
VERTEX
  5
39B
  8
TEAM-BODY
 10
106.132111
 20
-250.122592
 30
0.0
  0
VERTEX
  5
39C
  8
TEAM-BODY
 10
102.316727
 20
-242.320193
 30
0.0
  0
SEQEND
  5
39D
  8
TEAM-BODY
  0
TEXT
  5
46
  8
TEAM-TXT
 10
-167.83285
 20
-163.628876
 30
0.0
 40
30.0
  1
team 227003
 41
0.8
 51
15.0
  7
TEAM
  0
LINE
  5
49
  8
TEAM-BODY
 10
180.448471
 20
-336.614733
 30
0.0
 11
175.956192
 21
0.0
 31
0.0
  0
LINE
  5
4A
  8
TEAM-BODY
 10
-175.956192
 20
0.0
 30
0.0
 11
-179.822326
 21
-345.771838
 31
0.0
  0
LINE
  5
4B
  8
TEAM-BODY
 10
145.0
 20
0.0
 30
0.0
 11
175.956192
 21
0.0
 31
0.0
  0
LINE
  5
4C
  8
TEAM-BODY
 10
-175.956192
 20
0.0
 30
0.0
 11
-145.0
 21
0.0
 31
0.0
  0
LINE
  5
4D
  8
TEAM-BODY
 10
-145.0
 20
0.0
 30
0.0
 11
145.0
 21
0.0
 31
0.0
  0
LINE
  5
4E
  8
TEAM-AXE
 10
0.0
 20
-243.743119
 30
0.0
 11
0.0
 21
-196.243119
 31
0.0
  0
LINE
  5
51
  8
TEAM-AXE
 10
0.0
 20
-243.743119
 30
0.0
 11
-47.5
 21
-243.743119
 31
0.0
  0
LINE
  5
52
  8
TEAM-AXE
 10
0.0
 20
-243.743119
 30
0.0
 11
0.0
 21
-291.243119
 31
0.0
  0
CIRCLE
  5
53
  8
TEAM-BODY
 10
0.0
 20
-243.743119
 30
0.0
 40
24.0
  0
CIRCLE
  5
54
  8
TEAM-DET1
 10
0.0
 20
-243.743119
 30
0.0
 40
37.5
  0
LINE
  5
56
  8
TEAM-AXE
 10
0.0
 20
-243.743119
 30
0.0
 11
47.5
 21
-243.743119
 31
0.0
  0
LINE
  5
57
  8
TEAM-AXE
 10
0.0
 20
-51.929149
 30
0.0
 11
0.0
 21
-100.929149
 31
0.0
  0
CIRCLE
  5
58
  8
TEAM-DET1
 10
0.0
 20
-76.429149
 30
0.0
 40
17.5
  0
LINE
  5
59
  8
TEAM-AXE
 10
24.5
 20
-76.429149
 30
0.0
 11
-24.5
 21
-76.429149
 31
0.0
  0
CIRCLE
  5
5A
  8
TEAM-INSP
 10
0.0
 20
0.0
 30
0.0
 40
10.0
  0
ENDSEC
  0
EOF
