  0
SECTION
  2
HEADER
  9
$ACADVER
  1
AC1009
  9
$INSBASE
 10
0.0
 20
0.0
 30
0.0
  9
$EXTMIN
 10
-10.044316
 20
-10.028958
 30
0.0
  9
$EXTMAX
 10
716.151469
 20
465.281859
 30
0.0
  9
$LIMMIN
 10
-10.044316
 20
-10.028958
  9
$LIMMAX
 10
716.151469
 20
465.281859
  9
$ORTHOMODE
 70
     1
  9
$REGENMODE
 70
     1
  9
$FILLMODE
 70
     1
  9
$QTEXTMODE
 70
     0
  9
$MIRRTEXT
 70
     0
  9
$DRAGMODE
 70
     2
  9
$LTSCALE
 40
25.0
  9
$OSMODE
 70
     0
  9
$ATTMODE
 70
     1
  9
$TEXTSIZE
 40
200.0
  9
$TRACEWID
 40
1.0
  9
$TEXTSTYLE
  7
STANDARD
  9
$CLAYER
  8
TEAM-MAS
  9
$CELTYPE
  6
BYLAYER
  9
$CECOLOR
 62
   256
  9
$DIMSCALE
 40
0.0
  9
$DIMASZ
 40
20.0
  9
$DIMEXO
 40
10.0
  9
$DIMDLI
 40
1.0
  9
$DIMRND
 40
0.0
  9
$DIMDLE
 40
0.0
  9
$DIMEXE
 40
1.0
  9
$DIMTP
 40
0.0
  9
$DIMTM
 40
0.0
  9
$DIMTXT
 40
35.0
  9
$DIMCEN
 40
1.0
  9
$DIMTSZ
 40
0.0
  9
$DIMTOL
 70
     0
  9
$DIMLIM
 70
     0
  9
$DIMTIH
 70
     0
  9
$DIMTOH
 70
     0
  9
$DIMSE1
 70
     0
  9
$DIMSE2
 70
     0
  9
$DIMTAD
 70
     0
  9
$DIMZIN
 70
     0
  9
$DIMBLK
  1

  9
$DIMASO
 70
     1
  9
$DIMSHO
 70
     0
  9
$DIMPOST
  1

  9
$DIMAPOST
  1

  9
$DIMALT
 70
     0
  9
$DIMALTD
 70
     2
  9
$DIMALTF
 40
25.4
  9
$DIMLFAC
 40
1.0
  9
$DIMTOFL
 70
     0
  9
$DIMTVP
 40
0.0
  9
$DIMTIX
 70
     0
  9
$DIMSOXD
 70
     0
  9
$DIMSAH
 70
     0
  9
$DIMBLK1
  1

  9
$DIMBLK2
  1

  9
$DIMSTYLE
  2
TEAM
  9
$DIMCLRD
 70
     9
  9
$DIMCLRE
 70
     9
  9
$DIMCLRT
 70
    11
  9
$DIMTFAC
 40
1.0
  9
$DIMGAP
 40
15.0
  9
$LUNITS
 70
     2
  9
$LUPREC
 70
     1
  9
$SKETCHINC
 40
1.0
  9
$FILLETRAD
 40
50.0
  9
$AUNITS
 70
     0
  9
$AUPREC
 70
     0
  9
$MENU
  1
ROPLANS
  9
$ELEVATION
 40
0.0
  9
$PELEVATION
 40
0.0
  9
$THICKNESS
 40
0.0
  9
$LIMCHECK
 70
     0
  9
$BLIPMODE
 70
     1
  9
$CHAMFERA
 40
0.0
  9
$CHAMFERB
 40
0.0
  9
$SKPOLY
 70
     0
  9
$TDCREATE
 40
2450392.957851
  9
$TDUPDATE
 40
2455505.390806
  9
$TDINDWG
 40
2.108696
  9
$TDUSRTIMER
 40
2.108696
  9
$USRTIMER
 70
     1
  9
$ANGBASE
 50
0.0
  9
$ANGDIR
 70
     0
  9
$PDMODE
 70
     0
  9
$PDSIZE
 40
0.0
  9
$PLINEWID
 40
0.0
  9
$COORDS
 70
     2
  9
$SPLFRAME
 70
     0
  9
$SPLINETYPE
 70
     6
  9
$SPLINESEGS
 70
     8
  9
$ATTDIA
 70
     0
  9
$ATTREQ
 70
     0
  9
$HANDLING
 70
     1
  9
$HANDSEED
  5
302
  9
$SURFTAB1
 70
    24
  9
$SURFTAB2
 70
    24
  9
$SURFTYPE
 70
     6
  9
$SURFU
 70
     6
  9
$SURFV
 70
     6
  9
$UCSNAME
  2

  9
$UCSORG
 10
0.0
 20
0.0
 30
0.0
  9
$UCSXDIR
 10
1.0
 20
0.0
 30
0.0
  9
$UCSYDIR
 10
0.0
 20
1.0
 30
0.0
  9
$PUCSNAME
  2

  9
$PUCSORG
 10
0.0
 20
0.0
 30
0.0
  9
$PUCSXDIR
 10
1.0
 20
0.0
 30
0.0
  9
$PUCSYDIR
 10
0.0
 20
1.0
 30
0.0
  9
$USERI1
 70
     0
  9
$USERI2
 70
     0
  9
$USERI3
 70
     0
  9
$USERI4
 70
     0
  9
$USERI5
 70
     0
  9
$USERR1
 40
0.0
  9
$USERR2
 40
0.0
  9
$USERR3
 40
0.0
  9
$USERR4
 40
0.0
  9
$USERR5
 40
0.0
  9
$WORLDVIEW
 70
     1
  9
$SHADEDGE
 70
     0
  9
$SHADEDIF
 70
    70
  9
$TILEMODE
 70
     1
  9
$MAXACTVP
 70
    16
  9
$PLIMCHECK
 70
     0
  9
$PEXTMIN
 10
-0.805942
 20
0.005011
 30
0.0
  9
$PEXTMAX
 10
20.250094
 20
11.356329
 30
0.0
  9
$PLIMMIN
 10
0.0
 20
0.0
  9
$PLIMMAX
 10
12.0
 20
9.0
  9
$UNITMODE
 70
     0
  9
$VISRETAIN
 70
     0
  9
$PLINEGEN
 70
     0
  9
$PSLTSCALE
 70
     0
  0
ENDSEC
  0
SECTION
  2
TABLES
  0
TABLE
  2
VPORT
 70
     2
  0
VPORT
  2
*ACTIVE
 70
     0
 10
0.0
 20
0.0
 11
1.0
 21
1.0
 12
353.053576
 22
227.62645
 13
0.0
 23
0.0
 14
1.0
 24
1.0
 15
50.0
 25
50.0
 16
0.0
 26
0.0
 36
1.0
 17
0.0
 27
0.0
 37
0.0
 40
478.229819
 41
1.865779
 42
50.0
 43
0.0
 44
0.0
 50
0.0
 51
0.0
 71
     0
 72
   100
 73
     1
 74
     1
 75
     0
 76
     0
 77
     0
 78
     0
  0
ENDTAB
  0
TABLE
  2
LTYPE
 70
     1
  0
LTYPE
  2
CONTINUOUS
 70
     0
  3
Solid Line
 72
    65
 73
     0
 40
0.0
  0
ENDTAB
  0
TABLE
  2
LAYER
 70
     6
  0
LAYER
  2
0
 70
     0
 62
     7
  6
CONTINUOUS
  0
LAYER
  2
DEFPOINTS
 70
     0
 62
     7
  6
CONTINUOUS
  0
LAYER
  2
TEAM-BODY
 70
     0
 62
     2
  6
CONTINUOUS
  0
LAYER
  2
TEAM-MAS
 70
     0
 62
     9
  6
CONTINUOUS
  0
LAYER
  2
TEAM-TXT
 70
     0
 62
    11
  6
CONTINUOUS
  0
LAYER
  2
TEAM-INSP
 70
     0
 62
     5
  6
CONTINUOUS
  0
ENDTAB
  0
TABLE
  2
STYLE
 70
     2
  0
STYLE
  2
STANDARD
 70
     0
 40
0.0
 41
1.0
 50
0.0
 71
     0
 42
200.0
  3
txt
  4

  0
STYLE
  2
TEAM
 70
     0
 40
0.0
 41
0.8
 50
15.0
 71
     0
 42
7.0
  3
ROMANS.shx
  4

  0
ENDTAB
  0
TABLE
  2
VIEW
 70
     0
  0
ENDTAB
  0
TABLE
  2
UCS
 70
     0
  0
ENDTAB
  0
TABLE
  2
APPID
 70
     1
  0
APPID
  2
ACAD
 70
     0
  0
ENDTAB
  0
TABLE
  2
DIMSTYLE
 70
     1
  0
DIMSTYLE
  2
TEAM
 70
     0
  3

  4

  5

  6

  7

 40
0.0
 41
20.0
 42
10.0
 43
1.0
 44
1.0
 45
0.0
 46
0.0
 47
0.0
 48
0.0
140
35.0
141
1.0
142
0.0
143
25.4
144
1.0
145
0.0
146
1.0
147
15.0
 71
     0
 72
     0
 73
     0
 74
     0
 75
     0
 76
     0
 77
     0
 78
     0
170
     0
171
     2
172
     0
173
     0
174
     0
175
     0
176
     9
177
     9
178
    11
  0
ENDTAB
  0
ENDSEC
  0
SECTION
  2
BLOCKS
  0
BLOCK
  8
0
  2
$MODEL_SPACE
 70
     0
 10
0.0
 20
0.0
 30
0.0
  3
$MODEL_SPACE
  1

  0
ENDBLK
  5
288
  8
0
  0
BLOCK
 67
     1
  8
0
  2
$PAPER_SPACE
 70
     0
 10
0.0
 20
0.0
 30
0.0
  3
$PAPER_SPACE
  1

  0
ENDBLK
  5
286
 67
     1
  8
0
  0
BLOCK
  8
0
  2
*D0
 70
     1
 10
0.0
 20
0.0
 30
0.0
  3
*D0
  1

  0
LINE
  5
3F
  8
0
  6
BYBLOCK
 62
     9
 10
8010.0
 20
224065.0
 30
0.0
 11
8627.329614
 21
224065.0
 31
0.0
  0
LINE
  5
40
  8
0
  6
BYBLOCK
 62
     9
 10
8561.123657
 20
224400.0
 30
0.0
 11
8627.329614
 21
224400.0
 31
0.0
  0
LINE
  5
41
  8
0
  6
BYBLOCK
 62
     9
 10
8626.329614
 20
224085.0
 30
0.0
 11
8626.329614
 21
224185.275126
 31
0.0
  0
LINE
  5
42
  8
0
  6
BYBLOCK
 62
     9
 10
8626.329614
 20
224380.0
 30
0.0
 11
8626.329614
 21
224279.724874
 31
0.0
  0
SOLID
  5
43
  8
0
  6
BYBLOCK
 62
     9
 10
8622.996281
 20
224085.0
 30
0.0
 11
8629.662947
 21
224085.0
 31
0.0
 12
8626.329614
 22
224065.0
 32
0.0
 13
8626.329614
 23
224065.0
 33
0.0
  0
SOLID
  5
44
  8
0
  6
BYBLOCK
 62
     9
 10
8622.996281
 20
224380.0
 30
0.0
 11
8629.662947
 21
224380.0
 31
0.0
 12
8626.329614
 22
224400.0
 32
0.0
 13
8626.329614
 23
224400.0
 33
0.0
  0
TEXT
  5
45
  8
0
  6
BYBLOCK
 62
    11
 10
8643.829614
 20
224195.025126
 30
0.0
 40
35.0
  1
335
 50
90.0
  0
POINT
  5
46
  8
DEFPOINTS
  6
BYBLOCK
 62
     0
 10
8000.0
 20
224065.0
 30
0.0
  0
POINT
  5
47
  8
DEFPOINTS
  6
BYBLOCK
 62
     0
 10
8551.123657
 20
224400.0
 30
0.0
  0
POINT
  5
48
  8
DEFPOINTS
  6
BYBLOCK
 62
     0
 10
8626.329614
 20
224400.0
 30
0.0
  0
ENDBLK
  5
4A
  8
0
  0
BLOCK
  8
0
  2
*D1
 70
     1
 10
0.0
 20
0.0
 30
0.0
  3
*D1
  1

  0
LINE
  5
31
  8
0
  6
BYBLOCK
 62
     9
 10
8010.0
 20
224000.0
 30
0.0
 11
8701.343366
 21
224000.0
 31
0.0
  0
LINE
  5
32
  8
0
  6
BYBLOCK
 62
     9
 10
8561.123657
 20
224400.0
 30
0.0
 11
8701.343366
 21
224400.0
 31
0.0
  0
LINE
  5
33
  8
0
  6
BYBLOCK
 62
     9
 10
8700.343366
 20
224020.0
 30
0.0
 11
8700.343366
 21
224151.73622
 31
0.0
  0
LINE
  5
34
  8
0
  6
BYBLOCK
 62
     9
 10
8700.343366
 20
224380.0
 30
0.0
 11
8700.343366
 21
224248.26378
 31
0.0
  0
SOLID
  5
35
  8
0
  6
BYBLOCK
 62
     9
 10
8697.010033
 20
224020.0
 30
0.0
 11
8703.6767
 21
224020.0
 31
0.0
 12
8700.343366
 22
224000.0
 32
0.0
 13
8700.343366
 23
224000.0
 33
0.0
  0
SOLID
  5
36
  8
0
  6
BYBLOCK
 62
     9
 10
8697.010033
 20
224380.0
 30
0.0
 11
8703.6767
 21
224380.0
 31
0.0
 12
8700.343366
 22
224400.0
 32
0.0
 13
8700.343366
 23
224400.0
 33
0.0
  0
TEXT
  5
37
  8
0
  6
BYBLOCK
 62
    11
 10
8717.843366
 20
224161.48622
 30
0.0
 40
35.0
  1
400
 50
90.0
  0
POINT
  5
38
  8
DEFPOINTS
  6
BYBLOCK
 62
     0
 10
8000.0
 20
224000.0
 30
0.0
  0
POINT
  5
39
  8
DEFPOINTS
  6
BYBLOCK
 62
     0
 10
8551.123657
 20
224400.0
 30
0.0
  0
POINT
  5
3A
  8
DEFPOINTS
  6
BYBLOCK
 62
     0
 10
8700.343366
 20
224400.0
 30
0.0
  0
ENDBLK
  5
3C
  8
0
  0
BLOCK
  8
0
  2
*D2
 70
     1
 10
0.0
 20
0.0
 30
0.0
  3
*D2
  1

  0
LINE
  5
22
  8
0
  6
BYBLOCK
 62
     9
 10
8000.0
 20
224010.0
 30
0.0
 11
8000.0
 21
224448.935081
 31
0.0
  0
LINE
  5
23
  8
0
  6
BYBLOCK
 62
     9
 10
8560.004379
 20
224396.930146
 30
0.0
 11
8560.004379
 21
224448.935081
 31
0.0
  0
LINE
  5
24
  8
0
  6
BYBLOCK
 62
     9
 10
8020.0
 20
224447.935081
 30
0.0
 11
8233.48841
 21
224447.935081
 31
0.0
  0
LINE
  5
25
  8
0
  6
BYBLOCK
 62
     9
 10
8540.004379
 20
224447.935081
 30
0.0
 11
8326.515969
 21
224447.935081
 31
0.0
  0
SOLID
  5
26
  8
0
  6
BYBLOCK
 62
     9
 10
8020.0
 20
224451.268414
 30
0.0
 11
8020.0
 21
224444.601748
 31
0.0
 12
8000.0
 22
224447.935081
 32
0.0
 13
8000.0
 23
224447.935081
 33
0.0
  0
SOLID
  5
27
  8
0
  6
BYBLOCK
 62
     9
 10
8540.004379
 20
224451.268414
 30
0.0
 11
8540.004379
 21
224444.601748
 31
0.0
 12
8560.004379
 22
224447.935081
 32
0.0
 13
8560.004379
 23
224447.935081
 33
0.0
  0
TEXT
  5
28
  8
0
  6
BYBLOCK
 62
    11
 10
8243.23841
 20
224430.435081
 30
0.0
 40
35.0
  1
560
  0
POINT
  5
29
  8
DEFPOINTS
  6
BYBLOCK
 62
     0
 10
8000.0
 20
224000.0
 30
0.0
  0
POINT
  5
2B
  8
DEFPOINTS
  6
BYBLOCK
 62
     0
 10
8560.004379
 20
224386.930146
 30
0.0
  0
POINT
  5
2C
  8
DEFPOINTS
  6
BYBLOCK
 62
     0
 10
8560.004379
 20
224447.935081
 30
0.0
  0
ENDBLK
  5
2E
  8
0
  0
ENDSEC
  0
SECTION
  2
ENTITIES
  0
DIMENSION
  5
20
  8
TEAM-MAS
  2
*D2
 10
560.004379
 20
447.935081
 30
0.0
 11
280.002189
 21
447.935081
 31
0.0
 12
-8000.0
 22
-224000.0
 32
0.0
 13
0.0
 23
0.0
 33
0.0
 14
560.004379
 24
386.930146
 34
0.0
1001
ACAD
1000
DSTYLE
1002
{
1070
    40
1040
1.0
1002
}
  0
DIMENSION
  5
2F
  8
TEAM-MAS
  2
*D1
 10
700.343366
 20
400.0
 30
0.0
 11
700.343366
 21
200.0
 31
0.0
 12
-8000.0
 22
-224000.0
 32
0.0
 13
0.0
 23
0.0
 33
0.0
 14
551.123657
 24
400.0
 34
0.0
 50
90.0
1001
ACAD
1000
DSTYLE
1002
{
1070
    40
1040
1.0
1002
}
  0
DIMENSION
  5
3D
  8
TEAM-MAS
  2
*D0
 10
626.329614
 20
400.0
 30
0.0
 11
626.329614
 21
232.5
 31
0.0
 12
-8000.0
 22
-224000.0
 32
0.0
 13
0.0
 23
65.0
 33
0.0
 14
551.123657
 24
400.0
 34
0.0
 50
90.0
1001
ACAD
1000
DSTYLE
1002
{
1070
    40
1040
1.0
1002
}
  0
TEXT
  5
4B
  8
TEAM-TXT
 10
237.529903
 20
302.759386
 30
0.0
 40
30.0
  1
team 227003
 41
0.8
 51
15.0
  7
TEAM
  0
LINE
  5
4E
  8
TEAM-BODY
 10
440.0
 20
355.0
 30
0.0
 11
0.0
 21
355.0
 31
0.0
  0
LINE
  5
50
  8
TEAM-BODY
 10
551.123657
 20
400.0
 30
0.0
 11
0.0
 21
400.0
 31
0.0
  0
LINE
  5
51
  8
TEAM-BODY
 10
330.021019
 20
198.260292
 30
0.0
 11
242.39035
 21
65.0
 31
0.0
  0
POLYLINE
  5
52
  8
TEAM-BODY
 66
     1
 10
0.0
 20
0.0
 30
0.0
  0
VERTEX
  5
28E
  8
TEAM-BODY
 10
330.021019
 20
198.260292
 30
0.0
  0
VERTEX
  5
28F
  8
TEAM-BODY
 10
156.081966
 20
198.260292
 30
0.0
 42
-0.373822
  0
VERTEX
  5
290
  8
TEAM-BODY
 10
106.570106
 20
241.290663
 30
0.0
  0
VERTEX
  5
291
  8
TEAM-BODY
 10
90.563601
 20
355.0
 30
0.0
  0
SEQEND
  5
292
  8
TEAM-BODY
  0
POLYLINE
  5
53
  8
TEAM-BODY
 66
     1
 10
0.0
 20
0.0
 30
0.0
  0
VERTEX
  5
293
  8
TEAM-BODY
 10
49.354601
 20
355.0
 30
0.0
  0
VERTEX
  5
294
  8
TEAM-BODY
 10
47.781618
 20
354.939041
 30
0.0
  0
VERTEX
  5
295
  8
TEAM-BODY
 10
46.241991
 20
354.759171
 30
0.0
  0
VERTEX
  5
296
  8
TEAM-BODY
 10
44.740252
 20
354.464859
 30
0.0
  0
VERTEX
  5
297
  8
TEAM-BODY
 10
43.280916
 20
354.060593
 30
0.0
  0
VERTEX
  5
298
  8
TEAM-BODY
 10
41.868532
 20
353.550888
 30
0.0
  0
VERTEX
  5
299
  8
TEAM-BODY
 10
40.507616
 20
352.940201
 30
0.0
  0
VERTEX
  5
29A
  8
TEAM-BODY
 10
39.202715
 20
352.233017
 30
0.0
  0
VERTEX
  5
29B
  8
TEAM-BODY
 10
37.95833
 20
351.433853
 30
0.0
  0
VERTEX
  5
29C
  8
TEAM-BODY
 10
36.779024
 20
350.54718
 30
0.0
  0
VERTEX
  5
29D
  8
TEAM-BODY
 10
35.669329
 20
349.577484
 30
0.0
  0
VERTEX
  5
29E
  8
TEAM-BODY
 10
34.633745
 20
348.529251
 30
0.0
  0
VERTEX
  5
29F
  8
TEAM-BODY
 10
33.676836
 20
347.406983
 30
0.0
  0
VERTEX
  5
2A0
  8
TEAM-BODY
 10
32.803103
 20
346.215134
 30
0.0
  0
VERTEX
  5
2A1
  8
TEAM-BODY
 10
32.017092
 20
344.958237
 30
0.0
  0
VERTEX
  5
2A2
  8
TEAM-BODY
 10
31.323351
 20
343.640732
 30
0.0
  0
VERTEX
  5
2A3
  8
TEAM-BODY
 10
30.726382
 20
342.267151
 30
0.0
  0
VERTEX
  5
2A4
  8
TEAM-BODY
 10
30.23073
 20
340.84195
 30
0.0
  0
VERTEX
  5
2A5
  8
TEAM-BODY
 10
29.840914
 20
339.369629
 30
0.0
  0
VERTEX
  5
2A6
  8
TEAM-BODY
 10
29.56148
 20
337.854676
 30
0.0
  0
VERTEX
  5
2A7
  8
TEAM-BODY
 10
29.39696
 20
336.301575
 30
0.0
  0
SEQEND
  5
2A8
  8
TEAM-BODY
  0
LINE
  5
54
  8
TEAM-BODY
 10
0.0
 20
65.0
 30
0.0
 11
242.39035
 21
65.0
 31
0.0
  0
LINE
  5
55
  8
TEAM-BODY
 10
29.39696
 20
336.301575
 30
0.0
 11
30.0
 21
125.0
 31
0.0
  0
LINE
  5
56
  8
TEAM-BODY
 10
0.0
 20
400.0
 30
0.0
 11
0.0
 21
65.0
 31
0.0
  0
CIRCLE
  5
57
  8
TEAM-INSP
 10
0.0
 20
0.0
 30
0.0
 40
10.0
  0
POLYLINE
  5
59
  8
TEAM-BODY
 66
     1
 10
0.0
 20
0.0
 30
0.0
  0
VERTEX
  5
2A9
  8
TEAM-BODY
 10
558.719238
 20
383.495789
 30
0.0
  0
VERTEX
  5
2AA
  8
TEAM-BODY
 10
558.955933
 20
383.782624
 30
0.0
  0
VERTEX
  5
2AB
  8
TEAM-BODY
 10
559.180237
 20
384.075592
 30
0.0
  0
VERTEX
  5
2AC
  8
TEAM-BODY
 10
559.392151
 20
384.374298
 30
0.0
  0
VERTEX
  5
2AD
  8
TEAM-BODY
 10
559.591675
 20
384.678437
 30
0.0
  0
VERTEX
  5
2AE
  8
TEAM-BODY
 10
559.77887
 20
384.987671
 30
0.0
  0
VERTEX
  5
2AF
  8
TEAM-BODY
 10
559.953766
 20
385.301606
 30
0.0
  0
VERTEX
  5
2B0
  8
TEAM-BODY
 10
560.116363
 20
385.619934
 30
0.0
  0
VERTEX
  5
2B1
  8
TEAM-BODY
 10
560.266693
 20
385.942292
 30
0.0
  0
VERTEX
  5
2B2
  8
TEAM-BODY
 10
560.404785
 20
386.268341
 30
0.0
  0
VERTEX
  5
2B3
  8
TEAM-BODY
 10
560.53067
 20
386.597748
 30
0.0
  0
VERTEX
  5
2B4
  8
TEAM-BODY
 10
560.644379
 20
386.930146
 30
0.0
  0
VERTEX
  5
2B5
  8
TEAM-BODY
 10
560.745911
 20
387.265229
 30
0.0
  0
VERTEX
  5
2B6
  8
TEAM-BODY
 10
560.835327
 20
387.6026
 30
0.0
  0
VERTEX
  5
2B7
  8
TEAM-BODY
 10
560.912628
 20
387.941956
 30
0.0
  0
VERTEX
  5
2B8
  8
TEAM-BODY
 10
560.977875
 20
388.282898
 30
0.0
  0
VERTEX
  5
2B9
  8
TEAM-BODY
 10
561.031036
 20
388.625153
 30
0.0
  0
VERTEX
  5
2BA
  8
TEAM-BODY
 10
561.072174
 20
388.968323
 30
0.0
  0
VERTEX
  5
2BB
  8
TEAM-BODY
 10
561.101288
 20
389.312104
 30
0.0
  0
VERTEX
  5
2BC
  8
TEAM-BODY
 10
561.118469
 20
389.656098
 30
0.0
  0
VERTEX
  5
2BD
  8
TEAM-BODY
 10
561.123657
 20
390.0
 30
0.0
  0
SEQEND
  5
2BE
  8
TEAM-BODY
  0
POLYLINE
  5
5A
  8
TEAM-BODY
 66
     1
 10
0.0
 20
0.0
 30
0.0
  0
VERTEX
  5
2BF
  8
TEAM-BODY
 10
561.123657
 20
390.0
 30
0.0
  0
VERTEX
  5
2C0
  8
TEAM-BODY
 10
561.090515
 20
390.82013
 30
0.0
  0
VERTEX
  5
2C1
  8
TEAM-BODY
 10
560.992767
 20
391.62204
 30
0.0
  0
VERTEX
  5
2C2
  8
TEAM-BODY
 10
560.833038
 20
392.403076
 30
0.0
  0
VERTEX
  5
2C3
  8
TEAM-BODY
 10
560.613831
 20
393.160736
 30
0.0
  0
VERTEX
  5
2C4
  8
TEAM-BODY
 10
560.337799
 20
393.892426
 30
0.0
  0
VERTEX
  5
2C5
  8
TEAM-BODY
 10
560.007446
 20
394.595551
 30
0.0
  0
VERTEX
  5
2C6
  8
TEAM-BODY
 10
559.625397
 20
395.267548
 30
0.0
  0
VERTEX
  5
2C7
  8
TEAM-BODY
 10
559.194214
 20
395.905823
 30
0.0
  0
VERTEX
  5
2C8
  8
TEAM-BODY
 10
558.716461
 20
396.507874
 30
0.0
  0
VERTEX
  5
2C9
  8
TEAM-BODY
 10
558.194702
 20
397.071045
 30
0.0
  0
VERTEX
  5
2CA
  8
TEAM-BODY
 10
557.631531
 20
397.592804
 30
0.0
  0
VERTEX
  5
2CB
  8
TEAM-BODY
 10
557.02948
 20
398.070557
 30
0.0
  0
VERTEX
  5
2CC
  8
TEAM-BODY
 10
556.391205
 20
398.50174
 30
0.0
  0
VERTEX
  5
2CD
  8
TEAM-BODY
 10
555.719208
 20
398.883789
 30
0.0
  0
VERTEX
  5
2CE
  8
TEAM-BODY
 10
555.016083
 20
399.214142
 30
0.0
  0
VERTEX
  5
2CF
  8
TEAM-BODY
 10
554.284393
 20
399.490174
 30
0.0
  0
VERTEX
  5
2D0
  8
TEAM-BODY
 10
553.526733
 20
399.709381
 30
0.0
  0
VERTEX
  5
2D1
  8
TEAM-BODY
 10
552.745697
 20
399.86911
 30
0.0
  0
VERTEX
  5
2D2
  8
TEAM-BODY
 10
551.943787
 20
399.966858
 30
0.0
  0
VERTEX
  5
2D3
  8
TEAM-BODY
 10
551.123657
 20
400.0
 30
0.0
  0
SEQEND
  5
2D4
  8
TEAM-BODY
  0
POLYLINE
  5
5B
  8
TEAM-BODY
 66
     1
 10
0.0
 20
0.0
 30
0.0
  0
VERTEX
  5
2D5
  8
TEAM-BODY
 10
522.555389
 20
320.0
 30
0.0
  0
VERTEX
  5
2D6
  8
TEAM-BODY
 10
523.754974
 20
323.211701
 30
0.0
  0
VERTEX
  5
2D7
  8
TEAM-BODY
 10
525.021088
 20
326.430695
 30
0.0
  0
VERTEX
  5
2D8
  8
TEAM-BODY
 10
526.353302
 20
329.655167
 30
0.0
  0
VERTEX
  5
2D9
  8
TEAM-BODY
 10
527.751221
 20
332.883194
 30
0.0
  0
VERTEX
  5
2DA
  8
TEAM-BODY
 10
529.214447
 20
336.112961
 30
0.0
  0
VERTEX
  5
2DB
  8
TEAM-BODY
 10
530.742584
 20
339.34256
 30
0.0
  0
VERTEX
  5
2DC
  8
TEAM-BODY
 10
532.335174
 20
342.570145
 30
0.0
  0
VERTEX
  5
2DD
  8
TEAM-BODY
 10
533.991821
 20
345.793854
 30
0.0
  0
VERTEX
  5
2DE
  8
TEAM-BODY
 10
535.712128
 20
349.011811
 30
0.0
  0
VERTEX
  5
2DF
  8
TEAM-BODY
 10
537.495697
 20
352.222138
 30
0.0
  0
VERTEX
  5
2E0
  8
TEAM-BODY
 10
539.342071
 20
355.422989
 30
0.0
  0
VERTEX
  5
2E1
  8
TEAM-BODY
 10
541.250885
 20
358.612488
 30
0.0
  0
VERTEX
  5
2E2
  8
TEAM-BODY
 10
543.22168
 20
361.788758
 30
0.0
  0
VERTEX
  5
2E3
  8
TEAM-BODY
 10
545.25412
 20
364.949951
 30
0.0
  0
VERTEX
  5
2E4
  8
TEAM-BODY
 10
547.347717
 20
368.094208
 30
0.0
  0
VERTEX
  5
2E5
  8
TEAM-BODY
 10
549.502106
 20
371.219605
 30
0.0
  0
VERTEX
  5
2E6
  8
TEAM-BODY
 10
551.716858
 20
374.324372
 30
0.0
  0
VERTEX
  5
2E7
  8
TEAM-BODY
 10
553.991577
 20
377.406555
 30
0.0
  0
VERTEX
  5
2E8
  8
TEAM-BODY
 10
556.325836
 20
380.464295
 30
0.0
  0
VERTEX
  5
2E9
  8
TEAM-BODY
 10
558.719238
 20
383.495789
 30
0.0
  0
SEQEND
  5
2EA
  8
TEAM-BODY
  0
LINE
  5
5C
  8
TEAM-BODY
 10
390.0
 20
205.0
 30
0.0
 11
330.021019
 21
198.260292
 31
0.0
  0
POLYLINE
  5
5D
  8
TEAM-BODY
 66
     1
 10
0.0
 20
0.0
 30
0.0
  0
VERTEX
  5
2EB
  8
TEAM-BODY
 10
390.0
 20
205.0
 30
0.0
  0
VERTEX
  5
2EC
  8
TEAM-BODY
 10
398.897415
 20
208.186577
 30
0.0
  0
VERTEX
  5
2ED
  8
TEAM-BODY
 10
407.583557
 20
211.698555
 30
0.0
  0
VERTEX
  5
2EE
  8
TEAM-BODY
 10
416.053833
 20
215.526688
 30
0.0
  0
VERTEX
  5
2EF
  8
TEAM-BODY
 10
424.303619
 20
219.661705
 30
0.0
  0
VERTEX
  5
2F0
  8
TEAM-BODY
 10
432.328308
 20
224.094338
 30
0.0
  0
VERTEX
  5
2F1
  8
TEAM-BODY
 10
440.123321
 20
228.815338
 30
0.0
  0
VERTEX
  5
2F2
  8
TEAM-BODY
 10
447.684021
 20
233.81543
 30
0.0
  0
VERTEX
  5
2F3
  8
TEAM-BODY
 10
455.005814
 20
239.085358
 30
0.0
  0
VERTEX
  5
2F4
  8
TEAM-BODY
 10
462.084076
 20
244.61586
 30
0.0
  0
VERTEX
  5
2F5
  8
TEAM-BODY
 10
468.914246
 20
250.397675
 30
0.0
  0
VERTEX
  5
2F6
  8
TEAM-BODY
 10
475.491669
 20
256.421555
 30
0.0
  0
VERTEX
  5
2F7
  8
TEAM-BODY
 10
481.811737
 20
262.678208
 30
0.0
  0
VERTEX
  5
2F8
  8
TEAM-BODY
 10
487.869873
 20
269.158387
 30
0.0
  0
VERTEX
  5
2F9
  8
TEAM-BODY
 10
493.661468
 20
275.852814
 30
0.0
  0
VERTEX
  5
2FA
  8
TEAM-BODY
 10
499.181915
 20
282.752259
 30
0.0
  0
VERTEX
  5
2FB
  8
TEAM-BODY
 10
504.426575
 20
289.847443
 30
0.0
  0
VERTEX
  5
2FC
  8
TEAM-BODY
 10
509.390869
 20
297.129105
 30
0.0
  0
VERTEX
  5
2FD
  8
TEAM-BODY
 10
514.07019
 20
304.587967
 30
0.0
  0
VERTEX
  5
2FE
  8
TEAM-BODY
 10
518.4599
 20
312.214798
 30
0.0
  0
VERTEX
  5
2FF
  8
TEAM-BODY
 10
522.55545
 20
320.000305
 30
0.0
  0
SEQEND
  5
300
  8
TEAM-BODY
  0
ENDSEC
  0
EOF
