  0
SECTION
  2
HEADER
  9
$ACADVER
  1
AC1009
  9
$INSBASE
 10
0.0
 20
0.0
 30
0.0
  9
$EXTMIN
 10
-329.196859
 20
-71.847394
 30
0.0
  9
$EXTMAX
 10
380.575174
 20
453.944017
 30
0.0
  9
$LIMMIN
 10
-329.196859
 20
-71.847394
  9
$LIMMAX
 10
380.575174
 20
453.944017
  9
$ORTHOMODE
 70
     1
  9
$REGENMODE
 70
     1
  9
$FILLMODE
 70
     1
  9
$QTEXTMODE
 70
     0
  9
$MIRRTEXT
 70
     0
  9
$DRAGMODE
 70
     2
  9
$LTSCALE
 40
25.0
  9
$OSMODE
 70
     0
  9
$ATTMODE
 70
     1
  9
$TEXTSIZE
 40
200.0
  9
$TRACEWID
 40
1.0
  9
$TEXTSTYLE
  7
STANDARD
  9
$CLAYER
  8
TEAM-MAS
  9
$CELTYPE
  6
BYLAYER
  9
$CECOLOR
 62
   256
  9
$DIMSCALE
 40
0.0
  9
$DIMASZ
 40
20.0
  9
$DIMEXO
 40
10.0
  9
$DIMDLI
 40
1.0
  9
$DIMRND
 40
0.0
  9
$DIMDLE
 40
0.0
  9
$DIMEXE
 40
1.0
  9
$DIMTP
 40
0.0
  9
$DIMTM
 40
0.0
  9
$DIMTXT
 40
35.0
  9
$DIMCEN
 40
1.0
  9
$DIMTSZ
 40
0.0
  9
$DIMTOL
 70
     0
  9
$DIMLIM
 70
     0
  9
$DIMTIH
 70
     0
  9
$DIMTOH
 70
     0
  9
$DIMSE1
 70
     0
  9
$DIMSE2
 70
     0
  9
$DIMTAD
 70
     0
  9
$DIMZIN
 70
     0
  9
$DIMBLK
  1

  9
$DIMASO
 70
     1
  9
$DIMSHO
 70
     0
  9
$DIMPOST
  1

  9
$DIMAPOST
  1

  9
$DIMALT
 70
     0
  9
$DIMALTD
 70
     2
  9
$DIMALTF
 40
25.4
  9
$DIMLFAC
 40
1.0
  9
$DIMTOFL
 70
     0
  9
$DIMTVP
 40
0.0
  9
$DIMTIX
 70
     0
  9
$DIMSOXD
 70
     0
  9
$DIMSAH
 70
     0
  9
$DIMBLK1
  1

  9
$DIMBLK2
  1

  9
$DIMSTYLE
  2
TEAM
  9
$DIMCLRD
 70
     9
  9
$DIMCLRE
 70
     9
  9
$DIMCLRT
 70
    11
  9
$DIMTFAC
 40
1.0
  9
$DIMGAP
 40
15.0
  9
$LUNITS
 70
     2
  9
$LUPREC
 70
     1
  9
$SKETCHINC
 40
1.0
  9
$FILLETRAD
 40
50.0
  9
$AUNITS
 70
     0
  9
$AUPREC
 70
     0
  9
$MENU
  1
ROPLANS
  9
$ELEVATION
 40
0.0
  9
$PELEVATION
 40
0.0
  9
$THICKNESS
 40
0.0
  9
$LIMCHECK
 70
     0
  9
$BLIPMODE
 70
     1
  9
$CHAMFERA
 40
0.0
  9
$CHAMFERB
 40
0.0
  9
$SKPOLY
 70
     0
  9
$TDCREATE
 40
2450392.957851
  9
$TDUPDATE
 40
2455505.390806
  9
$TDINDWG
 40
2.108696
  9
$TDUSRTIMER
 40
2.108696
  9
$USRTIMER
 70
     1
  9
$ANGBASE
 50
0.0
  9
$ANGDIR
 70
     0
  9
$PDMODE
 70
     0
  9
$PDSIZE
 40
0.0
  9
$PLINEWID
 40
0.0
  9
$COORDS
 70
     2
  9
$SPLFRAME
 70
     0
  9
$SPLINETYPE
 70
     6
  9
$SPLINESEGS
 70
     8
  9
$ATTDIA
 70
     0
  9
$ATTREQ
 70
     0
  9
$HANDLING
 70
     1
  9
$HANDSEED
  5
37E
  9
$SURFTAB1
 70
    24
  9
$SURFTAB2
 70
    24
  9
$SURFTYPE
 70
     6
  9
$SURFU
 70
     6
  9
$SURFV
 70
     6
  9
$UCSNAME
  2

  9
$UCSORG
 10
0.0
 20
0.0
 30
0.0
  9
$UCSXDIR
 10
1.0
 20
0.0
 30
0.0
  9
$UCSYDIR
 10
0.0
 20
1.0
 30
0.0
  9
$PUCSNAME
  2

  9
$PUCSORG
 10
0.0
 20
0.0
 30
0.0
  9
$PUCSXDIR
 10
1.0
 20
0.0
 30
0.0
  9
$PUCSYDIR
 10
0.0
 20
1.0
 30
0.0
  9
$USERI1
 70
     0
  9
$USERI2
 70
     0
  9
$USERI3
 70
     0
  9
$USERI4
 70
     0
  9
$USERI5
 70
     0
  9
$USERR1
 40
0.0
  9
$USERR2
 40
0.0
  9
$USERR3
 40
0.0
  9
$USERR4
 40
0.0
  9
$USERR5
 40
0.0
  9
$WORLDVIEW
 70
     1
  9
$SHADEDGE
 70
     0
  9
$SHADEDIF
 70
    70
  9
$TILEMODE
 70
     1
  9
$MAXACTVP
 70
    16
  9
$PLIMCHECK
 70
     0
  9
$PEXTMIN
 10
-0.805942
 20
0.005011
 30
0.0
  9
$PEXTMAX
 10
20.250094
 20
11.356329
 30
0.0
  9
$PLIMMIN
 10
0.0
 20
0.0
  9
$PLIMMAX
 10
12.0
 20
9.0
  9
$UNITMODE
 70
     0
  9
$VISRETAIN
 70
     0
  9
$PLINEGEN
 70
     0
  9
$PSLTSCALE
 70
     0
  0
ENDSEC
  0
SECTION
  2
TABLES
  0
TABLE
  2
VPORT
 70
     2
  0
VPORT
  2
*ACTIVE
 70
     0
 10
0.0
 20
0.0
 11
1.0
 21
1.0
 12
25.689158
 22
191.048311
 13
0.0
 23
0.0
 14
1.0
 24
1.0
 15
50.0
 25
50.0
 16
0.0
 26
0.0
 36
1.0
 17
0.0
 27
0.0
 37
0.0
 40
529.020426
 41
1.865779
 42
50.0
 43
0.0
 44
0.0
 50
0.0
 51
0.0
 71
     0
 72
   100
 73
     1
 74
     1
 75
     0
 76
     0
 77
     0
 78
     0
  0
ENDTAB
  0
TABLE
  2
LTYPE
 70
     3
  0
LTYPE
  2
CONTINUOUS
 70
     0
  3
Solid Line
 72
    65
 73
     0
 40
0.0
  0
LTYPE
  2
31
 70
     0
  3

 72
    65
 73
     4
 40
2.1
 49
1.5
 49
-0.3
 49
0.0
 49
-0.3
  0
LTYPE
  2
22
 70
     0
  3

 72
    65
 73
     2
 40
1.4
 49
1.2
 49
-0.2
  0
ENDTAB
  0
TABLE
  2
LAYER
 70
    11
  0
LAYER
  2
0
 70
     0
 62
     7
  6
CONTINUOUS
  0
LAYER
  2
DEFPOINTS
 70
     0
 62
     7
  6
CONTINUOUS
  0
LAYER
  2
TEAM-BODY
 70
     0
 62
     2
  6
CONTINUOUS
  0
LAYER
  2
TEAM-AXE
 70
     0
 62
    10
  6
31
  0
LAYER
  2
TEAM-MAS
 70
     0
 62
     9
  6
CONTINUOUS
  0
LAYER
  2
TEAM-TXT
 70
     0
 62
    11
  6
CONTINUOUS
  0
LAYER
  2
TEAM-COLD
 70
     0
 62
     3
  6
CONTINUOUS
  0
LAYER
  2
TEAM-HIDE
 70
     0
 62
     8
  6
22
  0
LAYER
  2
TEAM-KAN
 70
     0
 62
     6
  6
CONTINUOUS
  0
LAYER
  2
TEAM-WARM
 70
     0
 62
     1
  6
CONTINUOUS
  0
LAYER
  2
TEAM-INSP
 70
     0
 62
     5
  6
CONTINUOUS
  0
ENDTAB
  0
TABLE
  2
STYLE
 70
     2
  0
STYLE
  2
STANDARD
 70
     0
 40
0.0
 41
1.0
 50
0.0
 71
     0
 42
200.0
  3
txt
  4

  0
STYLE
  2
TEAM
 70
     0
 40
0.0
 41
0.8
 50
15.0
 71
     0
 42
7.0
  3
ROMANS.shx
  4

  0
ENDTAB
  0
TABLE
  2
VIEW
 70
     0
  0
ENDTAB
  0
TABLE
  2
UCS
 70
     0
  0
ENDTAB
  0
TABLE
  2
APPID
 70
     1
  0
APPID
  2
ACAD
 70
     0
  0
ENDTAB
  0
TABLE
  2
DIMSTYLE
 70
     1
  0
DIMSTYLE
  2
TEAM
 70
     0
  3

  4

  5

  6

  7

 40
0.0
 41
20.0
 42
10.0
 43
1.0
 44
1.0
 45
0.0
 46
0.0
 47
0.0
 48
0.0
140
35.0
141
1.0
142
0.0
143
25.4
144
1.0
145
0.0
146
1.0
147
15.0
 71
     0
 72
     0
 73
     0
 74
     0
 75
     0
 76
     0
 77
     0
 78
     0
170
     0
171
     2
172
     0
173
     0
174
     0
175
     0
176
     9
177
     9
178
    11
  0
ENDTAB
  0
ENDSEC
  0
SECTION
  2
BLOCKS
  0
BLOCK
  8
0
  2
$MODEL_SPACE
 70
     0
 10
0.0
 20
0.0
 30
0.0
  3
$MODEL_SPACE
  1

  0
ENDBLK
  5
31F
  8
0
  0
BLOCK
 67
     1
  8
0
  2
$PAPER_SPACE
 70
     0
 10
0.0
 20
0.0
 30
0.0
  3
$PAPER_SPACE
  1

  0
ENDBLK
  5
31D
 67
     1
  8
0
  0
BLOCK
  8
0
  2
*D0
 70
     1
 10
0.0
 20
0.0
 30
0.0
  3
*D0
  1

  0
LINE
  5
76
  8
0
  6
BYBLOCK
 62
     9
 10
12190.000004
 20
224399.999139
 30
0.0
 11
12232.547619
 21
224399.999139
 31
0.0
  0
LINE
  5
77
  8
0
  6
BYBLOCK
 62
     9
 10
12130.0
 20
224325.0
 30
0.0
 11
12232.547619
 21
224325.0
 31
0.0
  0
LINE
  5
78
  8
0
  6
BYBLOCK
 62
     9
 10
12231.547619
 20
224379.999139
 30
0.0
 11
12231.547619
 21
224345.0
 31
0.0
  0
TEXT
  5
79
  8
0
  6
BYBLOCK
 62
    11
 10
12248.406626
 20
224256.722369
 30
0.0
 40
35.0
  1
75
 50
90.0
  0
SOLID
  5
7A
  8
0
  6
BYBLOCK
 62
     9
 10
12228.214286
 20
224379.999139
 30
0.0
 11
12234.880952
 21
224379.999139
 31
0.0
 12
12231.547619
 22
224399.999139
 32
0.0
 13
12231.547619
 23
224399.999139
 33
0.0
  0
SOLID
  5
7B
  8
0
  6
BYBLOCK
 62
     9
 10
12228.214286
 20
224345.0
 30
0.0
 11
12234.880952
 21
224345.0
 31
0.0
 12
12231.547619
 22
224325.0
 32
0.0
 13
12231.547619
 23
224325.0
 33
0.0
  0
POINT
  5
7C
  8
DEFPOINTS
  6
BYBLOCK
 62
     0
 10
12180.000004
 20
224399.999139
 30
0.0
  0
POINT
  5
7D
  8
DEFPOINTS
  6
BYBLOCK
 62
     0
 10
12120.0
 20
224325.0
 30
0.0
  0
POINT
  5
7E
  8
DEFPOINTS
  6
BYBLOCK
 62
     0
 10
12231.547619
 20
224325.0
 30
0.0
  0
ENDBLK
  5
80
  8
0
  0
BLOCK
  8
0
  2
*D1
 70
     1
 10
0.0
 20
0.0
 30
0.0
  3
*D1
  1

  0
LINE
  5
68
  8
0
  6
BYBLOCK
 62
     9
 10
12190.000004
 20
224399.999139
 30
0.0
 11
12365.768074
 21
224399.999139
 31
0.0
  0
LINE
  5
69
  8
0
  6
BYBLOCK
 62
     9
 10
12010.0
 20
224000.0
 30
0.0
 11
12365.768074
 21
224000.0
 31
0.0
  0
LINE
  5
6A
  8
0
  6
BYBLOCK
 62
     9
 10
12364.768074
 20
224379.999139
 30
0.0
 11
12364.768074
 21
224248.263349
 31
0.0
  0
LINE
  5
6B
  8
0
  6
BYBLOCK
 62
     9
 10
12364.768074
 20
224020.0
 30
0.0
 11
12364.768074
 21
224151.73579
 31
0.0
  0
SOLID
  5
6C
  8
0
  6
BYBLOCK
 62
     9
 10
12361.434741
 20
224379.999139
 30
0.0
 11
12368.101407
 21
224379.999139
 31
0.0
 12
12364.768074
 22
224399.999139
 32
0.0
 13
12364.768074
 23
224399.999139
 33
0.0
  0
SOLID
  5
6D
  8
0
  6
BYBLOCK
 62
     9
 10
12361.434741
 20
224020.0
 30
0.0
 11
12368.101407
 21
224020.0
 31
0.0
 12
12364.768074
 22
224000.0
 32
0.0
 13
12364.768074
 23
224000.0
 33
0.0
  0
TEXT
  5
6E
  8
0
  6
BYBLOCK
 62
    11
 10
12382.268074
 20
224161.48579
 30
0.0
 40
35.0
  1
400
 50
90.0
  0
POINT
  5
6F
  8
DEFPOINTS
  6
BYBLOCK
 62
     0
 10
12180.000004
 20
224399.999139
 30
0.0
  0
POINT
  5
70
  8
DEFPOINTS
  6
BYBLOCK
 62
     0
 10
12000.0
 20
224000.0
 30
0.0
  0
POINT
  5
71
  8
DEFPOINTS
  6
BYBLOCK
 62
     0
 10
12364.768074
 20
224000.0
 30
0.0
  0
ENDBLK
  5
73
  8
0
  0
BLOCK
  8
0
  2
*D2
 70
     1
 10
0.0
 20
0.0
 30
0.0
  3
*D2
  1

  0
LINE
  5
5A
  8
0
  6
BYBLOCK
 62
     9
 10
12190.000004
 20
224399.999139
 30
0.0
 11
12295.842407
 21
224399.999139
 31
0.0
  0
LINE
  5
5B
  8
0
  6
BYBLOCK
 62
     9
 10
12010.0
 20
224064.999139
 30
0.0
 11
12295.842407
 21
224064.999139
 31
0.0
  0
LINE
  5
5C
  8
0
  6
BYBLOCK
 62
     9
 10
12294.842407
 20
224379.999139
 30
0.0
 11
12294.842407
 21
224279.724013
 31
0.0
  0
LINE
  5
5D
  8
0
  6
BYBLOCK
 62
     9
 10
12294.842407
 20
224084.999139
 30
0.0
 11
12294.842407
 21
224185.274266
 31
0.0
  0
SOLID
  5
5E
  8
0
  6
BYBLOCK
 62
     9
 10
12291.509073
 20
224379.999139
 30
0.0
 11
12298.17574
 21
224379.999139
 31
0.0
 12
12294.842407
 22
224399.999139
 32
0.0
 13
12294.842407
 23
224399.999139
 33
0.0
  0
SOLID
  5
5F
  8
0
  6
BYBLOCK
 62
     9
 10
12291.509073
 20
224084.999139
 30
0.0
 11
12298.17574
 21
224084.999139
 31
0.0
 12
12294.842407
 22
224064.999139
 32
0.0
 13
12294.842407
 23
224064.999139
 33
0.0
  0
TEXT
  5
60
  8
0
  6
BYBLOCK
 62
    11
 10
12312.342407
 20
224195.024266
 30
0.0
 40
35.0
  1
335
 50
90.0
  0
POINT
  5
61
  8
DEFPOINTS
  6
BYBLOCK
 62
     0
 10
12180.000004
 20
224399.999139
 30
0.0
  0
POINT
  5
62
  8
DEFPOINTS
  6
BYBLOCK
 62
     0
 10
12000.0
 20
224064.999139
 30
0.0
  0
POINT
  5
63
  8
DEFPOINTS
  6
BYBLOCK
 62
     0
 10
12294.842407
 20
224064.999139
 30
0.0
  0
ENDBLK
  5
65
  8
0
  0
BLOCK
  8
0
  2
*D3
 70
     1
 10
0.0
 20
0.0
 30
0.0
  3
*D3
  1

  0
LINE
  5
4C
  8
0
  6
BYBLOCK
 62
     9
 10
11990.0
 20
224000.0
 30
0.0
 11
11685.596455
 21
224000.0
 31
0.0
  0
LINE
  5
4D
  8
0
  6
BYBLOCK
 62
     9
 10
11960.0
 20
224185.0
 30
0.0
 11
11685.596455
 21
224185.0
 31
0.0
  0
LINE
  5
4E
  8
0
  6
BYBLOCK
 62
     9
 10
11686.596455
 20
224020.0
 30
0.0
 11
11686.596455
 21
224048.775126
 31
0.0
  0
LINE
  5
4F
  8
0
  6
BYBLOCK
 62
     9
 10
11686.596455
 20
224165.0
 30
0.0
 11
11686.596455
 21
224136.224874
 31
0.0
  0
TEXT
  5
50
  8
0
  6
BYBLOCK
 62
    11
 10
11704.096455
 20
224058.525126
 30
0.0
 40
35.0
  1
185
 50
90.0
  0
SOLID
  5
51
  8
0
  6
BYBLOCK
 62
     9
 10
11683.263122
 20
224020.0
 30
0.0
 11
11689.929788
 21
224020.0
 31
0.0
 12
11686.596455
 22
224000.0
 32
0.0
 13
11686.596455
 23
224000.0
 33
0.0
  0
SOLID
  5
52
  8
0
  6
BYBLOCK
 62
     9
 10
11683.263122
 20
224165.0
 30
0.0
 11
11689.929788
 21
224165.0
 31
0.0
 12
11686.596455
 22
224185.0
 32
0.0
 13
11686.596455
 23
224185.0
 33
0.0
  0
POINT
  5
53
  8
DEFPOINTS
  6
BYBLOCK
 62
     0
 10
12000.0
 20
224000.0
 30
0.0
  0
POINT
  5
54
  8
DEFPOINTS
  6
BYBLOCK
 62
     0
 10
11970.0
 20
224185.0
 30
0.0
  0
POINT
  5
55
  8
DEFPOINTS
  6
BYBLOCK
 62
     0
 10
11686.596455
 20
224185.0
 30
0.0
  0
ENDBLK
  5
57
  8
0
  0
BLOCK
  8
0
  2
*D4
 70
     1
 10
0.0
 20
0.0
 30
0.0
  3
*D4
  1

  0
LINE
  5
3F
  8
0
  6
BYBLOCK
 62
     9
 10
11990.0
 20
224000.0
 30
0.0
 11
11773.558599
 21
224000.0
 31
0.0
  0
LINE
  5
40
  8
0
  6
BYBLOCK
 62
     9
 10
11824.0
 20
224100.0
 30
0.0
 11
11773.558599
 21
224100.0
 31
0.0
  0
LINE
  5
41
  8
0
  6
BYBLOCK
 62
     9
 10
11774.558599
 20
224020.0
 30
0.0
 11
11774.558599
 21
224080.0
 31
0.0
  0
TEXT
  5
42
  8
0
  6
BYBLOCK
 62
    11
 10
11765.830365
 20
224045.33505
 30
0.0
 40
35.0
  1
100
 50
90.0
  0
SOLID
  5
43
  8
0
  6
BYBLOCK
 62
     9
 10
11771.225266
 20
224020.0
 30
0.0
 11
11777.891933
 21
224020.0
 31
0.0
 12
11774.558599
 22
224000.0
 32
0.0
 13
11774.558599
 23
224000.0
 33
0.0
  0
SOLID
  5
44
  8
0
  6
BYBLOCK
 62
     9
 10
11771.225266
 20
224080.0
 30
0.0
 11
11777.891933
 21
224080.0
 31
0.0
 12
11774.558599
 22
224100.0
 32
0.0
 13
11774.558599
 23
224100.0
 33
0.0
  0
POINT
  5
45
  8
DEFPOINTS
  6
BYBLOCK
 62
     0
 10
12000.0
 20
224000.0
 30
0.0
  0
POINT
  5
46
  8
DEFPOINTS
  6
BYBLOCK
 62
     0
 10
11834.0
 20
224100.0
 30
0.0
  0
POINT
  5
47
  8
DEFPOINTS
  6
BYBLOCK
 62
     0
 10
11774.558599
 20
224100.0
 30
0.0
  0
ENDBLK
  5
49
  8
0
  0
BLOCK
  8
0
  2
*D5
 70
     1
 10
0.0
 20
0.0
 30
0.0
  3
*D5
  1

  0
LINE
  5
31
  8
0
  6
BYBLOCK
 62
     9
 10
11850.0
 20
224074.0
 30
0.0
 11
11850.0
 21
223944.388426
 31
0.0
  0
LINE
  5
32
  8
0
  6
BYBLOCK
 62
     9
 10
12150.0
 20
224074.0
 30
0.0
 11
12150.0
 21
223944.388426
 31
0.0
  0
LINE
  5
33
  8
0
  6
BYBLOCK
 62
     9
 10
11870.0
 20
223945.388426
 30
0.0
 11
11953.48622
 21
223945.388426
 31
0.0
  0
LINE
  5
34
  8
0
  6
BYBLOCK
 62
     9
 10
12130.0
 20
223945.388426
 30
0.0
 11
12046.51378
 21
223945.388426
 31
0.0
  0
TEXT
  5
35
  8
0
  6
BYBLOCK
 62
    11
 10
11963.23622
 20
223927.888426
 30
0.0
 40
35.0
  1
300
  0
SOLID
  5
36
  8
0
  6
BYBLOCK
 62
     9
 10
11870.0
 20
223948.72176
 30
0.0
 11
11870.0
 21
223942.055093
 31
0.0
 12
11850.0
 22
223945.388426
 32
0.0
 13
11850.0
 23
223945.388426
 33
0.0
  0
SOLID
  5
37
  8
0
  6
BYBLOCK
 62
     9
 10
12130.0
 20
223948.72176
 30
0.0
 11
12130.0
 21
223942.055093
 31
0.0
 12
12150.0
 22
223945.388426
 32
0.0
 13
12150.0
 23
223945.388426
 33
0.0
  0
POINT
  5
38
  8
DEFPOINTS
  6
BYBLOCK
 62
     0
 10
11850.0
 20
224084.0
 30
0.0
  0
POINT
  5
39
  8
DEFPOINTS
  6
BYBLOCK
 62
     0
 10
12150.0
 20
224084.0
 30
0.0
  0
POINT
  5
3A
  8
DEFPOINTS
  6
BYBLOCK
 62
     0
 10
12150.0
 20
223945.388426
 30
0.0
  0
ENDBLK
  5
3C
  8
0
  0
BLOCK
  8
0
  2
*D6
 70
     1
 10
0.0
 20
0.0
 30
0.0
  3
*D6
  1

  0
LINE
  5
22
  8
0
  6
BYBLOCK
 62
     9
 10
11910.0
 20
224354.0
 30
0.0
 11
11910.0
 21
224439.14819
 31
0.0
  0
LINE
  5
23
  8
0
  6
BYBLOCK
 62
     9
 10
12090.0
 20
224354.0
 30
0.0
 11
12090.0
 21
224439.14819
 31
0.0
  0
LINE
  5
24
  8
0
  6
BYBLOCK
 62
     9
 10
11930.0
 20
224438.14819
 30
0.0
 11
11956.98622
 21
224438.14819
 31
0.0
  0
LINE
  5
25
  8
0
  6
BYBLOCK
 62
     9
 10
12070.0
 20
224438.14819
 30
0.0
 11
12043.01378
 21
224438.14819
 31
0.0
  0
SOLID
  5
26
  8
0
  6
BYBLOCK
 62
     9
 10
11930.0
 20
224441.481523
 30
0.0
 11
11930.0
 21
224434.814856
 31
0.0
 12
11910.0
 22
224438.14819
 32
0.0
 13
11910.0
 23
224438.14819
 33
0.0
  0
SOLID
  5
27
  8
0
  6
BYBLOCK
 62
     9
 10
12070.0
 20
224441.481523
 30
0.0
 11
12070.0
 21
224434.814856
 31
0.0
 12
12090.0
 22
224438.14819
 32
0.0
 13
12090.0
 23
224438.14819
 33
0.0
  0
TEXT
  5
28
  8
0
  6
BYBLOCK
 62
    11
 10
11966.73622
 20
224420.64819
 30
0.0
 40
35.0
  1
180
  0
POINT
  5
29
  8
DEFPOINTS
  6
BYBLOCK
 62
     0
 10
11910.0
 20
224344.0
 30
0.0
  0
POINT
  5
2B
  8
DEFPOINTS
  6
BYBLOCK
 62
     0
 10
12090.0
 20
224344.0
 30
0.0
  0
POINT
  5
2C
  8
DEFPOINTS
  6
BYBLOCK
 62
     0
 10
12090.0
 20
224438.14819
 30
0.0
  0
ENDBLK
  5
2E
  8
0
  0
ENDSEC
  0
SECTION
  2
ENTITIES
  0
DIMENSION
  5
20
  8
TEAM-MAS
  2
*D6
 10
90.0
 20
438.14819
 30
0.0
 11
0.0
 21
438.14819
 31
0.0
 12
-12000.0
 22
-224000.0
 32
0.0
 13
-90.0
 23
344.0
 33
0.0
 14
90.0
 24
344.0
 34
0.0
1001
ACAD
1000
DSTYLE
1002
{
1070
    40
1040
1.0
1002
}
  0
DIMENSION
  5
2F
  8
TEAM-MAS
  2
*D5
 10
150.0
 20
-54.611574
 30
0.0
 11
0.0
 21
-54.611574
 31
0.0
 12
-12000.0
 22
-224000.0
 32
0.0
 70
   128
 13
-150.0
 23
84.0
 33
0.0
 14
150.0
 24
84.0
 34
0.0
1001
ACAD
1000
DSTYLE
1002
{
1070
    40
1040
1.0
1002
}
  0
DIMENSION
  5
3D
  8
TEAM-MAS
  2
*D4
 10
-225.441401
 20
100.0
 30
0.0
 11
-251.669635
 21
78.59883
 31
0.0
 12
-12000.0
 22
-224000.0
 32
0.0
 70
   128
 13
0.0
 23
0.0
 33
0.0
 14
-166.0
 24
100.0
 34
0.0
 50
90.0
1001
ACAD
1000
DSTYLE
1002
{
1070
    40
1040
1.0
1002
}
  0
DIMENSION
  5
4A
  8
TEAM-MAS
  2
*D3
 10
-313.403545
 20
185.0
 30
0.0
 11
-313.403545
 21
92.5
 31
0.0
 12
-12000.0
 22
-224000.0
 32
0.0
 70
   128
 13
0.0
 23
0.0
 33
0.0
 14
-30.0
 24
185.0
 34
0.0
 50
90.0
1001
ACAD
1000
DSTYLE
1002
{
1070
    40
1040
1.0
1002
}
  0
DIMENSION
  5
58
  8
TEAM-MAS
  2
*D2
 10
294.842407
 20
64.999139
 30
0.0
 11
294.842407
 21
232.499139
 31
0.0
 12
-12000.0
 22
-224000.0
 32
0.0
 13
180.000004
 23
399.999139
 33
0.0
 14
0.0
 24
64.999139
 34
0.0
 50
90.0
1001
ACAD
1000
DSTYLE
1002
{
1070
    40
1040
1.0
1002
}
  0
DIMENSION
  5
66
  8
TEAM-MAS
  2
*D1
 10
364.768074
 20
0.0
 30
0.0
 11
364.768074
 21
199.99957
 31
0.0
 12
-12000.0
 22
-224000.0
 32
0.0
 13
180.000004
 23
399.999139
 33
0.0
 14
0.0
 24
0.0
 34
0.0
 50
90.0
1001
ACAD
1000
DSTYLE
1002
{
1070
    40
1040
1.0
1002
}
  0
DIMENSION
  5
74
  8
TEAM-MAS
  2
*D0
 10
231.547619
 20
325.0
 30
0.0
 11
230.906626
 21
281.947243
 31
0.0
 12
-12000.0
 22
-224000.0
 32
0.0
 70
   128
 13
180.000004
 23
399.999139
 33
0.0
 14
120.0
 24
325.0
 34
0.0
 50
90.0
1001
ACAD
1000
DSTYLE
1002
{
1070
    40
1040
1.0
1002
}
  0
LINE
  5
81
  8
TEAM-BODY
 10
180.000004
 20
399.999139
 30
0.0
 11
0.0
 21
399.999139
 31
0.0
  0
LINE
  5
83
  8
TEAM-BODY
 10
-176.765743
 20
387.135674
 30
0.0
 11
-176.362911
 21
385.809053
 31
0.0
  0
LINE
  5
84
  8
TEAM-BODY
 10
-177.158581
 20
388.261773
 30
0.0
 11
-176.765743
 21
387.135674
 31
0.0
  0
LINE
  5
85
  8
TEAM-BODY
 10
-177.540508
 20
389.258782
 30
0.0
 11
-177.158581
 21
388.261773
 31
0.0
  0
LINE
  5
86
  8
TEAM-BODY
 10
-177.910839
 20
390.159356
 30
0.0
 11
-177.540508
 21
389.258782
 31
0.0
  0
LINE
  5
87
  8
TEAM-BODY
 10
-178.268581
 20
390.995538
 30
0.0
 11
-177.910839
 21
390.159356
 31
0.0
  0
LINE
  5
88
  8
TEAM-BODY
 10
-178.611904
 20
391.801202
 30
0.0
 11
-178.268581
 21
390.995538
 31
0.0
  0
LINE
  5
89
  8
TEAM-BODY
 10
-178.934322
 20
392.616021
 30
0.0
 11
-178.611904
 21
391.801202
 31
0.0
  0
LINE
  5
8A
  8
TEAM-BODY
 10
-179.228054
 20
393.480889
 30
0.0
 11
-178.934322
 21
392.616021
 31
0.0
  0
LINE
  5
8B
  8
TEAM-BODY
 10
-179.485546
 20
394.43731
 30
0.0
 11
-179.228054
 21
393.480889
 31
0.0
  0
LINE
  5
8C
  8
TEAM-BODY
 10
-179.699169
 20
395.526177
 30
0.0
 11
-179.485546
 21
394.43731
 31
0.0
  0
LINE
  5
8D
  8
TEAM-BODY
 10
-179.861141
 20
396.788384
 30
0.0
 11
-179.699169
 21
395.526177
 31
0.0
  0
LINE
  5
8E
  8
TEAM-BODY
 10
-179.963985
 20
398.26574
 30
0.0
 11
-179.861141
 21
396.788384
 31
0.0
  0
LINE
  5
8F
  8
TEAM-BODY
 10
-179.999996
 20
399.999139
 30
0.0
 11
-179.963985
 21
398.26574
 31
0.0
  0
LINE
  5
90
  8
TEAM-BODY
 10
-179.999996
 20
399.999139
 30
0.0
 11
0.0
 21
399.999139
 31
0.0
  0
LINE
  5
91
  8
TEAM-BODY
 10
176.765827
 20
387.135674
 30
0.0
 11
176.362995
 21
385.809053
 31
0.0
  0
LINE
  5
92
  8
TEAM-BODY
 10
177.158665
 20
388.261773
 30
0.0
 11
176.765827
 21
387.135674
 31
0.0
  0
LINE
  5
93
  8
TEAM-BODY
 10
177.540592
 20
389.258782
 30
0.0
 11
177.158665
 21
388.261773
 31
0.0
  0
LINE
  5
94
  8
TEAM-BODY
 10
177.910847
 20
390.159356
 30
0.0
 11
177.540592
 21
389.258782
 31
0.0
  0
LINE
  5
95
  8
TEAM-BODY
 10
178.268665
 20
390.995538
 30
0.0
 11
177.910847
 21
390.159356
 31
0.0
  0
LINE
  5
96
  8
TEAM-BODY
 10
178.611988
 20
391.801202
 30
0.0
 11
178.268665
 21
390.995538
 31
0.0
  0
LINE
  5
97
  8
TEAM-BODY
 10
178.93433
 20
392.616021
 30
0.0
 11
178.611988
 21
391.801202
 31
0.0
  0
LINE
  5
98
  8
TEAM-BODY
 10
179.228138
 20
393.480889
 30
0.0
 11
178.93433
 21
392.616021
 31
0.0
  0
LINE
  5
99
  8
TEAM-BODY
 10
179.48563
 20
394.43731
 30
0.0
 11
179.228138
 21
393.480889
 31
0.0
  0
LINE
  5
9A
  8
TEAM-BODY
 10
179.699177
 20
395.526177
 30
0.0
 11
179.48563
 21
394.43731
 31
0.0
  0
LINE
  5
9B
  8
TEAM-BODY
 10
179.861225
 20
396.788384
 30
0.0
 11
179.699177
 21
395.526177
 31
0.0
  0
LINE
  5
9C
  8
TEAM-BODY
 10
179.964069
 20
398.26574
 30
0.0
 11
179.861225
 21
396.788384
 31
0.0
  0
LINE
  5
9D
  8
TEAM-BODY
 10
180.000004
 20
399.999139
 30
0.0
 11
179.964069
 21
398.26574
 31
0.0
  0
LINE
  5
9E
  8
TEAM-BODY
 10
176.362995
 20
385.809053
 30
0.0
 11
175.950932
 21
384.329256
 31
0.0
  0
LINE
  5
9F
  8
TEAM-BODY
 10
175.950932
 20
384.329256
 30
0.0
 11
175.530552
 21
382.624239
 31
0.0
  0
LINE
  5
A0
  8
TEAM-BODY
 10
175.530552
 20
382.624239
 30
0.0
 11
175.102543
 21
380.661348
 31
0.0
  0
LINE
  5
A1
  8
TEAM-BODY
 10
-176.362911
 20
385.809053
 30
0.0
 11
-175.950848
 21
384.329256
 31
0.0
  0
LINE
  5
A2
  8
TEAM-BODY
 10
-175.950848
 20
384.329256
 30
0.0
 11
-175.530468
 21
382.624239
 31
0.0
  0
LINE
  5
A3
  8
TEAM-BODY
 10
-175.530468
 20
382.624239
 30
0.0
 11
-175.102459
 21
380.661348
 31
0.0
  0
LINE
  5
A4
  8
TEAM-HIDE
 10
101.0
 20
334.0
 30
0.0
 11
79.0
 21
334.0
 31
0.0
  0
LINE
  5
A7
  8
TEAM-HIDE
 10
101.0
 20
334.0
 30
0.0
 11
79.0
 21
334.0
 31
0.0
  0
LINE
  5
A8
  8
TEAM-HIDE
 10
-79.0
 20
334.0
 30
0.0
 11
-101.0
 21
334.0
 31
0.0
  0
LINE
  5
A9
  8
TEAM-HIDE
 10
-79.0
 20
334.0
 30
0.0
 11
-101.0
 21
334.0
 31
0.0
  0
TEXT
  5
AA
  8
TEAM-TXT
 10
-114.414583
 20
274.819653
 30
0.0
 40
30.0
  1
team 227003
 41
0.8
 51
15.0
  7
TEAM
  0
LINE
  5
AD
  8
TEAM-AXE
 10
60.0
 20
325.0
 30
0.0
 11
120.0
 21
325.0
 31
0.0
  0
LINE
  5
B0
  8
TEAM-AXE
 10
60.0
 20
325.0
 30
0.0
 11
120.0
 21
325.0
 31
0.0
  0
LINE
  5
B1
  8
TEAM-HIDE
 10
79.0
 20
316.0
 30
0.0
 11
101.0
 21
316.0
 31
0.0
  0
LINE
  5
B2
  8
TEAM-HIDE
 10
79.0
 20
316.0
 30
0.0
 11
101.0
 21
316.0
 31
0.0
  0
LINE
  5
B3
  8
TEAM-AXE
 10
-120.0
 20
325.0
 30
0.0
 11
-60.0
 21
325.0
 31
0.0
  0
LINE
  5
B4
  8
TEAM-AXE
 10
-120.0
 20
325.0
 30
0.0
 11
-60.0
 21
325.0
 31
0.0
  0
LINE
  5
B5
  8
TEAM-HIDE
 10
-101.0
 20
316.0
 30
0.0
 11
-79.0
 21
316.0
 31
0.0
  0
LINE
  5
B6
  8
TEAM-HIDE
 10
-101.0
 20
316.0
 30
0.0
 11
-79.0
 21
316.0
 31
0.0
  0
ARC
  5
B7
  8
TEAM-HIDE
 10
79.0
 20
325.0
 30
0.0
 40
9.0
 50
90.0
 51
270.0
  0
ARC
  5
B8
  8
TEAM-HIDE
 10
79.0
 20
325.0
 30
0.0
 40
9.0
 50
90.0
 51
270.0
  0
ARC
  5
B9
  8
TEAM-HIDE
 10
-79.0
 20
325.0
 30
0.0
 40
9.0
 50
270.0
 51
90.0
  0
ARC
  5
BA
  8
TEAM-HIDE
 10
-79.0
 20
325.0
 30
0.0
 40
9.0
 50
270.0
 51
90.0
  0
LINE
  5
BB
  8
TEAM-AXE
 10
-90.0
 20
344.0
 30
0.0
 11
-90.0
 21
306.0
 31
0.0
  0
LINE
  5
BC
  8
TEAM-AXE
 10
-90.0
 20
344.0
 30
0.0
 11
-90.0
 21
306.0
 31
0.0
  0
ARC
  5
BD
  8
TEAM-HIDE
 10
-101.0
 20
325.0
 30
0.0
 40
9.0
 50
90.0
 51
270.0
  0
ARC
  5
BE
  8
TEAM-HIDE
 10
-101.0
 20
325.0
 30
0.0
 40
9.0
 50
90.0
 51
270.0
  0
LINE
  5
BF
  8
TEAM-AXE
 10
90.0
 20
344.0
 30
0.0
 11
90.0
 21
306.0
 31
0.0
  0
LINE
  5
C0
  8
TEAM-AXE
 10
90.0
 20
344.0
 30
0.0
 11
90.0
 21
306.0
 31
0.0
  0
ARC
  5
C1
  8
TEAM-HIDE
 10
101.0
 20
325.0
 30
0.0
 40
9.0
 50
270.0
 51
90.0
  0
ARC
  5
C2
  8
TEAM-HIDE
 10
101.0
 20
325.0
 30
0.0
 40
9.0
 50
270.0
 51
90.0
  0
LINE
  5
C3
  8
TEAM-BODY
 10
-17.54489
 20
66.509458
 30
0.0
 11
-13.989439
 21
65.900022
 31
0.0
  0
LINE
  5
C4
  8
TEAM-BODY
 10
-20.651198
 20
67.216855
 30
0.0
 11
-17.54489
 21
66.509458
 31
0.0
  0
LINE
  5
C5
  8
TEAM-BODY
 10
-23.371763
 20
67.987424
 30
0.0
 11
-20.651198
 21
67.216855
 31
0.0
  0
LINE
  5
C6
  8
TEAM-BODY
 10
-25.769987
 20
68.78729
 30
0.0
 11
-23.371763
 21
67.987424
 31
0.0
  0
LINE
  5
C7
  8
TEAM-BODY
 10
-27.909498
 20
69.582578
 30
0.0
 11
-25.769987
 21
68.78729
 31
0.0
  0
LINE
  5
C8
  8
TEAM-BODY
 10
-29.845533
 20
70.344907
 30
0.0
 11
-27.909498
 21
69.582578
 31
0.0
  0
LINE
  5
C9
  8
TEAM-BODY
 10
-31.600905
 20
71.073361
 30
0.0
 11
-29.845533
 21
70.344907
 31
0.0
  0
LINE
  5
CA
  8
TEAM-BODY
 10
-33.19026
 20
71.772519
 30
0.0
 11
-31.600905
 21
71.073361
 31
0.0
  0
LINE
  5
CB
  8
TEAM-BODY
 10
-34.628248
 20
72.446958
 30
0.0
 11
-33.19026
 21
71.772519
 31
0.0
  0
LINE
  5
CC
  8
TEAM-BODY
 10
-35.929518
 20
73.10217
 30
0.0
 11
-34.628248
 21
72.446958
 31
0.0
  0
LINE
  5
CD
  8
TEAM-BODY
 10
-37.108717
 20
73.742734
 30
0.0
 11
-35.929518
 21
73.10217
 31
0.0
  0
LINE
  5
CE
  8
TEAM-BODY
 10
-38.180494
 20
74.373227
 30
0.0
 11
-37.108717
 21
73.742734
 31
0.0
  0
LINE
  5
CF
  8
TEAM-BODY
 10
-39.159498
 20
74.999143
 30
0.0
 11
-38.180494
 21
74.373227
 31
0.0
  0
LINE
  5
D0
  8
TEAM-BODY
 10
-40.057936
 20
75.625058
 30
0.0
 11
-39.159498
 21
74.999143
 31
0.0
  0
LINE
  5
D1
  8
TEAM-BODY
 10
-40.878248
 20
76.255551
 30
0.0
 11
-40.057936
 21
75.625058
 31
0.0
  0
LINE
  5
D2
  8
TEAM-BODY
 10
-41.620436
 20
76.896115
 30
0.0
 11
-40.878248
 21
76.255551
 31
0.0
  0
LINE
  5
D3
  8
TEAM-BODY
 10
-42.284498
 20
77.551328
 30
0.0
 11
-41.620436
 21
76.896115
 31
0.0
  0
LINE
  5
D4
  8
TEAM-BODY
 10
-42.870436
 20
78.225766
 30
0.0
 11
-42.284498
 21
77.551328
 31
0.0
  0
LINE
  5
D5
  8
TEAM-BODY
 10
-43.378248
 20
78.924924
 30
0.0
 11
-42.870436
 21
78.225766
 31
0.0
  0
LINE
  5
D6
  8
TEAM-BODY
 10
-43.807936
 20
79.653379
 30
0.0
 11
-43.378248
 21
78.924924
 31
0.0
  0
LINE
  5
D7
  8
TEAM-BODY
 10
-44.159498
 20
80.415708
 30
0.0
 11
-43.807936
 21
79.653379
 31
0.0
  0
LINE
  5
D8
  8
TEAM-BODY
 10
-44.444304
 20
81.35748
 30
0.0
 11
-44.159498
 21
80.415708
 31
0.0
  0
LINE
  5
D9
  8
TEAM-BODY
 10
-44.71942
 20
83.182736
 30
0.0
 11
-44.444304
 21
81.35748
 31
0.0
  0
LINE
  5
DA
  8
TEAM-BODY
 10
-45.053053
 20
86.736508
 30
0.0
 11
-44.71942
 21
83.182736
 31
0.0
  0
LINE
  5
DB
  8
TEAM-BODY
 10
-45.51364
 20
92.863828
 30
0.0
 11
-45.053053
 21
86.736508
 31
0.0
  0
LINE
  5
DC
  8
TEAM-BODY
 10
-46.169615
 20
102.408811
 30
0.0
 11
-45.51364
 21
92.863828
 31
0.0
  0
LINE
  5
DD
  8
TEAM-BODY
 10
-47.089186
 20
116.216489
 30
0.0
 11
-46.169615
 21
102.408811
 31
0.0
  0
LINE
  5
DE
  8
TEAM-BODY
 10
-48.347931
 20
165.091585
 30
0.0
 11
-47.089186
 21
116.216489
 31
0.0
  0
LINE
  5
DF
  8
TEAM-BODY
 10
47.103552
 20
116.216489
 30
0.0
 11
48.348011
 21
165.091585
 31
0.0
  0
LINE
  5
E0
  8
TEAM-BODY
 10
46.183905
 20
102.408811
 30
0.0
 11
47.103552
 21
116.216489
 31
0.0
  0
LINE
  5
E1
  8
TEAM-BODY
 10
45.528006
 20
92.863828
 30
0.0
 11
46.183905
 21
102.408811
 31
0.0
  0
LINE
  5
E2
  8
TEAM-BODY
 10
45.067419
 20
86.736508
 30
0.0
 11
45.528006
 21
92.863828
 31
0.0
  0
LINE
  5
E3
  8
TEAM-BODY
 10
44.733709
 20
83.182736
 30
0.0
 11
45.067419
 21
86.736508
 31
0.0
  0
LINE
  5
E4
  8
TEAM-BODY
 10
44.45867
 20
81.35748
 30
0.0
 11
44.733709
 21
83.182736
 31
0.0
  0
LINE
  5
E5
  8
TEAM-BODY
 10
44.173864
 20
80.415708
 30
0.0
 11
44.45867
 21
81.35748
 31
0.0
  0
LINE
  5
E6
  8
TEAM-BODY
 10
43.822302
 20
79.653379
 30
0.0
 11
44.173864
 21
80.415708
 31
0.0
  0
LINE
  5
E7
  8
TEAM-BODY
 10
43.392614
 20
78.924924
 30
0.0
 11
43.822302
 21
79.653379
 31
0.0
  0
LINE
  5
E8
  8
TEAM-BODY
 10
42.884802
 20
78.225766
 30
0.0
 11
43.392614
 21
78.924924
 31
0.0
  0
LINE
  5
E9
  8
TEAM-BODY
 10
42.298864
 20
77.551328
 30
0.0
 11
42.884802
 21
78.225766
 31
0.0
  0
LINE
  5
EA
  8
TEAM-BODY
 10
41.634802
 20
76.896115
 30
0.0
 11
42.298864
 21
77.551328
 31
0.0
  0
LINE
  5
EB
  8
TEAM-BODY
 10
40.892614
 20
76.255551
 30
0.0
 11
41.634802
 21
76.896115
 31
0.0
  0
LINE
  5
EC
  8
TEAM-BODY
 10
40.072302
 20
75.625058
 30
0.0
 11
40.892614
 21
76.255551
 31
0.0
  0
LINE
  5
ED
  8
TEAM-BODY
 10
39.173864
 20
74.999143
 30
0.0
 11
40.072302
 21
75.625058
 31
0.0
  0
LINE
  5
EE
  8
TEAM-BODY
 10
38.19486
 20
74.373227
 30
0.0
 11
39.173864
 21
74.999143
 31
0.0
  0
LINE
  5
EF
  8
TEAM-BODY
 10
37.123083
 20
73.742734
 30
0.0
 11
38.19486
 21
74.373227
 31
0.0
  0
LINE
  5
F0
  8
TEAM-BODY
 10
35.943884
 20
73.10217
 30
0.0
 11
37.123083
 21
73.742734
 31
0.0
  0
LINE
  5
F1
  8
TEAM-BODY
 10
34.642614
 20
72.446958
 30
0.0
 11
35.943884
 21
73.10217
 31
0.0
  0
LINE
  5
F2
  8
TEAM-BODY
 10
33.204626
 20
71.772519
 30
0.0
 11
34.642614
 21
72.446958
 31
0.0
  0
LINE
  5
F3
  8
TEAM-BODY
 10
31.615271
 20
71.073361
 30
0.0
 11
33.204626
 21
71.772519
 31
0.0
  0
LINE
  5
F4
  8
TEAM-BODY
 10
29.859899
 20
70.344907
 30
0.0
 11
31.615271
 21
71.073361
 31
0.0
  0
LINE
  5
F5
  8
TEAM-BODY
 10
27.92386
 20
69.582578
 30
0.0
 11
29.859899
 21
70.344907
 31
0.0
  0
LINE
  5
F6
  8
TEAM-BODY
 10
25.784349
 20
68.78729
 30
0.0
 11
27.92386
 21
69.582578
 31
0.0
  0
LINE
  5
F7
  8
TEAM-BODY
 10
23.386049
 20
67.987424
 30
0.0
 11
25.784349
 21
68.78729
 31
0.0
  0
LINE
  5
F8
  8
TEAM-BODY
 10
20.66556
 20
67.216855
 30
0.0
 11
23.386049
 21
67.987424
 31
0.0
  0
LINE
  5
F9
  8
TEAM-BODY
 10
17.559252
 20
66.509458
 30
0.0
 11
20.66556
 21
67.216855
 31
0.0
  0
LINE
  5
FA
  8
TEAM-BODY
 10
14.003725
 20
65.900022
 30
0.0
 11
17.559252
 21
66.509458
 31
0.0
  0
LINE
  5
FB
  8
TEAM-BODY
 10
9.935579
 20
65.422421
 30
0.0
 11
14.003725
 21
65.900022
 31
0.0
  0
LINE
  5
FC
  8
TEAM-BODY
 10
5.291185
 20
65.110532
 30
0.0
 11
9.935579
 21
65.422421
 31
0.0
  0
LINE
  5
FD
  8
TEAM-BODY
 10
0.007143
 20
64.999143
 30
0.0
 11
5.291185
 21
65.110532
 31
0.0
  0
LINE
  5
FE
  8
TEAM-BODY
 10
-5.276823
 20
65.110532
 30
0.0
 11
0.007143
 21
64.999143
 31
0.0
  0
LINE
  5
FF
  8
TEAM-BODY
 10
-9.921217
 20
65.422421
 30
0.0
 11
-5.276823
 21
65.110532
 31
0.0
  0
LINE
  5
100
  8
TEAM-BODY
 10
-13.989439
 20
65.900022
 30
0.0
 11
-9.921217
 21
65.422421
 31
0.0
  0
LINE
  5
101
  8
TEAM-BODY
 10
88.195805
 20
126.883904
 30
0.0
 11
80.885471
 21
107.290704
 31
0.0
  0
LINE
  5
102
  8
TEAM-BODY
 10
80.885471
 20
107.290704
 30
0.0
 11
75.313343
 21
94.182183
 31
0.0
  0
LINE
  5
103
  8
TEAM-BODY
 10
75.313343
 20
94.182183
 30
0.0
 11
71.03516
 21
86.014764
 31
0.0
  0
LINE
  5
104
  8
TEAM-BODY
 10
71.03516
 20
86.014764
 30
0.0
 11
67.606663
 21
81.245782
 31
0.0
  0
LINE
  5
105
  8
TEAM-BODY
 10
64.583363
 20
78.332574
 30
0.0
 11
61.594242
 21
75.985467
 31
0.0
  0
LINE
  5
106
  8
TEAM-BODY
 10
61.594242
 20
75.985467
 30
0.0
 11
58.561253
 21
73.931329
 31
0.0
  0
LINE
  5
107
  8
TEAM-BODY
 10
58.561253
 20
73.931329
 30
0.0
 11
55.479359
 21
72.150933
 31
0.0
  0
LINE
  5
108
  8
TEAM-BODY
 10
55.479359
 20
72.150933
 30
0.0
 11
52.343754
 21
70.624139
 31
0.0
  0
LINE
  5
109
  8
TEAM-BODY
 10
52.343754
 20
70.624139
 30
0.0
 11
49.149631
 21
69.331719
 31
0.0
  0
LINE
  5
10A
  8
TEAM-BODY
 10
49.149631
 20
69.331719
 30
0.0
 11
45.891956
 21
68.254449
 31
0.0
  0
LINE
  5
10B
  8
TEAM-BODY
 10
45.891956
 20
68.254449
 30
0.0
 11
42.565922
 21
67.372186
 31
0.0
  0
LINE
  5
10C
  8
TEAM-BODY
 10
42.565922
 20
67.372186
 30
0.0
 11
39.166721
 21
66.665704
 31
0.0
  0
LINE
  5
10D
  8
TEAM-BODY
 10
39.166721
 20
66.665704
 30
0.0
 11
35.67223
 21
66.115777
 31
0.0
  0
LINE
  5
10E
  8
TEAM-BODY
 10
35.67223
 20
66.115777
 30
0.0
 11
31.992191
 21
65.702264
 31
0.0
  0
LINE
  5
10F
  8
TEAM-BODY
 10
31.992191
 20
65.702264
 30
0.0
 11
28.019257
 21
65.405938
 31
0.0
  0
LINE
  5
110
  8
TEAM-BODY
 10
28.019257
 20
65.405938
 30
0.0
 11
23.645859
 21
65.207574
 31
0.0
  0
LINE
  5
111
  8
TEAM-BODY
 10
23.645859
 20
65.207574
 30
0.0
 11
18.764648
 21
65.087029
 31
0.0
  0
LINE
  5
112
  8
TEAM-BODY
 10
18.764648
 20
65.087029
 30
0.0
 11
13.26828
 21
65.025079
 31
0.0
  0
LINE
  5
113
  8
TEAM-BODY
 10
13.26828
 20
65.025079
 30
0.0
 11
7.049179
 21
65.002496
 31
0.0
  0
LINE
  5
114
  8
TEAM-BODY
 10
7.049179
 20
65.002496
 30
0.0
 11
0.0
 21
64.999139
 31
0.0
  0
LINE
  5
115
  8
TEAM-BODY
 10
-13.268204
 20
65.025079
 30
0.0
 11
-7.049103
 21
65.002496
 31
0.0
  0
LINE
  5
116
  8
TEAM-BODY
 10
-7.049103
 20
65.002496
 30
0.0
 11
0.0
 21
64.999139
 31
0.0
  0
LINE
  5
117
  8
TEAM-BODY
 10
-52.34375
 20
70.624139
 30
0.0
 11
-49.149551
 21
69.331719
 31
0.0
  0
LINE
  5
118
  8
TEAM-BODY
 10
-49.149551
 20
69.331719
 30
0.0
 11
-45.891876
 21
68.254449
 31
0.0
  0
LINE
  5
119
  8
TEAM-BODY
 10
-45.891876
 20
68.254449
 30
0.0
 11
-42.565918
 21
67.372186
 31
0.0
  0
LINE
  5
11A
  8
TEAM-BODY
 10
-42.565918
 20
67.372186
 30
0.0
 11
-39.166641
 21
66.665704
 31
0.0
  0
LINE
  5
11B
  8
TEAM-BODY
 10
-39.166641
 20
66.665704
 30
0.0
 11
-35.67215
 21
66.115777
 31
0.0
  0
LINE
  5
11C
  8
TEAM-BODY
 10
-35.67215
 20
66.115777
 30
0.0
 11
-31.992188
 21
65.702264
 31
0.0
  0
LINE
  5
11D
  8
TEAM-BODY
 10
-31.992188
 20
65.702264
 30
0.0
 11
-28.01918
 21
65.405938
 31
0.0
  0
LINE
  5
11E
  8
TEAM-BODY
 10
-28.01918
 20
65.405938
 30
0.0
 11
-23.645783
 21
65.207574
 31
0.0
  0
LINE
  5
11F
  8
TEAM-BODY
 10
-23.645783
 20
65.207574
 30
0.0
 11
-18.764648
 21
65.087029
 31
0.0
  0
LINE
  5
120
  8
TEAM-BODY
 10
-18.764648
 20
65.087029
 30
0.0
 11
-13.268204
 21
65.025079
 31
0.0
  0
LINE
  5
121
  8
TEAM-BODY
 10
67.606663
 20
81.245782
 30
0.0
 11
64.583363
 21
78.332574
 31
0.0
  0
LINE
  5
122
  8
TEAM-BODY
 10
-97.688751
 20
169.464144
 30
0.0
 11
-88.195801
 21
126.883904
 31
0.0
  0
LINE
  5
123
  8
TEAM-BODY
 10
-88.195801
 20
126.883904
 30
0.0
 11
-80.885391
 21
107.290704
 31
0.0
  0
LINE
  5
124
  8
TEAM-BODY
 10
-80.885391
 20
107.290704
 30
0.0
 11
-75.313263
 21
94.182183
 31
0.0
  0
LINE
  5
125
  8
TEAM-BODY
 10
-75.313263
 20
94.182183
 30
0.0
 11
-71.035156
 21
86.014764
 31
0.0
  0
LINE
  5
126
  8
TEAM-BODY
 10
-71.035156
 20
86.014764
 30
0.0
 11
-67.606583
 21
81.245782
 31
0.0
  0
LINE
  5
127
  8
TEAM-BODY
 10
-67.606583
 20
81.245782
 30
0.0
 11
-64.583283
 21
78.332574
 31
0.0
  0
LINE
  5
128
  8
TEAM-BODY
 10
-64.583283
 20
78.332574
 30
0.0
 11
-61.594238
 21
75.985467
 31
0.0
  0
LINE
  5
129
  8
TEAM-BODY
 10
-61.594238
 20
75.985467
 30
0.0
 11
-58.561173
 21
73.931329
 31
0.0
  0
LINE
  5
12A
  8
TEAM-BODY
 10
-58.561173
 20
73.931329
 30
0.0
 11
-55.479279
 21
72.150933
 31
0.0
  0
LINE
  5
12B
  8
TEAM-BODY
 10
-55.479279
 20
72.150933
 30
0.0
 11
-52.34375
 21
70.624139
 31
0.0
  0
LINE
  5
12C
  8
TEAM-BODY
 10
97.688831
 20
169.464144
 30
0.0
 11
88.195805
 21
126.883904
 31
0.0
  0
LINE
  5
12D
  8
TEAM-BODY
 10
121.290134
 20
243.162569
 30
0.0
 11
109.808811
 21
206.655
 31
0.0
  0
LINE
  5
12E
  8
TEAM-BODY
 10
109.808811
 20
206.655
 30
0.0
 11
97.688831
 21
169.464144
 31
0.0
  0
LINE
  5
12F
  8
TEAM-BODY
 10
-121.290127
 20
243.162569
 30
0.0
 11
-109.808727
 21
206.655
 31
0.0
  0
LINE
  5
130
  8
TEAM-BODY
 10
-109.808727
 20
206.655
 30
0.0
 11
-97.688751
 21
169.464144
 31
0.0
  0
LINE
  5
131
  8
TEAM-BODY
 10
-49.766235
 20
186.440462
 30
0.0
 11
-48.347931
 21
165.091585
 31
0.0
  0
LINE
  5
132
  8
TEAM-BODY
 10
48.348011
 20
165.091585
 30
0.0
 11
49.766239
 21
186.440462
 31
0.0
  0
POLYLINE
  5
133
  8
TEAM-BODY
 66
     1
 10
0.0
 20
0.0
 30
0.0
  0
VERTEX
  5
325
  8
TEAM-BODY
 10
49.766239
 20
186.440462
 30
0.0
  0
VERTEX
  5
326
  8
TEAM-BODY
 10
49.791782
 20
186.701181
 30
0.0
  0
VERTEX
  5
327
  8
TEAM-BODY
 10
49.830425
 20
186.959337
 30
0.0
  0
VERTEX
  5
328
  8
TEAM-BODY
 10
49.881985
 20
187.214426
 30
0.0
  0
VERTEX
  5
329
  8
TEAM-BODY
 10
49.946278
 20
187.465959
 30
0.0
  0
VERTEX
  5
32A
  8
TEAM-BODY
 10
50.023144
 20
187.713442
 30
0.0
  0
VERTEX
  5
32B
  8
TEAM-BODY
 10
50.112392
 20
187.956377
 30
0.0
  0
VERTEX
  5
32C
  8
TEAM-BODY
 10
50.213856
 20
188.194269
 30
0.0
  0
VERTEX
  5
32D
  8
TEAM-BODY
 10
50.327351
 20
188.426622
 30
0.0
  0
VERTEX
  5
32E
  8
TEAM-BODY
 10
50.452709
 20
188.652948
 30
0.0
  0
VERTEX
  5
32F
  8
TEAM-BODY
 10
50.589748
 20
188.872751
 30
0.0
  0
VERTEX
  5
330
  8
TEAM-BODY
 10
50.738293
 20
189.085535
 30
0.0
  0
VERTEX
  5
331
  8
TEAM-BODY
 10
50.898159
 20
189.290796
 30
0.0
  0
VERTEX
  5
332
  8
TEAM-BODY
 10
51.069187
 20
189.488054
 30
0.0
  0
VERTEX
  5
333
  8
TEAM-BODY
 10
51.251186
 20
189.676813
 30
0.0
  0
VERTEX
  5
334
  8
TEAM-BODY
 10
51.443981
 20
189.856569
 30
0.0
  0
VERTEX
  5
335
  8
TEAM-BODY
 10
51.647404
 20
190.026827
 30
0.0
  0
VERTEX
  5
336
  8
TEAM-BODY
 10
51.861271
 20
190.187105
 30
0.0
  0
VERTEX
  5
337
  8
TEAM-BODY
 10
52.085407
 20
190.336901
 30
0.0
  0
VERTEX
  5
338
  8
TEAM-BODY
 10
52.319637
 20
190.475717
 30
0.0
  0
VERTEX
  5
339
  8
TEAM-BODY
 10
52.563786
 20
190.60306
 30
0.0
  0
SEQEND
  5
33A
  8
TEAM-BODY
  0
POLYLINE
  5
134
  8
TEAM-BODY
 66
     1
 10
0.0
 20
0.0
 30
0.0
  0
VERTEX
  5
33B
  8
TEAM-BODY
 10
-52.563782
 20
190.60306
 30
0.0
  0
VERTEX
  5
33C
  8
TEAM-BODY
 10
-52.332012
 20
190.480913
 30
0.0
  0
VERTEX
  5
33D
  8
TEAM-BODY
 10
-52.107567
 20
190.347612
 30
0.0
  0
VERTEX
  5
33E
  8
TEAM-BODY
 10
-51.890839
 20
190.203508
 30
0.0
  0
VERTEX
  5
33F
  8
TEAM-BODY
 10
-51.682219
 20
190.048952
 30
0.0
  0
VERTEX
  5
340
  8
TEAM-BODY
 10
-51.482098
 20
189.884287
 30
0.0
  0
VERTEX
  5
341
  8
TEAM-BODY
 10
-51.290867
 20
189.709879
 30
0.0
  0
VERTEX
  5
342
  8
TEAM-BODY
 10
-51.108917
 20
189.526071
 30
0.0
  0
VERTEX
  5
343
  8
TEAM-BODY
 10
-50.936642
 20
189.333208
 30
0.0
  0
VERTEX
  5
344
  8
TEAM-BODY
 10
-50.774429
 20
189.131647
 30
0.0
  0
VERTEX
  5
345
  8
TEAM-BODY
 10
-50.622673
 20
188.921732
 30
0.0
  0
VERTEX
  5
346
  8
TEAM-BODY
 10
-50.481763
 20
188.703821
 30
0.0
  0
VERTEX
  5
347
  8
TEAM-BODY
 10
-50.352091
 20
188.478258
 30
0.0
  0
VERTEX
  5
348
  8
TEAM-BODY
 10
-50.234048
 20
188.245401
 30
0.0
  0
VERTEX
  5
349
  8
TEAM-BODY
 10
-50.128026
 20
188.005594
 30
0.0
  0
VERTEX
  5
34A
  8
TEAM-BODY
 10
-50.034416
 20
187.759187
 30
0.0
  0
VERTEX
  5
34B
  8
TEAM-BODY
 10
-49.953609
 20
187.506532
 30
0.0
  0
VERTEX
  5
34C
  8
TEAM-BODY
 10
-49.885996
 20
187.247988
 30
0.0
  0
VERTEX
  5
34D
  8
TEAM-BODY
 10
-49.831968
 20
186.983888
 30
0.0
  0
VERTEX
  5
34E
  8
TEAM-BODY
 10
-49.791918
 20
186.714601
 30
0.0
  0
VERTEX
  5
34F
  8
TEAM-BODY
 10
-49.766235
 20
186.440462
 30
0.0
  0
SEQEND
  5
350
  8
TEAM-BODY
  0
LINE
  5
135
  8
TEAM-AXE
 10
0.0
 20
185.0
 30
0.0
 11
0.0
 21
215.0
 31
0.0
  0
CIRCLE
  5
136
  8
TEAM-KAN
 10
0.0
 20
185.0
 30
0.0
 40
20.0
  0
LINE
  5
138
  8
TEAM-AXE
 10
0.0
 20
185.0
 30
0.0
 11
30.0
 21
185.0
 31
0.0
  0
LINE
  5
139
  8
TEAM-AXE
 10
0.0
 20
185.0
 30
0.0
 11
-30.0
 21
185.0
 31
0.0
  0
LINE
  5
13A
  8
TEAM-AXE
 10
0.0
 20
185.0
 30
0.0
 11
0.0
 21
155.0
 31
0.0
  0
CIRCLE
  5
13B
  8
TEAM-WARM
 10
-150.0
 20
100.0
 30
0.0
 40
7.0
  0
LINE
  5
13D
  8
TEAM-AXE
 10
-155.0
 20
100.0
 30
0.0
 11
-166.0
 21
100.0
 31
0.0
  0
LINE
  5
13E
  8
TEAM-AXE
 10
145.0
 20
100.0
 30
0.0
 11
134.0
 21
100.0
 31
0.0
  0
LINE
  5
13F
  8
TEAM-AXE
 10
150.0
 20
105.0
 30
0.0
 11
150.0
 21
116.0
 31
0.0
  0
CIRCLE
  5
140
  8
TEAM-COLD
 10
150.0
 20
100.0
 30
0.0
 40
7.0
  0
LINE
  5
142
  8
TEAM-AXE
 10
150.0
 20
95.0
 30
0.0
 11
150.0
 21
84.0
 31
0.0
  0
LINE
  5
143
  8
TEAM-AXE
 10
155.0
 20
100.0
 30
0.0
 11
166.0
 21
100.0
 31
0.0
  0
LINE
  5
144
  8
TEAM-AXE
 10
-150.0
 20
105.0
 30
0.0
 11
-150.0
 21
116.0
 31
0.0
  0
LINE
  5
145
  8
TEAM-AXE
 10
-150.0
 20
95.0
 30
0.0
 11
-150.0
 21
84.0
 31
0.0
  0
LINE
  5
146
  8
TEAM-AXE
 10
-145.0
 20
100.0
 30
0.0
 11
-134.0
 21
100.0
 31
0.0
  0
POLYLINE
  5
147
  8
TEAM-BODY
 66
     1
 10
0.0
 20
0.0
 30
0.0
  0
VERTEX
  5
351
  8
TEAM-BODY
 10
52.563786
 20
190.60306
 30
0.0
  0
VERTEX
  5
352
  8
TEAM-BODY
 10
63.65118
 20
196.401293
 30
0.0
  0
VERTEX
  5
353
  8
TEAM-BODY
 10
74.269779
 20
202.740541
 30
0.0
  0
VERTEX
  5
354
  8
TEAM-BODY
 10
84.410885
 20
209.596514
 30
0.0
  0
VERTEX
  5
355
  8
TEAM-BODY
 10
94.065769
 20
216.944917
 30
0.0
  0
VERTEX
  5
356
  8
TEAM-BODY
 10
103.225727
 20
224.761461
 30
0.0
  0
VERTEX
  5
357
  8
TEAM-BODY
 10
111.882053
 20
233.021837
 30
0.0
  0
VERTEX
  5
358
  8
TEAM-BODY
 10
120.026005
 20
241.701738
 30
0.0
  0
VERTEX
  5
359
  8
TEAM-BODY
 10
127.648899
 20
250.776903
 30
0.0
  0
VERTEX
  5
35A
  8
TEAM-BODY
 10
134.742008
 20
260.223024
 30
0.0
  0
VERTEX
  5
35B
  8
TEAM-BODY
 10
141.296619
 20
270.015779
 30
0.0
  0
VERTEX
  5
35C
  8
TEAM-BODY
 10
147.30402
 20
280.130907
 30
0.0
  0
VERTEX
  5
35D
  8
TEAM-BODY
 10
152.755497
 20
290.5441
 30
0.0
  0
VERTEX
  5
35E
  8
TEAM-BODY
 10
157.642338
 20
301.231066
 30
0.0
  0
VERTEX
  5
35F
  8
TEAM-BODY
 10
161.955814
 20
312.167497
 30
0.0
  0
VERTEX
  5
360
  8
TEAM-BODY
 10
165.687244
 20
323.329103
 30
0.0
  0
VERTEX
  5
361
  8
TEAM-BODY
 10
168.827885
 20
334.691591
 30
0.0
  0
VERTEX
  5
362
  8
TEAM-BODY
 10
171.369022
 20
346.230684
 30
0.0
  0
VERTEX
  5
363
  8
TEAM-BODY
 10
173.301975
 20
357.922029
 30
0.0
  0
VERTEX
  5
364
  8
TEAM-BODY
 10
174.618
 20
369.741396
 30
0.0
  0
VERTEX
  5
365
  8
TEAM-BODY
 10
175.308384
 20
381.664461
 30
0.0
  0
SEQEND
  5
366
  8
TEAM-BODY
  0
POLYLINE
  5
148
  8
TEAM-BODY
 66
     1
 10
0.0
 20
0.0
 30
0.0
  0
VERTEX
  5
367
  8
TEAM-BODY
 10
-175.308376
 20
381.664461
 30
0.0
  0
VERTEX
  5
368
  8
TEAM-BODY
 10
-174.643963
 20
369.170137
 30
0.0
  0
VERTEX
  5
369
  8
TEAM-BODY
 10
-173.292614
 20
356.87726
 30
0.0
  0
VERTEX
  5
36A
  8
TEAM-BODY
 10
-171.272808
 20
344.803865
 30
0.0
  0
VERTEX
  5
36B
  8
TEAM-BODY
 10
-168.603024
 20
332.967974
 30
0.0
  0
VERTEX
  5
36C
  8
TEAM-BODY
 10
-165.301739
 20
321.387621
 30
0.0
  0
VERTEX
  5
36D
  8
TEAM-BODY
 10
-161.387409
 20
310.080812
 30
0.0
  0
VERTEX
  5
36E
  8
TEAM-BODY
 10
-156.878521
 20
299.065599
 30
0.0
  0
VERTEX
  5
36F
  8
TEAM-BODY
 10
-151.793545
 20
288.359972
 30
0.0
  0
VERTEX
  5
370
  8
TEAM-BODY
 10
-146.150959
 20
277.981996
 30
0.0
  0
VERTEX
  5
371
  8
TEAM-BODY
 10
-139.969242
 20
267.949678
 30
0.0
  0
VERTEX
  5
372
  8
TEAM-BODY
 10
-133.266857
 20
258.281023
 30
0.0
  0
VERTEX
  5
373
  8
TEAM-BODY
 10
-126.062283
 20
248.994097
 30
0.0
  0
VERTEX
  5
374
  8
TEAM-BODY
 10
-118.373997
 20
240.10689
 30
0.0
  0
VERTEX
  5
375
  8
TEAM-BODY
 10
-110.220463
 20
231.637438
 30
0.0
  0
VERTEX
  5
376
  8
TEAM-BODY
 10
-101.620167
 20
223.603777
 30
0.0
  0
VERTEX
  5
377
  8
TEAM-BODY
 10
-92.591579
 20
216.023912
 30
0.0
  0
VERTEX
  5
378
  8
TEAM-BODY
 10
-83.153172
 20
208.915888
 30
0.0
  0
VERTEX
  5
379
  8
TEAM-BODY
 10
-73.323422
 20
202.297724
 30
0.0
  0
VERTEX
  5
37A
  8
TEAM-BODY
 10
-63.1208
 20
196.187433
 30
0.0
  0
VERTEX
  5
37B
  8
TEAM-BODY
 10
-52.563782
 20
190.60306
 30
0.0
  0
SEQEND
  5
37C
  8
TEAM-BODY
  0
CIRCLE
  5
149
  8
TEAM-INSP
 10
0.0
 20
0.0
 30
0.0
 40
10.0
  0
ENDSEC
  0
EOF
