  0
SECTION
  2
HEADER
  9
$ACADVER
  1
AC1009
  9
$INSBASE
 10
0.0
 20
0.0
 30
0.0
  9
$EXTMIN
 10
-201.594125
 20
-654.09595
 30
0.0
  9
$EXTMAX
 10
262.624958
 20
10.040486
 30
0.0
  9
$LIMMIN
 10
-201.594125
 20
-654.09595
  9
$LIMMAX
 10
262.624958
 20
10.040486
  9
$ORTHOMODE
 70
     1
  9
$REGENMODE
 70
     1
  9
$FILLMODE
 70
     1
  9
$QTEXTMODE
 70
     0
  9
$MIRRTEXT
 70
     0
  9
$DRAGMODE
 70
     2
  9
$LTSCALE
 40
25.0
  9
$OSMODE
 70
     0
  9
$ATTMODE
 70
     1
  9
$TEXTSIZE
 40
200.0
  9
$TRACEWID
 40
1.0
  9
$TEXTSTYLE
  7
STANDARD
  9
$CLAYER
  8
TEAM-MAS
  9
$CELTYPE
  6
BYLAYER
  9
$CECOLOR
 62
   256
  9
$DIMSCALE
 40
0.0
  9
$DIMASZ
 40
20.0
  9
$DIMEXO
 40
10.0
  9
$DIMDLI
 40
1.0
  9
$DIMRND
 40
0.0
  9
$DIMDLE
 40
0.0
  9
$DIMEXE
 40
1.0
  9
$DIMTP
 40
0.0
  9
$DIMTM
 40
0.0
  9
$DIMTXT
 40
35.0
  9
$DIMCEN
 40
1.0
  9
$DIMTSZ
 40
0.0
  9
$DIMTOL
 70
     0
  9
$DIMLIM
 70
     0
  9
$DIMTIH
 70
     0
  9
$DIMTOH
 70
     0
  9
$DIMSE1
 70
     0
  9
$DIMSE2
 70
     0
  9
$DIMTAD
 70
     0
  9
$DIMZIN
 70
     0
  9
$DIMBLK
  1

  9
$DIMASO
 70
     1
  9
$DIMSHO
 70
     0
  9
$DIMPOST
  1

  9
$DIMAPOST
  1

  9
$DIMALT
 70
     0
  9
$DIMALTD
 70
     2
  9
$DIMALTF
 40
25.4
  9
$DIMLFAC
 40
1.0
  9
$DIMTOFL
 70
     0
  9
$DIMTVP
 40
0.0
  9
$DIMTIX
 70
     0
  9
$DIMSOXD
 70
     0
  9
$DIMSAH
 70
     0
  9
$DIMBLK1
  1

  9
$DIMBLK2
  1

  9
$DIMSTYLE
  2
TEAM
  9
$DIMCLRD
 70
     9
  9
$DIMCLRE
 70
     9
  9
$DIMCLRT
 70
    11
  9
$DIMTFAC
 40
1.0
  9
$DIMGAP
 40
15.0
  9
$LUNITS
 70
     2
  9
$LUPREC
 70
     1
  9
$SKETCHINC
 40
1.0
  9
$FILLETRAD
 40
50.0
  9
$AUNITS
 70
     0
  9
$AUPREC
 70
     0
  9
$MENU
  1
ROPLANS
  9
$ELEVATION
 40
0.0
  9
$PELEVATION
 40
0.0
  9
$THICKNESS
 40
0.0
  9
$LIMCHECK
 70
     0
  9
$BLIPMODE
 70
     1
  9
$CHAMFERA
 40
0.0
  9
$CHAMFERB
 40
0.0
  9
$SKPOLY
 70
     0
  9
$TDCREATE
 40
2450392.957851
  9
$TDUPDATE
 40
2455505.390806
  9
$TDINDWG
 40
2.108696
  9
$TDUSRTIMER
 40
2.108696
  9
$USRTIMER
 70
     1
  9
$ANGBASE
 50
0.0
  9
$ANGDIR
 70
     0
  9
$PDMODE
 70
     0
  9
$PDSIZE
 40
0.0
  9
$PLINEWID
 40
0.0
  9
$COORDS
 70
     2
  9
$SPLFRAME
 70
     0
  9
$SPLINETYPE
 70
     6
  9
$SPLINESEGS
 70
     8
  9
$ATTDIA
 70
     0
  9
$ATTREQ
 70
     0
  9
$HANDLING
 70
     1
  9
$HANDSEED
  5
6CB
  9
$SURFTAB1
 70
    24
  9
$SURFTAB2
 70
    24
  9
$SURFTYPE
 70
     6
  9
$SURFU
 70
     6
  9
$SURFV
 70
     6
  9
$UCSNAME
  2

  9
$UCSORG
 10
0.0
 20
0.0
 30
0.0
  9
$UCSXDIR
 10
1.0
 20
0.0
 30
0.0
  9
$UCSYDIR
 10
0.0
 20
1.0
 30
0.0
  9
$PUCSNAME
  2

  9
$PUCSORG
 10
0.0
 20
0.0
 30
0.0
  9
$PUCSXDIR
 10
1.0
 20
0.0
 30
0.0
  9
$PUCSYDIR
 10
0.0
 20
1.0
 30
0.0
  9
$USERI1
 70
     0
  9
$USERI2
 70
     0
  9
$USERI3
 70
     0
  9
$USERI4
 70
     0
  9
$USERI5
 70
     0
  9
$USERR1
 40
0.0
  9
$USERR2
 40
0.0
  9
$USERR3
 40
0.0
  9
$USERR4
 40
0.0
  9
$USERR5
 40
0.0
  9
$WORLDVIEW
 70
     1
  9
$SHADEDGE
 70
     0
  9
$SHADEDIF
 70
    70
  9
$TILEMODE
 70
     1
  9
$MAXACTVP
 70
    16
  9
$PLIMCHECK
 70
     0
  9
$PEXTMIN
 10
-0.805942
 20
0.005011
 30
0.0
  9
$PEXTMAX
 10
20.250094
 20
11.356329
 30
0.0
  9
$PLIMMIN
 10
0.0
 20
0.0
  9
$PLIMMAX
 10
12.0
 20
9.0
  9
$UNITMODE
 70
     0
  9
$VISRETAIN
 70
     0
  9
$PLINEGEN
 70
     0
  9
$PSLTSCALE
 70
     0
  0
ENDSEC
  0
SECTION
  2
TABLES
  0
TABLE
  2
VPORT
 70
     2
  0
VPORT
  2
*ACTIVE
 70
     0
 10
0.0
 20
0.0
 11
1.0
 21
1.0
 12
30.515417
 22
-322.027732
 13
0.0
 23
0.0
 14
1.0
 24
1.0
 15
50.0
 25
50.0
 16
0.0
 26
0.0
 36
1.0
 17
0.0
 27
0.0
 37
0.0
 40
668.215063
 41
1.865779
 42
50.0
 43
0.0
 44
0.0
 50
0.0
 51
0.0
 71
     0
 72
   100
 73
     1
 74
     1
 75
     0
 76
     0
 77
     0
 78
     0
  0
ENDTAB
  0
TABLE
  2
LTYPE
 70
     2
  0
LTYPE
  2
CONTINUOUS
 70
     0
  3
Solid Line
 72
    65
 73
     0
 40
0.0
  0
LTYPE
  2
31
 70
     0
  3

 72
    65
 73
     4
 40
2.1
 49
1.5
 49
-0.3
 49
0.0
 49
-0.3
  0
ENDTAB
  0
TABLE
  2
LAYER
 70
     8
  0
LAYER
  2
0
 70
     0
 62
     7
  6
CONTINUOUS
  0
LAYER
  2
DEFPOINTS
 70
     0
 62
     7
  6
CONTINUOUS
  0
LAYER
  2
TEAM-BODY
 70
     0
 62
     2
  6
CONTINUOUS
  0
LAYER
  2
TEAM-AXE
 70
     0
 62
    10
  6
31
  0
LAYER
  2
TEAM-MAS
 70
     0
 62
     9
  6
CONTINUOUS
  0
LAYER
  2
TEAM-TXT
 70
     0
 62
    11
  6
CONTINUOUS
  0
LAYER
  2
TEAM-DET1
 70
     0
 62
     4
  6
CONTINUOUS
  0
LAYER
  2
TEAM-INSP
 70
     0
 62
     5
  6
CONTINUOUS
  0
ENDTAB
  0
TABLE
  2
STYLE
 70
     2
  0
STYLE
  2
STANDARD
 70
     0
 40
0.0
 41
1.0
 50
0.0
 71
     0
 42
200.0
  3
txt
  4

  0
STYLE
  2
TEAM
 70
     0
 40
0.0
 41
0.8
 50
15.0
 71
     0
 42
7.0
  3
ROMANS.shx
  4

  0
ENDTAB
  0
TABLE
  2
VIEW
 70
     0
  0
ENDTAB
  0
TABLE
  2
UCS
 70
     0
  0
ENDTAB
  0
TABLE
  2
APPID
 70
     1
  0
APPID
  2
ACAD
 70
     0
  0
ENDTAB
  0
TABLE
  2
DIMSTYLE
 70
     1
  0
DIMSTYLE
  2
TEAM
 70
     0
  3

  4

  5

  6

  7

 40
0.0
 41
20.0
 42
10.0
 43
1.0
 44
1.0
 45
0.0
 46
0.0
 47
0.0
 48
0.0
140
35.0
141
1.0
142
0.0
143
25.4
144
1.0
145
0.0
146
1.0
147
15.0
 71
     0
 72
     0
 73
     0
 74
     0
 75
     0
 76
     0
 77
     0
 78
     0
170
     0
171
     2
172
     0
173
     0
174
     0
175
     0
176
     9
177
     9
178
    11
  0
ENDTAB
  0
ENDSEC
  0
SECTION
  2
BLOCKS
  0
BLOCK
  8
0
  2
$MODEL_SPACE
 70
     0
 10
0.0
 20
0.0
 30
0.0
  3
$MODEL_SPACE
  1

  0
ENDBLK
  5
597
  8
0
  0
BLOCK
 67
     1
  8
0
  2
$PAPER_SPACE
 70
     0
 10
0.0
 20
0.0
 30
0.0
  3
$PAPER_SPACE
  1

  0
ENDBLK
  5
595
 67
     1
  8
0
  0
BLOCK
  8
0
  2
*D0
 70
     1
 10
0.0
 20
0.0
 30
0.0
  3
*D0
  1

  0
LINE
  5
31
  8
0
  6
BYBLOCK
 62
     9
 10
4189.643554
 20
260000.0
 30
0.0
 11
4246.417157
 21
260000.0
 31
0.0
  0
LINE
  5
32
  8
0
  6
BYBLOCK
 62
     9
 10
4010.0
 20
259414.997726
 30
0.0
 11
4246.417157
 21
259414.997726
 31
0.0
  0
LINE
  5
33
  8
0
  6
BYBLOCK
 62
     9
 10
4245.417157
 20
259980.0
 30
0.0
 11
4245.417157
 21
259754.723737
 31
0.0
  0
LINE
  5
34
  8
0
  6
BYBLOCK
 62
     9
 10
4245.417157
 20
259434.997726
 30
0.0
 11
4245.417157
 21
259660.273989
 31
0.0
  0
SOLID
  5
35
  8
0
  6
BYBLOCK
 62
     9
 10
4242.083823
 20
259980.0
 30
0.0
 11
4248.75049
 21
259980.0
 31
0.0
 12
4245.417157
 22
260000.0
 32
0.0
 13
4245.417157
 23
260000.0
 33
0.0
  0
SOLID
  5
36
  8
0
  6
BYBLOCK
 62
     9
 10
4242.083823
 20
259434.997726
 30
0.0
 11
4248.75049
 21
259434.997726
 31
0.0
 12
4245.417157
 22
259414.997726
 32
0.0
 13
4245.417157
 23
259414.997726
 33
0.0
  0
TEXT
  5
37
  8
0
  6
BYBLOCK
 62
    11
 10
4262.917157
 20
259670.023989
 30
0.0
 40
35.0
  1
585
 50
90.0
  0
POINT
  5
38
  8
DEFPOINTS
  6
BYBLOCK
 62
     0
 10
4179.643554
 20
260000.0
 30
0.0
  0
POINT
  5
39
  8
DEFPOINTS
  6
BYBLOCK
 62
     0
 10
4000.0
 20
259414.997726
 30
0.0
  0
POINT
  5
3A
  8
DEFPOINTS
  6
BYBLOCK
 62
     0
 10
4245.417157
 20
259414.997726
 30
0.0
  0
ENDBLK
  5
3C
  8
0
  0
BLOCK
  8
0
  2
*D1
 70
     1
 10
0.0
 20
0.0
 30
0.0
  3
*D1
  1

  0
LINE
  5
22
  8
0
  6
BYBLOCK
 62
     9
 10
4195.001604
 20
259694.109703
 30
0.0
 11
4195.001604
 21
259362.36209
 31
0.0
  0
LINE
  5
23
  8
0
  6
BYBLOCK
 62
     9
 10
3804.998396
 20
259694.109703
 30
0.0
 11
3804.998396
 21
259362.36209
 31
0.0
  0
LINE
  5
24
  8
0
  6
BYBLOCK
 62
     9
 10
4175.001604
 20
259363.36209
 30
0.0
 11
4046.57493
 21
259363.36209
 31
0.0
  0
LINE
  5
25
  8
0
  6
BYBLOCK
 62
     9
 10
3824.998396
 20
259363.36209
 30
0.0
 11
3953.42507
 21
259363.36209
 31
0.0
  0
SOLID
  5
26
  8
0
  6
BYBLOCK
 62
     9
 10
4175.001604
 20
259366.695423
 30
0.0
 11
4175.001604
 21
259360.028756
 31
0.0
 12
4195.001604
 22
259363.36209
 32
0.0
 13
4195.001604
 23
259363.36209
 33
0.0
  0
SOLID
  5
27
  8
0
  6
BYBLOCK
 62
     9
 10
3824.998396
 20
259366.695423
 30
0.0
 11
3824.998396
 21
259360.028756
 31
0.0
 12
3804.998396
 22
259363.36209
 32
0.0
 13
3804.998396
 23
259363.36209
 33
0.0
  0
TEXT
  5
28
  8
0
  6
BYBLOCK
 62
    11
 10
3963.17507
 20
259345.86209
 30
0.0
 40
35.0
  1
390
  0
POINT
  5
29
  8
DEFPOINTS
  6
BYBLOCK
 62
     0
 10
4195.001604
 20
259704.109703
 30
0.0
  0
POINT
  5
2B
  8
DEFPOINTS
  6
BYBLOCK
 62
     0
 10
3804.998396
 20
259704.109703
 30
0.0
  0
POINT
  5
2C
  8
DEFPOINTS
  6
BYBLOCK
 62
     0
 10
3804.998396
 20
259363.36209
 30
0.0
  0
ENDBLK
  5
2E
  8
0
  0
ENDSEC
  0
SECTION
  2
ENTITIES
  0
DIMENSION
  5
20
  8
TEAM-MAS
  2
*D1
 10
-195.001604
 20
-636.63791
 30
0.0
 11
0.0
 21
-636.63791
 31
0.0
 12
-4000.0
 22
-260000.0
 32
0.0
 13
195.001604
 23
-295.890297
 33
0.0
 14
-195.001604
 24
-295.890297
 34
0.0
1001
ACAD
1000
DSTYLE
1002
{
1070
    40
1040
1.0
1002
}
  0
DIMENSION
  5
2F
  8
TEAM-MAS
  2
*D0
 10
245.417157
 20
-585.002274
 30
0.0
 11
245.417157
 21
-292.501137
 31
0.0
 12
-4000.0
 22
-260000.0
 32
0.0
 13
179.643554
 23
0.0
 33
0.0
 14
0.0
 24
-585.002274
 34
0.0
 50
90.0
1001
ACAD
1000
DSTYLE
1002
{
1070
    40
1040
1.0
1002
}
  0
POLYLINE
  5
3D
  8
TEAM-BODY
 66
     1
 10
0.0
 20
0.0
 30
0.0
 70
   129
  0
VERTEX
  5
59D
  8
TEAM-BODY
 10
0.0
 20
-20.517255
 30
0.0
  0
VERTEX
  5
59E
  8
TEAM-BODY
 10
-20.039938
 20
-22.013054
 30
0.0
  0
VERTEX
  5
59F
  8
TEAM-BODY
 10
-39.867447
 20
-26.484595
 30
0.0
  0
VERTEX
  5
5A0
  8
TEAM-BODY
 10
-59.272352
 20
-33.884479
 30
0.0
  0
VERTEX
  5
5A1
  8
TEAM-BODY
 10
-78.048955
 20
-44.134265
 30
0.0
  0
VERTEX
  5
5A2
  8
TEAM-BODY
 10
-95.998219
 20
-57.125303
 30
0.0
  0
VERTEX
  5
5A3
  8
TEAM-BODY
 10
-112.929879
 20
-72.719885
 30
0.0
  0
VERTEX
  5
5A4
  8
TEAM-BODY
 10
-128.664454
 20
-90.752704
 30
0.0
  0
VERTEX
  5
5A5
  8
TEAM-BODY
 10
-143.035153
 20
-111.032607
 30
0.0
  0
VERTEX
  5
5A6
  8
TEAM-BODY
 10
-155.889645
 20
-133.764624
 30
0.0
  0
VERTEX
  5
5A7
  8
TEAM-BODY
 10
-167.091667
 20
-157.87224
 30
0.0
  0
VERTEX
  5
5A8
  8
TEAM-BODY
 10
-176.522476
 20
-183.51991
 30
0.0
  0
VERTEX
  5
5A9
  8
TEAM-BODY
 10
-184.082103
 20
-210.435761
 30
0.0
  0
VERTEX
  5
5AA
  8
TEAM-BODY
 10
-189.855414
 20
-238.334478
 30
0.0
  0
VERTEX
  5
5AB
  8
TEAM-BODY
 10
-193.452959
 20
-266.920329
 30
0.0
  0
VERTEX
  5
5AC
  8
TEAM-BODY
 10
-195.001604
 20
-295.890297
 30
0.0
  0
VERTEX
  5
5AD
  8
TEAM-BODY
 10
-194.484932
 20
-324.937292
 30
0.0
  0
VERTEX
  5
5AE
  8
TEAM-BODY
 10
-191.908421
 20
-353.753409
 30
0.0
  0
VERTEX
  5
5AF
  8
TEAM-BODY
 10
-187.299382
 20
-382.033189
 30
0.0
  0
VERTEX
  5
5B0
  8
TEAM-BODY
 10
-180.706672
 20
-409.476862
 30
0.0
  0
VERTEX
  5
5B1
  8
TEAM-BODY
 10
-172.200175
 20
-435.793515
 30
0.0
  0
VERTEX
  5
5B2
  8
TEAM-BODY
 10
-161.705062
 20
-460.704188
 30
0.0
  0
VERTEX
  5
5B3
  8
TEAM-BODY
 10
-149.660836
 20
-483.944819
 30
0.0
  0
VERTEX
  5
5B4
  8
TEAM-BODY
 10
-136.030167
 20
-505.269053
 30
0.0
  0
VERTEX
  5
5B5
  8
TEAM-BODY
 10
-120.957545
 20
-524.450848
 30
0.0
  0
VERTEX
  5
5B6
  8
TEAM-BODY
 10
-104.602743
 20
-541.286871
 30
0.0
  0
VERTEX
  5
5B7
  8
TEAM-BODY
 10
-87.139126
 20
-555.598657
 30
0.0
  0
VERTEX
  5
5B8
  8
TEAM-BODY
 10
-68.751812
 20
-567.234497
 30
0.0
  0
VERTEX
  5
5B9
  8
TEAM-BODY
 10
-49.635712
 20
-576.071049
 30
0.0
  0
VERTEX
  5
5BA
  8
TEAM-BODY
 10
-29.993461
 20
-582.014642
 30
0.0
  0
VERTEX
  5
5BB
  8
TEAM-BODY
 10
-10.033272
 20
-585.002274
 30
0.0
  0
VERTEX
  5
5BC
  8
TEAM-BODY
 10
10.033272
 20
-585.002274
 30
0.0
  0
VERTEX
  5
5BD
  8
TEAM-BODY
 10
29.993461
 20
-582.014642
 30
0.0
  0
VERTEX
  5
5BE
  8
TEAM-BODY
 10
49.635712
 20
-576.071049
 30
0.0
  0
VERTEX
  5
5BF
  8
TEAM-BODY
 10
68.751812
 20
-567.234497
 30
0.0
  0
VERTEX
  5
5C0
  8
TEAM-BODY
 10
87.139126
 20
-555.598657
 30
0.0
  0
VERTEX
  5
5C1
  8
TEAM-BODY
 10
104.602743
 20
-541.286871
 30
0.0
  0
VERTEX
  5
5C2
  8
TEAM-BODY
 10
120.957545
 20
-524.450848
 30
0.0
  0
VERTEX
  5
5C3
  8
TEAM-BODY
 10
136.030167
 20
-505.269053
 30
0.0
  0
VERTEX
  5
5C4
  8
TEAM-BODY
 10
149.660836
 20
-483.944819
 30
0.0
  0
VERTEX
  5
5C5
  8
TEAM-BODY
 10
161.705062
 20
-460.704188
 30
0.0
  0
VERTEX
  5
5C6
  8
TEAM-BODY
 10
172.200175
 20
-435.793515
 30
0.0
  0
VERTEX
  5
5C7
  8
TEAM-BODY
 10
180.706672
 20
-409.476862
 30
0.0
  0
VERTEX
  5
5C8
  8
TEAM-BODY
 10
187.299382
 20
-382.033189
 30
0.0
  0
VERTEX
  5
5C9
  8
TEAM-BODY
 10
191.908421
 20
-353.753409
 30
0.0
  0
VERTEX
  5
5CA
  8
TEAM-BODY
 10
194.484932
 20
-324.937292
 30
0.0
  0
VERTEX
  5
5CB
  8
TEAM-BODY
 10
195.001604
 20
-295.890297
 30
0.0
  0
VERTEX
  5
5CC
  8
TEAM-BODY
 10
193.452959
 20
-266.920329
 30
0.0
  0
VERTEX
  5
5CD
  8
TEAM-BODY
 10
189.855414
 20
-238.334478
 30
0.0
  0
VERTEX
  5
5CE
  8
TEAM-BODY
 10
184.247103
 20
-210.435761
 30
0.0
  0
VERTEX
  5
5CF
  8
TEAM-BODY
 10
176.687476
 20
-183.51991
 30
0.0
  0
VERTEX
  5
5D0
  8
TEAM-BODY
 10
167.091667
 20
-157.87224
 30
0.0
  0
VERTEX
  5
5D1
  8
TEAM-BODY
 10
155.889645
 20
-133.764624
 30
0.0
  0
VERTEX
  5
5D2
  8
TEAM-BODY
 10
143.035153
 20
-111.032607
 30
0.0
  0
VERTEX
  5
5D3
  8
TEAM-BODY
 10
128.664454
 20
-90.752704
 30
0.0
  0
VERTEX
  5
5D4
  8
TEAM-BODY
 10
112.929879
 20
-72.719885
 30
0.0
  0
VERTEX
  5
5D5
  8
TEAM-BODY
 10
95.998219
 20
-57.125303
 30
0.0
  0
VERTEX
  5
5D6
  8
TEAM-BODY
 10
78.048955
 20
-44.134265
 30
0.0
  0
VERTEX
  5
5D7
  8
TEAM-BODY
 10
59.272352
 20
-33.884479
 30
0.0
  0
VERTEX
  5
5D8
  8
TEAM-BODY
 10
39.867447
 20
-26.484595
 30
0.0
  0
VERTEX
  5
5D9
  8
TEAM-BODY
 10
20.039938
 20
-22.013054
 30
0.0
  0
SEQEND
  5
5DA
  8
TEAM-BODY
  0
ARC
  5
3F
  8
TEAM-BODY
 10
-1578.211159
 20
-242.098372
 30
0.0
 40
1774.328268
 50
358.027938
 51
7.84219
  0
ARC
  5
40
  8
TEAM-BODY
 10
1578.211159
 20
-242.098372
 30
0.0
 40
1774.328268
 50
172.15781
 51
181.972062
  0
POLYLINE
  5
41
  8
TEAM-BODY
 66
     1
 10
0.0
 20
0.0
 30
0.0
 70
   129
  0
VERTEX
  5
5DB
  8
TEAM-BODY
 10
0.0
 20
-137.413782
 30
0.0
  0
VERTEX
  5
5DC
  8
TEAM-BODY
 10
-16.906734
 20
-138.908407
 30
0.0
  0
VERTEX
  5
5DD
  8
TEAM-BODY
 10
-33.56693
 20
-143.370487
 30
0.0
  0
VERTEX
  5
5DE
  8
TEAM-BODY
 10
-49.737644
 20
-150.734955
 30
0.0
  0
VERTEX
  5
5DF
  8
TEAM-BODY
 10
-65.183072
 20
-160.894421
 30
0.0
  0
VERTEX
  5
5E0
  8
TEAM-BODY
 10
-79.677983
 20
-173.700736
 30
0.0
  0
VERTEX
  5
5E1
  8
TEAM-BODY
 10
-93.01101
 20
-188.967155
 30
0.0
  0
VERTEX
  5
5E2
  8
TEAM-BODY
 10
-104.987728
 20
-206.47106
 30
0.0
  0
VERTEX
  5
5E3
  8
TEAM-BODY
 10
-115.433487
 20
-225.957205
 30
0.0
  0
VERTEX
  5
5E4
  8
TEAM-BODY
 10
-124.195967
 20
-247.141438
 30
0.0
  0
VERTEX
  5
5E5
  8
TEAM-BODY
 10
-131.147389
 20
-269.714844
 30
0.0
  0
VERTEX
  5
5E6
  8
TEAM-BODY
 10
-136.186388
 20
-293.348253
 30
0.0
  0
VERTEX
  5
5E7
  8
TEAM-BODY
 10
-139.239482
 20
-317.697036
 30
0.0
  0
VERTEX
  5
5E8
  8
TEAM-BODY
 10
-140.262151
 20
-342.406133
 30
0.0
  0
VERTEX
  5
5E9
  8
TEAM-BODY
 10
-139.239482
 20
-367.115231
 30
0.0
  0
VERTEX
  5
5EA
  8
TEAM-BODY
 10
-136.186388
 20
-391.464014
 30
0.0
  0
VERTEX
  5
5EB
  8
TEAM-BODY
 10
-131.147389
 20
-415.097423
 30
0.0
  0
VERTEX
  5
5EC
  8
TEAM-BODY
 10
-124.195967
 20
-437.670829
 30
0.0
  0
VERTEX
  5
5ED
  8
TEAM-BODY
 10
-115.433487
 20
-458.855061
 30
0.0
  0
VERTEX
  5
5EE
  8
TEAM-BODY
 10
-104.987728
 20
-478.341206
 30
0.0
  0
VERTEX
  5
5EF
  8
TEAM-BODY
 10
-93.01101
 20
-495.845111
 30
0.0
  0
VERTEX
  5
5F0
  8
TEAM-BODY
 10
-79.677983
 20
-511.111531
 30
0.0
  0
VERTEX
  5
5F1
  8
TEAM-BODY
 10
-65.183072
 20
-523.917846
 30
0.0
  0
VERTEX
  5
5F2
  8
TEAM-BODY
 10
-49.737644
 20
-534.077311
 30
0.0
  0
VERTEX
  5
5F3
  8
TEAM-BODY
 10
-33.56693
 20
-541.441779
 30
0.0
  0
VERTEX
  5
5F4
  8
TEAM-BODY
 10
-16.906734
 20
-545.903859
 30
0.0
  0
VERTEX
  5
5F5
  8
TEAM-BODY
 10
0.0
 20
-547.398484
 30
0.0
  0
VERTEX
  5
5F6
  8
TEAM-BODY
 10
16.906734
 20
-545.903859
 30
0.0
  0
VERTEX
  5
5F7
  8
TEAM-BODY
 10
33.56693
 20
-541.441779
 30
0.0
  0
VERTEX
  5
5F8
  8
TEAM-BODY
 10
49.737644
 20
-534.077311
 30
0.0
  0
VERTEX
  5
5F9
  8
TEAM-BODY
 10
65.183072
 20
-523.917846
 30
0.0
  0
VERTEX
  5
5FA
  8
TEAM-BODY
 10
79.677983
 20
-511.111531
 30
0.0
  0
VERTEX
  5
5FB
  8
TEAM-BODY
 10
93.01101
 20
-495.845111
 30
0.0
  0
VERTEX
  5
5FC
  8
TEAM-BODY
 10
104.987728
 20
-478.341206
 30
0.0
  0
VERTEX
  5
5FD
  8
TEAM-BODY
 10
115.433487
 20
-458.855061
 30
0.0
  0
VERTEX
  5
5FE
  8
TEAM-BODY
 10
124.195967
 20
-437.670829
 30
0.0
  0
VERTEX
  5
5FF
  8
TEAM-BODY
 10
131.147389
 20
-415.097423
 30
0.0
  0
VERTEX
  5
600
  8
TEAM-BODY
 10
136.186388
 20
-391.464014
 30
0.0
  0
VERTEX
  5
601
  8
TEAM-BODY
 10
139.239482
 20
-367.115231
 30
0.0
  0
VERTEX
  5
602
  8
TEAM-BODY
 10
140.262151
 20
-342.406133
 30
0.0
  0
VERTEX
  5
603
  8
TEAM-BODY
 10
139.239482
 20
-317.697036
 30
0.0
  0
VERTEX
  5
604
  8
TEAM-BODY
 10
136.186388
 20
-293.348253
 30
0.0
  0
VERTEX
  5
605
  8
TEAM-BODY
 10
131.147389
 20
-269.714844
 30
0.0
  0
VERTEX
  5
606
  8
TEAM-BODY
 10
124.195967
 20
-247.141438
 30
0.0
  0
VERTEX
  5
607
  8
TEAM-BODY
 10
115.433487
 20
-225.957205
 30
0.0
  0
VERTEX
  5
608
  8
TEAM-BODY
 10
104.987728
 20
-206.47106
 30
0.0
  0
VERTEX
  5
609
  8
TEAM-BODY
 10
93.01101
 20
-188.967155
 30
0.0
  0
VERTEX
  5
60A
  8
TEAM-BODY
 10
79.677983
 20
-173.700736
 30
0.0
  0
VERTEX
  5
60B
  8
TEAM-BODY
 10
65.183072
 20
-160.894421
 30
0.0
  0
VERTEX
  5
60C
  8
TEAM-BODY
 10
49.737644
 20
-150.734955
 30
0.0
  0
VERTEX
  5
60D
  8
TEAM-BODY
 10
33.56693
 20
-143.370487
 30
0.0
  0
VERTEX
  5
60E
  8
TEAM-BODY
 10
16.906734
 20
-138.908407
 30
0.0
  0
SEQEND
  5
60F
  8
TEAM-BODY
  0
POLYLINE
  5
42
  8
TEAM-BODY
 66
     1
 10
0.0
 20
0.0
 30
0.0
 70
     1
  0
VERTEX
  5
610
  8
TEAM-BODY
 10
22.999877
 20
-232.02
 30
0.0
  0
VERTEX
  5
611
  8
TEAM-BODY
 10
22.912475
 20
-230.014415
 30
0.0
  0
VERTEX
  5
612
  8
TEAM-BODY
 10
22.650268
 20
-228.027217
 30
0.0
  0
VERTEX
  5
613
  8
TEAM-BODY
 10
22.215576
 20
-226.067638
 30
0.0
  0
VERTEX
  5
614
  8
TEAM-BODY
 10
21.612976
 20
-224.154048
 30
0.0
  0
VERTEX
  5
615
  8
TEAM-BODY
 10
20.844787
 20
-222.300258
 30
0.0
  0
VERTEX
  5
616
  8
TEAM-BODY
 10
19.917907
 20
-220.520061
 30
0.0
  0
VERTEX
  5
617
  8
TEAM-BODY
 10
18.841491
 20
-218.827266
 30
0.0
  0
VERTEX
  5
618
  8
TEAM-BODY
 10
17.617919
 20
-217.235683
 30
0.0
  0
VERTEX
  5
619
  8
TEAM-BODY
 10
16.263214
 20
-215.756786
 30
0.0
  0
VERTEX
  5
61A
  8
TEAM-BODY
 10
14.784332
 20
-214.402095
 30
0.0
  0
VERTEX
  5
61B
  8
TEAM-BODY
 10
13.192718
 20
-213.178493
 30
0.0
  0
VERTEX
  5
61C
  8
TEAM-BODY
 10
11.499938
 20
-212.102107
 30
0.0
  0
VERTEX
  5
61D
  8
TEAM-BODY
 10
9.719757
 20
-211.175212
 30
0.0
  0
VERTEX
  5
61E
  8
TEAM-BODY
 10
7.865966
 20
-210.407009
 30
0.0
  0
VERTEX
  5
61F
  8
TEAM-BODY
 10
5.952362
 20
-209.804424
 30
0.0
  0
VERTEX
  5
620
  8
TEAM-BODY
 10
3.992767
 20
-209.369716
 30
0.0
  0
VERTEX
  5
621
  8
TEAM-BODY
 10
2.005584
 20
-209.107524
 30
0.0
  0
VERTEX
  5
622
  8
TEAM-BODY
 10
0.0
 20
-209.020122
 30
0.0
  0
VERTEX
  5
623
  8
TEAM-BODY
 10
-2.005585
 20
-209.107524
 30
0.0
  0
VERTEX
  5
624
  8
TEAM-BODY
 10
-3.992768
 20
-209.369716
 30
0.0
  0
VERTEX
  5
625
  8
TEAM-BODY
 10
-5.952363
 20
-209.804424
 30
0.0
  0
VERTEX
  5
626
  8
TEAM-BODY
 10
-7.865967
 20
-210.407009
 30
0.0
  0
VERTEX
  5
627
  8
TEAM-BODY
 10
-9.719758
 20
-211.175212
 30
0.0
  0
VERTEX
  5
628
  8
TEAM-BODY
 10
-11.499939
 20
-212.102107
 30
0.0
  0
VERTEX
  5
629
  8
TEAM-BODY
 10
-13.192719
 20
-213.178493
 30
0.0
  0
VERTEX
  5
62A
  8
TEAM-BODY
 10
-14.784333
 20
-214.402095
 30
0.0
  0
VERTEX
  5
62B
  8
TEAM-BODY
 10
-16.263215
 20
-215.756786
 30
0.0
  0
VERTEX
  5
62C
  8
TEAM-BODY
 10
-17.61792
 20
-217.235683
 30
0.0
  0
VERTEX
  5
62D
  8
TEAM-BODY
 10
-18.841492
 20
-218.827266
 30
0.0
  0
VERTEX
  5
62E
  8
TEAM-BODY
 10
-19.917908
 20
-220.520061
 30
0.0
  0
VERTEX
  5
62F
  8
TEAM-BODY
 10
-20.844788
 20
-222.300258
 30
0.0
  0
VERTEX
  5
630
  8
TEAM-BODY
 10
-21.612977
 20
-224.154048
 30
0.0
  0
VERTEX
  5
631
  8
TEAM-BODY
 10
-22.215577
 20
-226.067638
 30
0.0
  0
VERTEX
  5
632
  8
TEAM-BODY
 10
-22.650269
 20
-228.027217
 30
0.0
  0
VERTEX
  5
633
  8
TEAM-BODY
 10
-22.912476
 20
-230.014415
 30
0.0
  0
VERTEX
  5
634
  8
TEAM-BODY
 10
-22.999878
 20
-232.02
 30
0.0
  0
VERTEX
  5
635
  8
TEAM-BODY
 10
-22.912476
 20
-234.025585
 30
0.0
  0
VERTEX
  5
636
  8
TEAM-BODY
 10
-22.650269
 20
-236.012782
 30
0.0
  0
VERTEX
  5
637
  8
TEAM-BODY
 10
-22.215577
 20
-237.972362
 30
0.0
  0
VERTEX
  5
638
  8
TEAM-BODY
 10
-21.612977
 20
-239.885951
 30
0.0
  0
VERTEX
  5
639
  8
TEAM-BODY
 10
-20.844788
 20
-241.739742
 30
0.0
  0
VERTEX
  5
63A
  8
TEAM-BODY
 10
-19.917908
 20
-243.519939
 30
0.0
  0
VERTEX
  5
63B
  8
TEAM-BODY
 10
-18.841492
 20
-245.212734
 30
0.0
  0
VERTEX
  5
63C
  8
TEAM-BODY
 10
-17.61792
 20
-246.804317
 30
0.0
  0
VERTEX
  5
63D
  8
TEAM-BODY
 10
-16.263215
 20
-248.283214
 30
0.0
  0
VERTEX
  5
63E
  8
TEAM-BODY
 10
-14.784333
 20
-249.637905
 30
0.0
  0
VERTEX
  5
63F
  8
TEAM-BODY
 10
-13.192719
 20
-250.861507
 30
0.0
  0
VERTEX
  5
640
  8
TEAM-BODY
 10
-11.499939
 20
-251.937892
 30
0.0
  0
VERTEX
  5
641
  8
TEAM-BODY
 10
-9.719758
 20
-252.864787
 30
0.0
  0
VERTEX
  5
642
  8
TEAM-BODY
 10
-7.865967
 20
-253.632991
 30
0.0
  0
VERTEX
  5
643
  8
TEAM-BODY
 10
-5.952363
 20
-254.235576
 30
0.0
  0
VERTEX
  5
644
  8
TEAM-BODY
 10
-3.992768
 20
-254.670284
 30
0.0
  0
VERTEX
  5
645
  8
TEAM-BODY
 10
-2.005585
 20
-254.932475
 30
0.0
  0
VERTEX
  5
646
  8
TEAM-BODY
 10
0.0
 20
-255.019878
 30
0.0
  0
VERTEX
  5
647
  8
TEAM-BODY
 10
2.005584
 20
-254.932475
 30
0.0
  0
VERTEX
  5
648
  8
TEAM-BODY
 10
3.992767
 20
-254.670284
 30
0.0
  0
VERTEX
  5
649
  8
TEAM-BODY
 10
5.952362
 20
-254.235576
 30
0.0
  0
VERTEX
  5
64A
  8
TEAM-BODY
 10
7.865966
 20
-253.632991
 30
0.0
  0
VERTEX
  5
64B
  8
TEAM-BODY
 10
9.719757
 20
-252.864787
 30
0.0
  0
VERTEX
  5
64C
  8
TEAM-BODY
 10
11.499938
 20
-251.937892
 30
0.0
  0
VERTEX
  5
64D
  8
TEAM-BODY
 10
13.192718
 20
-250.861507
 30
0.0
  0
VERTEX
  5
64E
  8
TEAM-BODY
 10
14.784332
 20
-249.637905
 30
0.0
  0
VERTEX
  5
64F
  8
TEAM-BODY
 10
16.263214
 20
-248.283214
 30
0.0
  0
VERTEX
  5
650
  8
TEAM-BODY
 10
17.617919
 20
-246.804317
 30
0.0
  0
VERTEX
  5
651
  8
TEAM-BODY
 10
18.841491
 20
-245.212734
 30
0.0
  0
VERTEX
  5
652
  8
TEAM-BODY
 10
19.917907
 20
-243.519939
 30
0.0
  0
VERTEX
  5
653
  8
TEAM-BODY
 10
20.844787
 20
-241.739742
 30
0.0
  0
VERTEX
  5
654
  8
TEAM-BODY
 10
21.612976
 20
-239.885951
 30
0.0
  0
VERTEX
  5
655
  8
TEAM-BODY
 10
22.215576
 20
-237.972362
 30
0.0
  0
VERTEX
  5
656
  8
TEAM-BODY
 10
22.650268
 20
-236.012782
 30
0.0
  0
VERTEX
  5
657
  8
TEAM-BODY
 10
22.912475
 20
-234.025585
 30
0.0
  0
VERTEX
  5
658
  8
TEAM-BODY
 10
22.999877
 20
-232.02
 30
0.0
  0
SEQEND
  5
659
  8
TEAM-BODY
  0
POLYLINE
  5
43
  8
TEAM-DET1
 66
     1
 10
0.0
 20
0.0
 30
0.0
 70
     1
  0
VERTEX
  5
65A
  8
TEAM-DET1
 10
37.5
 20
-232.02
 30
0.0
  0
VERTEX
  5
65B
  8
TEAM-DET1
 10
37.357513
 20
-228.749996
 30
0.0
  0
VERTEX
  5
65C
  8
TEAM-DET1
 10
36.929992
 20
-225.510005
 30
0.0
  0
VERTEX
  5
65D
  8
TEAM-DET1
 10
36.221252
 20
-222.314998
 30
0.0
  0
VERTEX
  5
65E
  8
TEAM-DET1
 10
35.238739
 20
-219.195003
 30
0.0
  0
VERTEX
  5
65F
  8
TEAM-DET1
 10
33.986236
 20
-216.172496
 30
0.0
  0
VERTEX
  5
660
  8
TEAM-DET1
 10
32.475006
 20
-213.27
 30
0.0
  0
VERTEX
  5
661
  8
TEAM-DET1
 10
30.720001
 20
-210.510005
 30
0.0
  0
VERTEX
  5
662
  8
TEAM-DET1
 10
28.725006
 20
-207.915004
 30
0.0
  0
VERTEX
  5
663
  8
TEAM-DET1
 10
26.516235
 20
-205.503749
 30
0.0
  0
VERTEX
  5
664
  8
TEAM-DET1
 10
24.10501
 20
-203.294994
 30
0.0
  0
VERTEX
  5
665
  8
TEAM-DET1
 10
21.510009
 20
-201.299999
 30
0.0
  0
VERTEX
  5
666
  8
TEAM-DET1
 10
18.75
 20
-199.544994
 30
0.0
  0
VERTEX
  5
667
  8
TEAM-DET1
 10
15.847503
 20
-198.033748
 30
0.0
  0
VERTEX
  5
668
  8
TEAM-DET1
 10
12.825012
 20
-196.781246
 30
0.0
  0
VERTEX
  5
669
  8
TEAM-DET1
 10
9.704986
 20
-195.798747
 30
0.0
  0
VERTEX
  5
66A
  8
TEAM-DET1
 10
6.510009
 20
-195.090007
 30
0.0
  0
VERTEX
  5
66B
  8
TEAM-DET1
 10
3.269989
 20
-194.662502
 30
0.0
  0
VERTEX
  5
66C
  8
TEAM-DET1
 10
0.0
 20
-194.52
 30
0.0
  0
VERTEX
  5
66D
  8
TEAM-DET1
 10
-3.26999
 20
-194.662502
 30
0.0
  0
VERTEX
  5
66E
  8
TEAM-DET1
 10
-6.51001
 20
-195.090007
 30
0.0
  0
VERTEX
  5
66F
  8
TEAM-DET1
 10
-9.704987
 20
-195.798747
 30
0.0
  0
VERTEX
  5
670
  8
TEAM-DET1
 10
-12.825013
 20
-196.781246
 30
0.0
  0
VERTEX
  5
671
  8
TEAM-DET1
 10
-15.847504
 20
-198.033748
 30
0.0
  0
VERTEX
  5
672
  8
TEAM-DET1
 10
-18.75
 20
-199.544994
 30
0.0
  0
VERTEX
  5
673
  8
TEAM-DET1
 10
-21.51001
 20
-201.299999
 30
0.0
  0
VERTEX
  5
674
  8
TEAM-DET1
 10
-24.105011
 20
-203.294994
 30
0.0
  0
VERTEX
  5
675
  8
TEAM-DET1
 10
-26.516236
 20
-205.503749
 30
0.0
  0
VERTEX
  5
676
  8
TEAM-DET1
 10
-28.725007
 20
-207.915004
 30
0.0
  0
VERTEX
  5
677
  8
TEAM-DET1
 10
-30.720002
 20
-210.510005
 30
0.0
  0
VERTEX
  5
678
  8
TEAM-DET1
 10
-32.475007
 20
-213.27
 30
0.0
  0
VERTEX
  5
679
  8
TEAM-DET1
 10
-33.986237
 20
-216.172496
 30
0.0
  0
VERTEX
  5
67A
  8
TEAM-DET1
 10
-35.23874
 20
-219.195003
 30
0.0
  0
VERTEX
  5
67B
  8
TEAM-DET1
 10
-36.221253
 20
-222.314998
 30
0.0
  0
VERTEX
  5
67C
  8
TEAM-DET1
 10
-36.929993
 20
-225.510005
 30
0.0
  0
VERTEX
  5
67D
  8
TEAM-DET1
 10
-37.357514
 20
-228.749996
 30
0.0
  0
VERTEX
  5
67E
  8
TEAM-DET1
 10
-37.5
 20
-232.02
 30
0.0
  0
VERTEX
  5
67F
  8
TEAM-DET1
 10
-37.357514
 20
-235.290004
 30
0.0
  0
VERTEX
  5
680
  8
TEAM-DET1
 10
-36.929993
 20
-238.529994
 30
0.0
  0
VERTEX
  5
681
  8
TEAM-DET1
 10
-36.221253
 20
-241.725002
 30
0.0
  0
VERTEX
  5
682
  8
TEAM-DET1
 10
-35.23874
 20
-244.844997
 30
0.0
  0
VERTEX
  5
683
  8
TEAM-DET1
 10
-33.986237
 20
-247.867504
 30
0.0
  0
VERTEX
  5
684
  8
TEAM-DET1
 10
-32.475007
 20
-250.77
 30
0.0
  0
VERTEX
  5
685
  8
TEAM-DET1
 10
-30.720002
 20
-253.529994
 30
0.0
  0
VERTEX
  5
686
  8
TEAM-DET1
 10
-28.725007
 20
-256.124996
 30
0.0
  0
VERTEX
  5
687
  8
TEAM-DET1
 10
-26.516236
 20
-258.53625
 30
0.0
  0
VERTEX
  5
688
  8
TEAM-DET1
 10
-24.105011
 20
-260.745006
 30
0.0
  0
VERTEX
  5
689
  8
TEAM-DET1
 10
-21.51001
 20
-262.740001
 30
0.0
  0
VERTEX
  5
68A
  8
TEAM-DET1
 10
-18.75
 20
-264.495006
 30
0.0
  0
VERTEX
  5
68B
  8
TEAM-DET1
 10
-15.847504
 20
-266.006252
 30
0.0
  0
VERTEX
  5
68C
  8
TEAM-DET1
 10
-12.825013
 20
-267.258754
 30
0.0
  0
VERTEX
  5
68D
  8
TEAM-DET1
 10
-9.704987
 20
-268.241252
 30
0.0
  0
VERTEX
  5
68E
  8
TEAM-DET1
 10
-6.51001
 20
-268.949993
 30
0.0
  0
VERTEX
  5
68F
  8
TEAM-DET1
 10
-3.26999
 20
-269.377498
 30
0.0
  0
VERTEX
  5
690
  8
TEAM-DET1
 10
0.0
 20
-269.52
 30
0.0
  0
VERTEX
  5
691
  8
TEAM-DET1
 10
3.269989
 20
-269.377498
 30
0.0
  0
VERTEX
  5
692
  8
TEAM-DET1
 10
6.510009
 20
-268.949993
 30
0.0
  0
VERTEX
  5
693
  8
TEAM-DET1
 10
9.704986
 20
-268.241252
 30
0.0
  0
VERTEX
  5
694
  8
TEAM-DET1
 10
12.825012
 20
-267.258754
 30
0.0
  0
VERTEX
  5
695
  8
TEAM-DET1
 10
15.847503
 20
-266.006252
 30
0.0
  0
VERTEX
  5
696
  8
TEAM-DET1
 10
18.75
 20
-264.495006
 30
0.0
  0
VERTEX
  5
697
  8
TEAM-DET1
 10
21.510009
 20
-262.740001
 30
0.0
  0
VERTEX
  5
698
  8
TEAM-DET1
 10
24.10501
 20
-260.745006
 30
0.0
  0
VERTEX
  5
699
  8
TEAM-DET1
 10
26.516235
 20
-258.53625
 30
0.0
  0
VERTEX
  5
69A
  8
TEAM-DET1
 10
28.725006
 20
-256.124996
 30
0.0
  0
VERTEX
  5
69B
  8
TEAM-DET1
 10
30.720001
 20
-253.529994
 30
0.0
  0
VERTEX
  5
69C
  8
TEAM-DET1
 10
32.475006
 20
-250.77
 30
0.0
  0
VERTEX
  5
69D
  8
TEAM-DET1
 10
33.986236
 20
-247.867504
 30
0.0
  0
VERTEX
  5
69E
  8
TEAM-DET1
 10
35.238739
 20
-244.844997
 30
0.0
  0
VERTEX
  5
69F
  8
TEAM-DET1
 10
36.221252
 20
-241.725002
 30
0.0
  0
VERTEX
  5
6A0
  8
TEAM-DET1
 10
36.929992
 20
-238.529994
 30
0.0
  0
VERTEX
  5
6A1
  8
TEAM-DET1
 10
37.357513
 20
-235.290004
 30
0.0
  0
VERTEX
  5
6A2
  8
TEAM-DET1
 10
37.5
 20
-232.02
 30
0.0
  0
SEQEND
  5
6A3
  8
TEAM-DET1
  0
LINE
  5
45
  8
TEAM-DET1
 10
12.000122
 20
-152.923931
 30
0.0
 11
11.951293
 21
-152.731975
 31
0.0
  0
LINE
  5
46
  8
TEAM-DET1
 10
11.951293
 20
-152.731975
 30
0.0
 11
11.799316
 21
-152.535137
 31
0.0
  0
LINE
  5
47
  8
TEAM-DET1
 10
11.799316
 20
-152.535137
 30
0.0
 11
11.536254
 21
-152.335857
 31
0.0
  0
LINE
  5
48
  8
TEAM-DET1
 10
11.536254
 20
-152.335857
 30
0.0
 11
11.157226
 21
-152.137187
 31
0.0
  0
LINE
  5
49
  8
TEAM-DET1
 10
11.157226
 20
-152.137187
 30
0.0
 11
10.043945
 21
-151.754497
 31
0.0
  0
LINE
  5
4A
  8
TEAM-DET1
 10
10.043945
 20
-151.754497
 30
0.0
 11
8.485107
 21
-151.4127
 31
0.0
  0
LINE
  5
4B
  8
TEAM-DET1
 10
8.485107
 20
-151.4127
 30
0.0
 11
6.566772
 21
-151.13499
 31
0.0
  0
LINE
  5
4C
  8
TEAM-DET1
 10
6.566772
 20
-151.13499
 30
0.0
 11
4.417114
 21
-150.936931
 31
0.0
  0
LINE
  5
4D
  8
TEAM-DET1
 10
4.417114
 20
-150.936931
 30
0.0
 11
2.183837
 21
-150.82249
 31
0.0
  0
LINE
  5
4E
  8
TEAM-DET1
 10
2.183837
 20
-150.82249
 30
0.0
 11
0.0
 21
-150.786785
 31
0.0
  0
LINE
  5
4F
  8
TEAM-DET1
 10
0.0
 20
-150.786785
 30
0.0
 11
-2.183228
 21
-150.82249
 31
0.0
  0
LINE
  5
50
  8
TEAM-DET1
 10
-2.183228
 20
-150.82249
 30
0.0
 11
-4.417115
 21
-150.936931
 31
0.0
  0
LINE
  5
51
  8
TEAM-DET1
 10
-4.417115
 20
-150.936931
 30
0.0
 11
-6.566773
 21
-151.13499
 31
0.0
  0
LINE
  5
52
  8
TEAM-DET1
 10
-6.566773
 20
-151.13499
 30
0.0
 11
-8.485108
 21
-151.4127
 31
0.0
  0
LINE
  5
53
  8
TEAM-DET1
 10
-8.485108
 20
-151.4127
 30
0.0
 11
-10.043335
 21
-151.754497
 31
0.0
  0
LINE
  5
54
  8
TEAM-DET1
 10
-10.043335
 20
-151.754497
 30
0.0
 11
-11.156617
 21
-152.137187
 31
0.0
  0
LINE
  5
55
  8
TEAM-DET1
 10
-11.156617
 20
-152.137187
 30
0.0
 11
-11.536255
 21
-152.335857
 31
0.0
  0
LINE
  5
56
  8
TEAM-DET1
 10
-11.536255
 20
-152.335857
 30
0.0
 11
-11.798707
 21
-152.535137
 31
0.0
  0
LINE
  5
57
  8
TEAM-DET1
 10
-11.798707
 20
-152.535137
 30
0.0
 11
-11.951294
 21
-152.731975
 31
0.0
  0
LINE
  5
58
  8
TEAM-DET1
 10
-11.951294
 20
-152.731975
 30
0.0
 11
-12.000123
 21
-152.923931
 31
0.0
  0
LINE
  5
59
  8
TEAM-DET1
 10
-12.000123
 20
-152.923931
 30
0.0
 11
-11.951294
 21
-153.115886
 31
0.0
  0
LINE
  5
5A
  8
TEAM-DET1
 10
-11.951294
 20
-153.115886
 30
0.0
 11
-11.798707
 21
-153.312724
 31
0.0
  0
LINE
  5
5B
  8
TEAM-DET1
 10
-11.798707
 20
-153.312724
 30
0.0
 11
-11.536255
 21
-153.512004
 31
0.0
  0
LINE
  5
5C
  8
TEAM-DET1
 10
-11.536255
 20
-153.512004
 30
0.0
 11
-11.156617
 21
-153.710674
 31
0.0
  0
LINE
  5
5D
  8
TEAM-DET1
 10
-11.156617
 20
-153.710674
 30
0.0
 11
-10.043335
 21
-154.093364
 31
0.0
  0
LINE
  5
5E
  8
TEAM-DET1
 10
-10.043335
 20
-154.093364
 30
0.0
 11
-8.485108
 21
-154.435161
 31
0.0
  0
LINE
  5
5F
  8
TEAM-DET1
 10
-8.485108
 20
-154.435161
 30
0.0
 11
-6.566773
 21
-154.712566
 31
0.0
  0
LINE
  5
60
  8
TEAM-DET1
 10
-6.566773
 20
-154.712566
 30
0.0
 11
-4.417115
 21
-154.91093
 31
0.0
  0
LINE
  5
61
  8
TEAM-DET1
 10
-4.417115
 20
-154.91093
 30
0.0
 11
-2.183228
 21
-155.025371
 31
0.0
  0
LINE
  5
62
  8
TEAM-DET1
 10
-2.183228
 20
-155.025371
 30
0.0
 11
0.0
 21
-155.061077
 31
0.0
  0
LINE
  5
63
  8
TEAM-DET1
 10
0.0
 20
-155.061077
 30
0.0
 11
2.183837
 21
-155.025371
 31
0.0
  0
LINE
  5
64
  8
TEAM-DET1
 10
2.183837
 20
-155.025371
 30
0.0
 11
4.417114
 21
-154.91093
 31
0.0
  0
LINE
  5
65
  8
TEAM-DET1
 10
4.417114
 20
-154.91093
 30
0.0
 11
6.566772
 21
-154.712566
 31
0.0
  0
LINE
  5
66
  8
TEAM-DET1
 10
6.566772
 20
-154.712566
 30
0.0
 11
8.485107
 21
-154.435161
 31
0.0
  0
LINE
  5
67
  8
TEAM-DET1
 10
8.485107
 20
-154.435161
 30
0.0
 11
10.043945
 21
-154.093364
 31
0.0
  0
LINE
  5
68
  8
TEAM-DET1
 10
10.043945
 20
-154.093364
 30
0.0
 11
11.157226
 21
-153.710674
 31
0.0
  0
LINE
  5
69
  8
TEAM-DET1
 10
11.157226
 20
-153.710674
 30
0.0
 11
11.536254
 21
-153.512004
 31
0.0
  0
LINE
  5
6A
  8
TEAM-DET1
 10
11.536254
 20
-153.512004
 30
0.0
 11
11.799316
 21
-153.312724
 31
0.0
  0
LINE
  5
6B
  8
TEAM-DET1
 10
11.799316
 20
-153.312724
 30
0.0
 11
11.951293
 21
-153.115886
 31
0.0
  0
LINE
  5
6C
  8
TEAM-DET1
 10
11.951293
 20
-153.115886
 30
0.0
 11
12.000122
 21
-152.923931
 31
0.0
  0
LINE
  5
6D
  8
TEAM-AXE
 10
0.0
 20
-232.02
 30
0.0
 11
-51.519776
 21
-232.02
 31
0.0
  0
LINE
  5
70
  8
TEAM-AXE
 10
0.0
 20
-232.02
 30
0.0
 11
0.0
 21
-282.598308
 31
0.0
  0
LINE
  5
71
  8
TEAM-AXE
 10
0.0
 20
-232.02
 30
0.0
 11
0.0
 21
-183.614848
 31
0.0
  0
LINE
  5
72
  8
TEAM-AXE
 10
0.0
 20
-232.02
 30
0.0
 11
50.708618
 21
-232.02
 31
0.0
  0
TEXT
  5
73
  8
TEAM-TXT
 10
-144.033537
 20
-339.718176
 30
0.0
 40
30.0
  1
team 227029
 41
0.8
 51
15.0
  7
TEAM
  0
LINE
  5
76
  8
TEAM-AXE
 10
0.0
 20
-66.534387
 30
0.0
 11
25.499877
 21
-66.534387
 31
0.0
  0
LINE
  5
77
  8
TEAM-AXE
 10
0.0
 20
-66.534387
 30
0.0
 11
0.0
 21
-41.034509
 31
0.0
  0
LINE
  5
78
  8
TEAM-AXE
 10
0.0
 20
-66.534387
 30
0.0
 11
0.0
 21
-92.03457
 31
0.0
  0
LINE
  5
79
  8
TEAM-AXE
 10
0.0
 20
-66.534387
 30
0.0
 11
-25.499878
 21
-66.534387
 31
0.0
  0
POLYLINE
  5
7A
  8
TEAM-DET1
 66
     1
 10
0.0
 20
0.0
 30
0.0
 70
     1
  0
VERTEX
  5
6A4
  8
TEAM-DET1
 10
17.5
 20
-66.534387
 30
0.0
  0
VERTEX
  5
6A5
  8
TEAM-DET1
 10
17.234008
 20
-63.496393
 30
0.0
  0
VERTEX
  5
6A6
  8
TEAM-DET1
 10
16.444763
 20
-60.549402
 30
0.0
  0
VERTEX
  5
6A7
  8
TEAM-DET1
 10
15.154998
 20
-57.784387
 30
0.0
  0
VERTEX
  5
6A8
  8
TEAM-DET1
 10
13.404998
 20
-55.285394
 30
0.0
  0
VERTEX
  5
6A9
  8
TEAM-DET1
 10
11.248992
 20
-53.129388
 30
0.0
  0
VERTEX
  5
6AA
  8
TEAM-DET1
 10
8.75
 20
-51.379388
 30
0.0
  0
VERTEX
  5
6AB
  8
TEAM-DET1
 10
5.984985
 20
-50.089624
 30
0.0
  0
VERTEX
  5
6AC
  8
TEAM-DET1
 10
3.037994
 20
-49.300378
 30
0.0
  0
VERTEX
  5
6AD
  8
TEAM-DET1
 10
0.0
 20
-49.034387
 30
0.0
  0
VERTEX
  5
6AE
  8
TEAM-DET1
 10
-3.037995
 20
-49.300378
 30
0.0
  0
VERTEX
  5
6AF
  8
TEAM-DET1
 10
-5.984986
 20
-50.089624
 30
0.0
  0
VERTEX
  5
6B0
  8
TEAM-DET1
 10
-8.75
 20
-51.379388
 30
0.0
  0
VERTEX
  5
6B1
  8
TEAM-DET1
 10
-11.248993
 20
-53.129388
 30
0.0
  0
VERTEX
  5
6B2
  8
TEAM-DET1
 10
-13.404999
 20
-55.285394
 30
0.0
  0
VERTEX
  5
6B3
  8
TEAM-DET1
 10
-15.154999
 20
-57.784387
 30
0.0
  0
VERTEX
  5
6B4
  8
TEAM-DET1
 10
-16.444764
 20
-60.549402
 30
0.0
  0
VERTEX
  5
6B5
  8
TEAM-DET1
 10
-17.234009
 20
-63.496393
 30
0.0
  0
VERTEX
  5
6B6
  8
TEAM-DET1
 10
-17.5
 20
-66.534387
 30
0.0
  0
VERTEX
  5
6B7
  8
TEAM-DET1
 10
-17.234009
 20
-69.572381
 30
0.0
  0
VERTEX
  5
6B8
  8
TEAM-DET1
 10
-16.444764
 20
-72.519372
 30
0.0
  0
VERTEX
  5
6B9
  8
TEAM-DET1
 10
-15.154999
 20
-75.284387
 30
0.0
  0
VERTEX
  5
6BA
  8
TEAM-DET1
 10
-13.404999
 20
-77.78338
 30
0.0
  0
VERTEX
  5
6BB
  8
TEAM-DET1
 10
-11.248993
 20
-79.939386
 30
0.0
  0
VERTEX
  5
6BC
  8
TEAM-DET1
 10
-8.75
 20
-81.689386
 30
0.0
  0
VERTEX
  5
6BD
  8
TEAM-DET1
 10
-5.984986
 20
-82.97915
 30
0.0
  0
VERTEX
  5
6BE
  8
TEAM-DET1
 10
-3.037995
 20
-83.768396
 30
0.0
  0
VERTEX
  5
6BF
  8
TEAM-DET1
 10
0.0
 20
-84.034387
 30
0.0
  0
VERTEX
  5
6C0
  8
TEAM-DET1
 10
3.037994
 20
-83.768396
 30
0.0
  0
VERTEX
  5
6C1
  8
TEAM-DET1
 10
5.984985
 20
-82.97915
 30
0.0
  0
VERTEX
  5
6C2
  8
TEAM-DET1
 10
8.75
 20
-81.689386
 30
0.0
  0
VERTEX
  5
6C3
  8
TEAM-DET1
 10
11.248992
 20
-79.939386
 30
0.0
  0
VERTEX
  5
6C4
  8
TEAM-DET1
 10
13.404998
 20
-77.78338
 30
0.0
  0
VERTEX
  5
6C5
  8
TEAM-DET1
 10
15.154998
 20
-75.284387
 30
0.0
  0
VERTEX
  5
6C6
  8
TEAM-DET1
 10
16.444763
 20
-72.519372
 30
0.0
  0
VERTEX
  5
6C7
  8
TEAM-DET1
 10
17.234008
 20
-69.572381
 30
0.0
  0
VERTEX
  5
6C8
  8
TEAM-DET1
 10
17.5
 20
-66.534387
 30
0.0
  0
SEQEND
  5
6C9
  8
TEAM-DET1
  0
LINE
  5
7B
  8
TEAM-BODY
 10
-179.522945
 20
0.0
 30
0.0
 11
0.0
 21
0.0
 31
0.0
  0
LINE
  5
7C
  8
TEAM-BODY
 10
-179.522945
 20
-20.517255
 30
0.0
 11
0.0
 21
-20.517255
 31
0.0
  0
LINE
  5
7D
  8
TEAM-BODY
 10
179.643554
 20
0.0
 30
0.0
 11
0.0
 21
0.0
 31
0.0
  0
LINE
  5
7E
  8
TEAM-BODY
 10
179.643554
 20
-20.517255
 30
0.0
 11
0.0
 21
-20.517255
 31
0.0
  0
CIRCLE
  5
7F
  8
TEAM-INSP
 10
0.0
 20
0.0
 30
0.0
 40
10.0
  0
ENDSEC
  0
EOF
