  0
SECTION
  2
HEADER
  9
$ACADVER
  1
AC1009
  9
$INSBASE
 10
0.0
 20
0.0
 30
0.0
  9
$EXTMIN
 10
-116.346438
 20
-36.514628
 30
-10.001221
  9
$EXTMAX
 10
746.192487
 20
512.310251
 30
10.001221
  9
$LIMMIN
 10
-116.346438
 20
-36.514628
  9
$LIMMAX
 10
746.192487
 20
512.310251
  9
$ORTHOMODE
 70
     1
  9
$REGENMODE
 70
     1
  9
$FILLMODE
 70
     1
  9
$QTEXTMODE
 70
     0
  9
$MIRRTEXT
 70
     0
  9
$DRAGMODE
 70
     2
  9
$LTSCALE
 40
25.0
  9
$OSMODE
 70
     0
  9
$ATTMODE
 70
     1
  9
$TEXTSIZE
 40
200.0
  9
$TRACEWID
 40
1.0
  9
$TEXTSTYLE
  7
STANDARD
  9
$CLAYER
  8
TEAM-MAS
  9
$CELTYPE
  6
BYLAYER
  9
$CECOLOR
 62
   256
  9
$DIMSCALE
 40
0.0
  9
$DIMASZ
 40
20.0
  9
$DIMEXO
 40
10.0
  9
$DIMDLI
 40
1.0
  9
$DIMRND
 40
0.0
  9
$DIMDLE
 40
0.0
  9
$DIMEXE
 40
1.0
  9
$DIMTP
 40
0.0
  9
$DIMTM
 40
0.0
  9
$DIMTXT
 40
35.0
  9
$DIMCEN
 40
1.0
  9
$DIMTSZ
 40
0.0
  9
$DIMTOL
 70
     0
  9
$DIMLIM
 70
     0
  9
$DIMTIH
 70
     0
  9
$DIMTOH
 70
     0
  9
$DIMSE1
 70
     0
  9
$DIMSE2
 70
     0
  9
$DIMTAD
 70
     0
  9
$DIMZIN
 70
     0
  9
$DIMBLK
  1

  9
$DIMASO
 70
     1
  9
$DIMSHO
 70
     0
  9
$DIMPOST
  1

  9
$DIMAPOST
  1

  9
$DIMALT
 70
     0
  9
$DIMALTD
 70
     2
  9
$DIMALTF
 40
25.4
  9
$DIMLFAC
 40
1.0
  9
$DIMTOFL
 70
     0
  9
$DIMTVP
 40
0.0
  9
$DIMTIX
 70
     0
  9
$DIMSOXD
 70
     0
  9
$DIMSAH
 70
     0
  9
$DIMBLK1
  1

  9
$DIMBLK2
  1

  9
$DIMSTYLE
  2
TEAM
  9
$DIMCLRD
 70
     9
  9
$DIMCLRE
 70
     9
  9
$DIMCLRT
 70
    11
  9
$DIMTFAC
 40
1.0
  9
$DIMGAP
 40
15.0
  9
$LUNITS
 70
     2
  9
$LUPREC
 70
     1
  9
$SKETCHINC
 40
1.0
  9
$FILLETRAD
 40
50.0
  9
$AUNITS
 70
     0
  9
$AUPREC
 70
     0
  9
$MENU
  1
ROPLANS
  9
$ELEVATION
 40
0.0
  9
$PELEVATION
 40
0.0
  9
$THICKNESS
 40
0.0
  9
$LIMCHECK
 70
     0
  9
$BLIPMODE
 70
     1
  9
$CHAMFERA
 40
0.0
  9
$CHAMFERB
 40
0.0
  9
$SKPOLY
 70
     0
  9
$TDCREATE
 40
2450392.957851
  9
$TDUPDATE
 40
2455505.390806
  9
$TDINDWG
 40
2.108696
  9
$TDUSRTIMER
 40
2.108696
  9
$USRTIMER
 70
     1
  9
$ANGBASE
 50
0.0
  9
$ANGDIR
 70
     0
  9
$PDMODE
 70
     0
  9
$PDSIZE
 40
0.0
  9
$PLINEWID
 40
0.0
  9
$COORDS
 70
     2
  9
$SPLFRAME
 70
     0
  9
$SPLINETYPE
 70
     6
  9
$SPLINESEGS
 70
     8
  9
$ATTDIA
 70
     0
  9
$ATTREQ
 70
     0
  9
$HANDLING
 70
     1
  9
$HANDSEED
  5
D1
  9
$SURFTAB1
 70
    24
  9
$SURFTAB2
 70
    24
  9
$SURFTYPE
 70
     6
  9
$SURFU
 70
     6
  9
$SURFV
 70
     6
  9
$UCSNAME
  2

  9
$UCSORG
 10
0.0
 20
0.0
 30
0.0
  9
$UCSXDIR
 10
1.0
 20
0.0
 30
0.0
  9
$UCSYDIR
 10
0.0
 20
1.0
 30
0.0
  9
$PUCSNAME
  2

  9
$PUCSORG
 10
0.0
 20
0.0
 30
0.0
  9
$PUCSXDIR
 10
1.0
 20
0.0
 30
0.0
  9
$PUCSYDIR
 10
0.0
 20
1.0
 30
0.0
  9
$USERI1
 70
     0
  9
$USERI2
 70
     0
  9
$USERI3
 70
     0
  9
$USERI4
 70
     0
  9
$USERI5
 70
     0
  9
$USERR1
 40
0.0
  9
$USERR2
 40
0.0
  9
$USERR3
 40
0.0
  9
$USERR4
 40
0.0
  9
$USERR5
 40
0.0
  9
$WORLDVIEW
 70
     1
  9
$SHADEDGE
 70
     0
  9
$SHADEDIF
 70
    70
  9
$TILEMODE
 70
     1
  9
$MAXACTVP
 70
    16
  9
$PLIMCHECK
 70
     0
  9
$PEXTMIN
 10
-0.805942
 20
0.005011
 30
0.0
  9
$PEXTMAX
 10
20.250094
 20
11.356329
 30
0.0
  9
$PLIMMIN
 10
0.0
 20
0.0
  9
$PLIMMAX
 10
12.0
 20
9.0
  9
$UNITMODE
 70
     0
  9
$VISRETAIN
 70
     0
  9
$PLINEGEN
 70
     0
  9
$PSLTSCALE
 70
     0
  0
ENDSEC
  0
SECTION
  2
TABLES
  0
TABLE
  2
VPORT
 70
     2
  0
VPORT
  2
*ACTIVE
 70
     0
 10
0.0
 20
0.0
 11
1.0
 21
1.0
 12
314.923025
 22
237.897812
 13
0.0
 23
0.0
 14
1.0
 24
1.0
 15
50.0
 25
50.0
 16
0.0
 26
0.0
 36
1.0
 17
0.0
 27
0.0
 37
0.0
 40
552.195349
 41
1.865779
 42
50.0
 43
0.0
 44
0.0
 50
0.0
 51
0.0
 71
     0
 72
   100
 73
     1
 74
     1
 75
     0
 76
     0
 77
     0
 78
     0
  0
ENDTAB
  0
TABLE
  2
LTYPE
 70
     1
  0
LTYPE
  2
CONTINUOUS
 70
     0
  3
Solid Line
 72
    65
 73
     0
 40
0.0
  0
ENDTAB
  0
TABLE
  2
LAYER
 70
     6
  0
LAYER
  2
0
 70
     0
 62
     7
  6
CONTINUOUS
  0
LAYER
  2
DEFPOINTS
 70
     0
 62
     7
  6
CONTINUOUS
  0
LAYER
  2
TEAM-BODY
 70
     0
 62
     2
  6
CONTINUOUS
  0
LAYER
  2
TEAM-MAS
 70
     0
 62
     9
  6
CONTINUOUS
  0
LAYER
  2
TEAM-TXT
 70
     0
 62
    11
  6
CONTINUOUS
  0
LAYER
  2
TEAM-INSP
 70
     0
 62
     5
  6
CONTINUOUS
  0
ENDTAB
  0
TABLE
  2
STYLE
 70
     2
  0
STYLE
  2
STANDARD
 70
     0
 40
0.0
 41
1.0
 50
0.0
 71
     0
 42
200.0
  3
txt
  4

  0
STYLE
  2
TEAM
 70
     0
 40
0.0
 41
0.8
 50
15.0
 71
     0
 42
7.0
  3
ROMANS.shx
  4

  0
ENDTAB
  0
TABLE
  2
VIEW
 70
     0
  0
ENDTAB
  0
TABLE
  2
UCS
 70
     0
  0
ENDTAB
  0
TABLE
  2
APPID
 70
     1
  0
APPID
  2
ACAD
 70
     0
  0
ENDTAB
  0
TABLE
  2
DIMSTYLE
 70
     1
  0
DIMSTYLE
  2
TEAM
 70
     0
  3

  4

  5

  6

  7

 40
0.0
 41
20.0
 42
10.0
 43
1.0
 44
1.0
 45
0.0
 46
0.0
 47
0.0
 48
0.0
140
35.0
141
1.0
142
0.0
143
25.4
144
1.0
145
0.0
146
1.0
147
15.0
 71
     0
 72
     0
 73
     0
 74
     0
 75
     0
 76
     0
 77
     0
 78
     0
170
     0
171
     2
172
     0
173
     0
174
     0
175
     0
176
     9
177
     9
178
    11
  0
ENDTAB
  0
ENDSEC
  0
SECTION
  2
BLOCKS
  0
BLOCK
  8
0
  2
$MODEL_SPACE
 70
     0
 10
0.0
 20
0.0
 30
0.0
  3
$MODEL_SPACE
  1

  0
ENDBLK
  5
CA
  8
0
  0
BLOCK
 67
     1
  8
0
  2
$PAPER_SPACE
 70
     0
 10
0.0
 20
0.0
 30
0.0
  3
$PAPER_SPACE
  1

  0
ENDBLK
  5
C8
 67
     1
  8
0
  0
BLOCK
  8
0
  2
*D0
 70
     1
 10
0.0
 20
0.0
 30
0.0
  3
*D0
  1

  0
LINE
  5
22
  8
0
  6
BYBLOCK
 62
     9
 10
8053.347343
 20
260415.001596
 30
0.0
 11
8729.944746
 21
260415.001596
 31
0.0
  0
LINE
  5
23
  8
0
  6
BYBLOCK
 62
     9
 10
8010.0
 20
260000.0
 30
0.0
 11
8729.944746
 21
260000.0
 31
0.0
  0
LINE
  5
24
  8
0
  6
BYBLOCK
 62
     9
 10
8728.944746
 20
260395.001596
 30
0.0
 11
8728.944746
 21
260252.975672
 31
0.0
  0
LINE
  5
25
  8
0
  6
BYBLOCK
 62
     9
 10
8728.944746
 20
260020.0
 30
0.0
 11
8728.944746
 21
260162.025924
 31
0.0
  0
SOLID
  5
26
  8
0
  6
BYBLOCK
 62
     9
 10
8725.611413
 20
260395.001596
 30
0.0
 11
8732.278079
 21
260395.001596
 31
0.0
 12
8728.944746
 22
260415.001596
 32
0.0
 13
8728.944746
 23
260415.001596
 33
0.0
  0
SOLID
  5
27
  8
0
  6
BYBLOCK
 62
     9
 10
8725.611413
 20
260020.0
 30
0.0
 11
8732.278079
 21
260020.0
 31
0.0
 12
8728.944746
 22
260000.0
 32
0.0
 13
8728.944746
 23
260000.0
 33
0.0
  0
TEXT
  5
28
  8
0
  6
BYBLOCK
 62
    11
 10
8746.444746
 20
260171.775924
 30
0.0
 40
35.0
  1
415
 50
90.0
  0
POINT
  5
29
  8
DEFPOINTS
  6
BYBLOCK
 62
     0
 10
8043.347343
 20
260415.001596
 30
10.0
  0
POINT
  5
2B
  8
DEFPOINTS
  6
BYBLOCK
 62
     0
 10
8000.0
 20
260000.0
 30
10.0
  0
POINT
  5
2C
  8
DEFPOINTS
  6
BYBLOCK
 62
     0
 10
8728.944746
 20
260000.0
 30
20.0
  0
ENDBLK
  5
2E
  8
0
  0
BLOCK
  8
0
  2
*D1
 70
     1
 10
0.0
 20
0.0
 30
0.0
  3
*D1
  1

  0
LINE
  5
3F
  8
0
  6
BYBLOCK
 62
     9
 10
8588.234662
 20
260400.003134
 30
0.0
 11
8662.165886
 21
260400.003134
 31
0.0
  0
LINE
  5
40
  8
0
  6
BYBLOCK
 62
     9
 10
8010.0
 20
260000.0
 30
0.0
 11
8662.165886
 21
260000.0
 31
0.0
  0
LINE
  5
41
  8
0
  6
BYBLOCK
 62
     9
 10
8661.165886
 20
260380.003134
 30
0.0
 11
8661.165886
 21
260248.265347
 31
0.0
  0
LINE
  5
42
  8
0
  6
BYBLOCK
 62
     9
 10
8661.165886
 20
260020.0
 30
0.0
 11
8661.165886
 21
260151.737787
 31
0.0
  0
SOLID
  5
43
  8
0
  6
BYBLOCK
 62
     9
 10
8657.832553
 20
260380.003134
 30
0.0
 11
8664.49922
 21
260380.003134
 31
0.0
 12
8661.165886
 22
260400.003134
 32
0.0
 13
8661.165886
 23
260400.003134
 33
0.0
  0
SOLID
  5
44
  8
0
  6
BYBLOCK
 62
     9
 10
8657.832553
 20
260020.0
 30
0.0
 11
8664.49922
 21
260020.0
 31
0.0
 12
8661.165886
 22
260000.0
 32
0.0
 13
8661.165886
 23
260000.0
 33
0.0
  0
TEXT
  5
45
  8
0
  6
BYBLOCK
 62
    11
 10
8678.665886
 20
260161.487787
 30
0.0
 40
35.0
  1
400
 50
90.0
  0
POINT
  5
46
  8
DEFPOINTS
  6
BYBLOCK
 62
     0
 10
8578.234662
 20
260400.003134
 30
0.0
  0
POINT
  5
47
  8
DEFPOINTS
  6
BYBLOCK
 62
     0
 10
8000.0
 20
260000.0
 30
0.0
  0
POINT
  5
48
  8
DEFPOINTS
  6
BYBLOCK
 62
     0
 10
8661.165886
 20
260000.0
 30
0.0
  0
ENDBLK
  5
4A
  8
0
  0
BLOCK
  8
0
  2
*D2
 70
     1
 10
0.0
 20
0.0
 30
0.0
  3
*D2
  1

  0
LINE
  5
31
  8
0
  6
BYBLOCK
 62
     9
 10
8000.0
 20
259995.0
 30
0.0
 11
8000.0
 21
260497.52741
 31
0.0
  0
LINE
  5
32
  8
0
  6
BYBLOCK
 62
     9
 10
8584.996136
 20
260403.522422
 30
0.0
 11
8584.996136
 21
260497.52741
 31
0.0
  0
LINE
  5
33
  8
0
  6
BYBLOCK
 62
     9
 10
8020.0
 20
260496.52741
 30
0.0
 11
8245.273194
 21
260496.52741
 31
0.0
  0
LINE
  5
34
  8
0
  6
BYBLOCK
 62
     9
 10
8564.996136
 20
260496.52741
 30
0.0
 11
8339.722942
 21
260496.52741
 31
0.0
  0
SOLID
  5
35
  8
0
  6
BYBLOCK
 62
     9
 10
8020.0
 20
260499.860743
 30
0.0
 11
8020.0
 21
260493.194076
 31
0.0
 12
8000.0
 22
260496.52741
 32
0.0
 13
8000.0
 23
260496.52741
 33
0.0
  0
SOLID
  5
36
  8
0
  6
BYBLOCK
 62
     9
 10
8564.996136
 20
260499.860743
 30
0.0
 11
8564.996136
 21
260493.194076
 31
0.0
 12
8584.996136
 22
260496.52741
 32
0.0
 13
8584.996136
 23
260496.52741
 33
0.0
  0
TEXT
  5
37
  8
0
  6
BYBLOCK
 62
    11
 10
8255.023194
 20
260479.02741
 30
0.0
 40
35.0
  1
585
  0
POINT
  5
38
  8
DEFPOINTS
  6
BYBLOCK
 62
     0
 10
8000.0
 20
259985.0
 30
0.0
  0
POINT
  5
39
  8
DEFPOINTS
  6
BYBLOCK
 62
     0
 10
8584.996136
 20
260393.522422
 30
0.0
  0
POINT
  5
3A
  8
DEFPOINTS
  6
BYBLOCK
 62
     0
 10
8584.996136
 20
260496.52741
 30
0.0
  0
ENDBLK
  5
3C
  8
0
  0
BLOCK
  8
0
  2
*D3
 70
     1
 10
0.0
 20
0.0
 30
0.0
  3
*D3
  1

  0
LINE
  5
53
  8
0
  6
BYBLOCK
 62
     9
 10
7990.0
 20
260045.293041
 30
0.0
 11
7898.456154
 21
260045.293041
 31
0.0
  0
LINE
  5
54
  8
0
  6
BYBLOCK
 62
     9
 10
7990.0
 20
260400.29
 30
0.0
 11
7898.456154
 21
260400.29
 31
0.0
  0
LINE
  5
55
  8
0
  6
BYBLOCK
 62
     9
 10
7899.456154
 20
260065.293041
 30
0.0
 11
7899.456154
 21
260175.566647
 31
0.0
  0
LINE
  5
56
  8
0
  6
BYBLOCK
 62
     9
 10
7899.456154
 20
260380.29
 30
0.0
 11
7899.456154
 21
260270.016394
 31
0.0
  0
SOLID
  5
57
  8
0
  6
BYBLOCK
 62
     9
 10
7896.122821
 20
260065.293041
 30
0.0
 11
7902.789488
 21
260065.293041
 31
0.0
 12
7899.456154
 22
260045.293041
 32
0.0
 13
7899.456154
 23
260045.293041
 33
0.0
  0
SOLID
  5
58
  8
0
  6
BYBLOCK
 62
     9
 10
7896.122821
 20
260380.29
 30
0.0
 11
7902.789488
 21
260380.29
 31
0.0
 12
7899.456154
 22
260400.29
 32
0.0
 13
7899.456154
 23
260400.29
 33
0.0
  0
TEXT
  5
59
  8
0
  6
BYBLOCK
 62
    11
 10
7916.956154
 20
260185.316647
 30
0.0
 40
35.0
  1
355
 50
90.0
  0
POINT
  5
5A
  8
DEFPOINTS
  6
BYBLOCK
 62
     0
 10
8000.0
 20
260045.293041
 30
0.0
  0
POINT
  5
5B
  8
DEFPOINTS
  6
BYBLOCK
 62
     0
 10
8000.0
 20
260400.29
 30
0.0
  0
POINT
  5
5C
  8
DEFPOINTS
  6
BYBLOCK
 62
     0
 10
7899.456154
 20
260400.29
 30
0.0
  0
ENDBLK
  5
5E
  8
0
  0
ENDSEC
  0
SECTION
  2
ENTITIES
  0
DIMENSION
  5
20
  8
TEAM-MAS
  2
*D0
 10
728.944746
 20
0.0
 30
10.0
 11
728.944746
 21
207.500798
 31
-10.0
 12
-8000.0
 22
-260000.0
 32
-10.0
 13
43.347343
 23
415.001596
 33
0.0
 14
0.0
 24
0.0
 34
0.0
 50
90.0
1001
ACAD
1000
DSTYLE
1002
{
1070
    40
1040
1.0
1002
}
  0
DIMENSION
  5
2F
  8
TEAM-MAS
  2
*D2
 10
584.996136
 20
496.52741
 30
0.0
 11
292.498068
 21
496.52741
 31
0.0
 12
-8000.0
 22
-260000.0
 32
0.0
 13
0.0
 23
-15.0
 33
0.0
 14
584.996136
 24
393.522422
 34
0.0
1001
ACAD
1000
DSTYLE
1002
{
1070
    40
1040
1.0
1002
}
  0
DIMENSION
  5
3D
  8
TEAM-MAS
  2
*D1
 10
661.165886
 20
0.0
 30
0.0
 11
661.165886
 21
200.001567
 31
0.0
 12
-8000.0
 22
-260000.0
 32
0.0
 13
578.234662
 23
400.003134
 33
0.0
 14
0.0
 24
0.0
 34
0.0
 50
90.0
1001
ACAD
1000
DSTYLE
1002
{
1070
    40
1040
1.0
1002
}
  0
TEXT
  5
4B
  8
TEAM-TXT
 10
234.871032
 20
352.866438
 30
0.0
 40
30.0
  1
team 227029
 41
0.8
 51
15.0
  7
TEAM
  0
LINE
  5
4E
  8
TEAM-BODY
 10
578.234662
 20
400.003134
 30
0.0
 11
62.954101
 21
400.301596
 31
0.0
  0
ARC
  5
50
  8
TEAM-BODY
 10
9.764526
 20
697.060139
 30
0.0
 40
651.840238
 50
269.141681
 51
331.735285
  0
DIMENSION
  5
51
  8
TEAM-MAS
  2
*D3
 10
-100.543846
 20
400.29
 30
0.0
 11
-100.543846
 21
222.791521
 31
0.0
 12
-8000.0
 22
-260000.0
 32
0.0
 13
0.0
 23
45.293041
 33
0.0
 14
0.0
 24
400.29
 34
0.0
 50
90.0
1001
ACAD
1000
DSTYLE
1002
{
1070
    40
1040
1.0
1002
}
  0
LINE
  5
5F
  8
TEAM-BODY
 10
62.954101
 20
400.301596
 30
0.0
 11
63.020805
 21
400.301596
 31
0.0
  0
LINE
  5
60
  8
TEAM-BODY
 10
0.0
 20
414.99
 30
0.0
 11
0.0
 21
45.293041
 31
0.0
  0
LINE
  5
61
  8
TEAM-BODY
 10
43.347343
 20
415.001596
 30
0.0
 11
0.0
 21
414.99
 31
0.0
  0
LINE
  5
62
  8
TEAM-BODY
 10
43.347343
 20
415.001596
 30
0.0
 11
62.954101
 21
400.301596
 31
0.0
  0
LINE
  5
63
  8
TEAM-BODY
 10
63.020805
 20
400.301596
 30
0.0
 11
0.0
 21
400.29
 31
0.0
  0
CIRCLE
  5
64
  8
TEAM-INSP
 10
0.0
 20
0.0
 30
0.0
 40
10.0
  0
LINE
  5
66
  8
TEAM-BODY
 10
584.627484
 20
396.084067
 30
0.0
 11
583.245037
 21
398.248679
 31
0.0
  0
LINE
  5
67
  8
TEAM-BODY
 10
583.885296
 20
388.383872
 30
0.0
 11
584.996136
 21
393.522422
 31
0.0
  0
LINE
  5
68
  8
TEAM-BODY
 10
584.996136
 20
393.522422
 30
0.0
 11
584.627484
 21
396.084067
 31
0.0
  0
LINE
  5
69
  8
TEAM-BODY
 10
583.245037
 20
398.248679
 30
0.0
 11
578.234662
 21
400.003134
 31
0.0
  0
ENDSEC
  0
EOF
