  0
SECTION
  2
HEADER
  9
$ACADVER
  1
AC1009
  9
$INSBASE
 10
0.0
 20
0.0
 30
0.0
  9
$EXTMIN
 10
-225.694189
 20
-120.94116
 30
0.0
  9
$EXTMAX
 10
425.856208
 20
486.265297
 30
0.0
  9
$LIMMIN
 10
-225.694189
 20
-120.94116
  9
$LIMMAX
 10
425.856208
 20
486.265297
  9
$ORTHOMODE
 70
     1
  9
$REGENMODE
 70
     1
  9
$FILLMODE
 70
     1
  9
$QTEXTMODE
 70
     0
  9
$MIRRTEXT
 70
     0
  9
$DRAGMODE
 70
     2
  9
$LTSCALE
 40
25.0
  9
$OSMODE
 70
     0
  9
$ATTMODE
 70
     1
  9
$TEXTSIZE
 40
200.0
  9
$TRACEWID
 40
1.0
  9
$TEXTSTYLE
  7
STANDARD
  9
$CLAYER
  8
TEAM-MAS
  9
$CELTYPE
  6
BYLAYER
  9
$CECOLOR
 62
   256
  9
$DIMSCALE
 40
0.0
  9
$DIMASZ
 40
20.0
  9
$DIMEXO
 40
10.0
  9
$DIMDLI
 40
1.0
  9
$DIMRND
 40
0.0
  9
$DIMDLE
 40
0.0
  9
$DIMEXE
 40
1.0
  9
$DIMTP
 40
0.0
  9
$DIMTM
 40
0.0
  9
$DIMTXT
 40
35.0
  9
$DIMCEN
 40
1.0
  9
$DIMTSZ
 40
0.0
  9
$DIMTOL
 70
     0
  9
$DIMLIM
 70
     0
  9
$DIMTIH
 70
     0
  9
$DIMTOH
 70
     0
  9
$DIMSE1
 70
     0
  9
$DIMSE2
 70
     0
  9
$DIMTAD
 70
     0
  9
$DIMZIN
 70
     0
  9
$DIMBLK
  1

  9
$DIMASO
 70
     1
  9
$DIMSHO
 70
     0
  9
$DIMPOST
  1

  9
$DIMAPOST
  1

  9
$DIMALT
 70
     0
  9
$DIMALTD
 70
     2
  9
$DIMALTF
 40
25.4
  9
$DIMLFAC
 40
1.0
  9
$DIMTOFL
 70
     0
  9
$DIMTVP
 40
0.0
  9
$DIMTIX
 70
     0
  9
$DIMSOXD
 70
     0
  9
$DIMSAH
 70
     0
  9
$DIMBLK1
  1

  9
$DIMBLK2
  1

  9
$DIMSTYLE
  2
TEAM
  9
$DIMCLRD
 70
     9
  9
$DIMCLRE
 70
     9
  9
$DIMCLRT
 70
    11
  9
$DIMTFAC
 40
1.0
  9
$DIMGAP
 40
15.0
  9
$LUNITS
 70
     2
  9
$LUPREC
 70
     1
  9
$SKETCHINC
 40
1.0
  9
$FILLETRAD
 40
50.0
  9
$AUNITS
 70
     0
  9
$AUPREC
 70
     0
  9
$MENU
  1
ROPLANS
  9
$ELEVATION
 40
0.0
  9
$PELEVATION
 40
0.0
  9
$THICKNESS
 40
0.0
  9
$LIMCHECK
 70
     0
  9
$BLIPMODE
 70
     1
  9
$CHAMFERA
 40
0.0
  9
$CHAMFERB
 40
0.0
  9
$SKPOLY
 70
     0
  9
$TDCREATE
 40
2450392.957851
  9
$TDUPDATE
 40
2455505.390806
  9
$TDINDWG
 40
2.108696
  9
$TDUSRTIMER
 40
2.108696
  9
$USRTIMER
 70
     1
  9
$ANGBASE
 50
0.0
  9
$ANGDIR
 70
     0
  9
$PDMODE
 70
     0
  9
$PDSIZE
 40
0.0
  9
$PLINEWID
 40
0.0
  9
$COORDS
 70
     2
  9
$SPLFRAME
 70
     0
  9
$SPLINETYPE
 70
     6
  9
$SPLINESEGS
 70
     8
  9
$ATTDIA
 70
     0
  9
$ATTREQ
 70
     0
  9
$HANDLING
 70
     1
  9
$HANDSEED
  5
144
  9
$SURFTAB1
 70
    24
  9
$SURFTAB2
 70
    24
  9
$SURFTYPE
 70
     6
  9
$SURFU
 70
     6
  9
$SURFV
 70
     6
  9
$UCSNAME
  2

  9
$UCSORG
 10
0.0
 20
0.0
 30
0.0
  9
$UCSXDIR
 10
1.0
 20
0.0
 30
0.0
  9
$UCSYDIR
 10
0.0
 20
1.0
 30
0.0
  9
$PUCSNAME
  2

  9
$PUCSORG
 10
0.0
 20
0.0
 30
0.0
  9
$PUCSXDIR
 10
1.0
 20
0.0
 30
0.0
  9
$PUCSYDIR
 10
0.0
 20
1.0
 30
0.0
  9
$USERI1
 70
     0
  9
$USERI2
 70
     0
  9
$USERI3
 70
     0
  9
$USERI4
 70
     0
  9
$USERI5
 70
     0
  9
$USERR1
 40
0.0
  9
$USERR2
 40
0.0
  9
$USERR3
 40
0.0
  9
$USERR4
 40
0.0
  9
$USERR5
 40
0.0
  9
$WORLDVIEW
 70
     1
  9
$SHADEDGE
 70
     0
  9
$SHADEDIF
 70
    70
  9
$TILEMODE
 70
     1
  9
$MAXACTVP
 70
    16
  9
$PLIMCHECK
 70
     0
  9
$PEXTMIN
 10
-0.805942
 20
0.005011
 30
0.0
  9
$PEXTMAX
 10
20.250094
 20
11.356329
 30
0.0
  9
$PLIMMIN
 10
0.0
 20
0.0
  9
$PLIMMAX
 10
12.0
 20
9.0
  9
$UNITMODE
 70
     0
  9
$VISRETAIN
 70
     0
  9
$PLINEGEN
 70
     0
  9
$PSLTSCALE
 70
     0
  0
ENDSEC
  0
SECTION
  2
TABLES
  0
TABLE
  2
VPORT
 70
     2
  0
VPORT
  2
*ACTIVE
 70
     0
 10
0.0
 20
0.0
 11
1.0
 21
1.0
 12
100.08101
 22
182.662069
 13
0.0
 23
0.0
 14
1.0
 24
1.0
 15
50.0
 25
50.0
 16
0.0
 26
0.0
 36
1.0
 17
0.0
 27
0.0
 37
0.0
 40
610.935463
 41
1.865779
 42
50.0
 43
0.0
 44
0.0
 50
0.0
 51
0.0
 71
     0
 72
   100
 73
     1
 74
     1
 75
     0
 76
     0
 77
     0
 78
     0
  0
ENDTAB
  0
TABLE
  2
LTYPE
 70
     3
  0
LTYPE
  2
CONTINUOUS
 70
     0
  3
Solid Line
 72
    65
 73
     0
 40
0.0
  0
LTYPE
  2
31
 70
     0
  3

 72
    65
 73
     4
 40
2.1
 49
1.5
 49
-0.3
 49
0.0
 49
-0.3
  0
LTYPE
  2
22
 70
     0
  3

 72
    65
 73
     2
 40
1.4
 49
1.2
 49
-0.2
  0
ENDTAB
  0
TABLE
  2
LAYER
 70
    11
  0
LAYER
  2
0
 70
     0
 62
     7
  6
CONTINUOUS
  0
LAYER
  2
DEFPOINTS
 70
     0
 62
     7
  6
CONTINUOUS
  0
LAYER
  2
TEAM-BODY
 70
     0
 62
     2
  6
CONTINUOUS
  0
LAYER
  2
TEAM-AXE
 70
     0
 62
    10
  6
31
  0
LAYER
  2
TEAM-MAS
 70
     0
 62
     9
  6
CONTINUOUS
  0
LAYER
  2
TEAM-TXT
 70
     0
 62
    11
  6
CONTINUOUS
  0
LAYER
  2
TEAM-COLD
 70
     0
 62
     3
  6
CONTINUOUS
  0
LAYER
  2
TEAM-HIDE
 70
     0
 62
     8
  6
22
  0
LAYER
  2
TEAM-KAN
 70
     0
 62
     6
  6
CONTINUOUS
  0
LAYER
  2
TEAM-WARM
 70
     0
 62
     1
  6
CONTINUOUS
  0
LAYER
  2
TEAM-INSP
 70
     0
 62
     5
  6
CONTINUOUS
  0
ENDTAB
  0
TABLE
  2
STYLE
 70
     2
  0
STYLE
  2
STANDARD
 70
     0
 40
0.0
 41
1.0
 50
0.0
 71
     0
 42
200.0
  3
txt
  4

  0
STYLE
  2
TEAM
 70
     0
 40
0.0
 41
0.8
 50
15.0
 71
     0
 42
7.0
  3
ROMANS.shx
  4

  0
ENDTAB
  0
TABLE
  2
VIEW
 70
     0
  0
ENDTAB
  0
TABLE
  2
UCS
 70
     0
  0
ENDTAB
  0
TABLE
  2
APPID
 70
     1
  0
APPID
  2
ACAD
 70
     0
  0
ENDTAB
  0
TABLE
  2
DIMSTYLE
 70
     1
  0
DIMSTYLE
  2
TEAM
 70
     0
  3

  4

  5

  6

  7

 40
0.0
 41
20.0
 42
10.0
 43
1.0
 44
1.0
 45
0.0
 46
0.0
 47
0.0
 48
0.0
140
35.0
141
1.0
142
0.0
143
25.4
144
1.0
145
0.0
146
1.0
147
15.0
 71
     0
 72
     0
 73
     0
 74
     0
 75
     0
 76
     0
 77
     0
 78
     0
170
     0
171
     2
172
     0
173
     0
174
     0
175
     0
176
     9
177
     9
178
    11
  0
ENDTAB
  0
ENDSEC
  0
SECTION
  2
BLOCKS
  0
BLOCK
  8
0
  2
$MODEL_SPACE
 70
     0
 10
0.0
 20
0.0
 30
0.0
  3
$MODEL_SPACE
  1

  0
ENDBLK
  5
13D
  8
0
  0
BLOCK
 67
     1
  8
0
  2
$PAPER_SPACE
 70
     0
 10
0.0
 20
0.0
 30
0.0
  3
$PAPER_SPACE
  1

  0
ENDBLK
  5
13B
 67
     1
  8
0
  0
BLOCK
  8
0
  2
*D0
 70
     1
 10
0.0
 20
0.0
 30
0.0
  3
*D0
  1

  0
LINE
  5
85
  8
0
  6
BYBLOCK
 62
     9
 10
12120.0
 20
260310.0
 30
0.0
 11
12240.231123
 21
260310.0
 31
0.0
  0
LINE
  5
86
  8
0
  6
BYBLOCK
 62
     9
 10
12162.998834
 20
260400.0
 30
0.0
 11
12240.231123
 21
260400.0
 31
0.0
  0
LINE
  5
87
  8
0
  6
BYBLOCK
 62
     9
 10
12239.231123
 20
260330.0
 30
0.0
 11
12239.231123
 21
260380.0
 31
0.0
  0
TEXT
  5
88
  8
0
  6
BYBLOCK
 62
    11
 10
12256.066278
 20
260249.262885
 30
0.0
 40
35.0
  1
90
 50
90.0
  0
SOLID
  5
89
  8
0
  6
BYBLOCK
 62
     9
 10
12235.89779
 20
260330.0
 30
0.0
 11
12242.564457
 21
260330.0
 31
0.0
 12
12239.231123
 22
260310.0
 32
0.0
 13
12239.231123
 23
260310.0
 33
0.0
  0
SOLID
  5
8A
  8
0
  6
BYBLOCK
 62
     9
 10
12235.89779
 20
260380.0
 30
0.0
 11
12242.564457
 21
260380.0
 31
0.0
 12
12239.231123
 22
260400.0
 32
0.0
 13
12239.231123
 23
260400.0
 33
0.0
  0
POINT
  5
8B
  8
DEFPOINTS
  6
BYBLOCK
 62
     0
 10
12110.0
 20
260310.0
 30
0.0
  0
POINT
  5
8C
  8
DEFPOINTS
  6
BYBLOCK
 62
     0
 10
12152.998834
 20
260400.0
 30
0.0
  0
POINT
  5
8D
  8
DEFPOINTS
  6
BYBLOCK
 62
     0
 10
12239.231123
 20
260400.0
 30
0.0
  0
ENDBLK
  5
8F
  8
0
  0
BLOCK
  8
0
  2
*D1
 70
     1
 10
0.0
 20
0.0
 30
0.0
  3
*D1
  1

  0
LINE
  5
77
  8
0
  6
BYBLOCK
 62
     9
 10
12010.0
 20
260000.0
 30
0.0
 11
12355.066901
 21
260000.0
 31
0.0
  0
LINE
  5
78
  8
0
  6
BYBLOCK
 62
     9
 10
12205.0
 20
260400.0
 30
0.0
 11
12355.066901
 21
260400.0
 31
0.0
  0
LINE
  5
79
  8
0
  6
BYBLOCK
 62
     9
 10
12354.066901
 20
260020.0
 30
0.0
 11
12354.066901
 21
260151.73622
 31
0.0
  0
LINE
  5
7A
  8
0
  6
BYBLOCK
 62
     9
 10
12354.066901
 20
260380.0
 30
0.0
 11
12354.066901
 21
260248.26378
 31
0.0
  0
SOLID
  5
7B
  8
0
  6
BYBLOCK
 62
     9
 10
12350.733568
 20
260020.0
 30
0.0
 11
12357.400235
 21
260020.0
 31
0.0
 12
12354.066901
 22
260000.0
 32
0.0
 13
12354.066901
 23
260000.0
 33
0.0
  0
SOLID
  5
7C
  8
0
  6
BYBLOCK
 62
     9
 10
12350.733568
 20
260380.0
 30
0.0
 11
12357.400235
 21
260380.0
 31
0.0
 12
12354.066901
 22
260400.0
 32
0.0
 13
12354.066901
 23
260400.0
 33
0.0
  0
TEXT
  5
7D
  8
0
  6
BYBLOCK
 62
    11
 10
12371.566901
 20
260161.48622
 30
0.0
 40
35.0
  1
400
 50
90.0
  0
POINT
  5
7E
  8
DEFPOINTS
  6
BYBLOCK
 62
     0
 10
12000.0
 20
260000.0
 30
0.0
  0
POINT
  5
7F
  8
DEFPOINTS
  6
BYBLOCK
 62
     0
 10
12195.0
 20
260400.0
 30
0.0
  0
POINT
  5
80
  8
DEFPOINTS
  6
BYBLOCK
 62
     0
 10
12354.066901
 20
260400.0
 30
0.0
  0
ENDBLK
  5
82
  8
0
  0
BLOCK
  8
0
  2
*D2
 70
     1
 10
0.0
 20
0.0
 30
0.0
  3
*D2
  1

  0
LINE
  5
69
  8
0
  6
BYBLOCK
 62
     9
 10
12010.0
 20
260000.0
 30
0.0
 11
12409.639446
 21
260000.0
 31
0.0
  0
LINE
  5
6A
  8
0
  6
BYBLOCK
 62
     9
 10
12162.998834
 20
260415.0
 30
0.0
 11
12409.639446
 21
260415.0
 31
0.0
  0
LINE
  5
6B
  8
0
  6
BYBLOCK
 62
     9
 10
12408.639446
 20
260020.0
 30
0.0
 11
12408.639446
 21
260162.025126
 31
0.0
  0
LINE
  5
6C
  8
0
  6
BYBLOCK
 62
     9
 10
12408.639446
 20
260395.0
 30
0.0
 11
12408.639446
 21
260252.974874
 31
0.0
  0
SOLID
  5
6D
  8
0
  6
BYBLOCK
 62
     9
 10
12405.306113
 20
260020.0
 30
0.0
 11
12411.97278
 21
260020.0
 31
0.0
 12
12408.639446
 22
260000.0
 32
0.0
 13
12408.639446
 23
260000.0
 33
0.0
  0
SOLID
  5
6E
  8
0
  6
BYBLOCK
 62
     9
 10
12405.306113
 20
260395.0
 30
0.0
 11
12411.97278
 21
260395.0
 31
0.0
 12
12408.639446
 22
260415.0
 32
0.0
 13
12408.639446
 23
260415.0
 33
0.0
  0
TEXT
  5
6F
  8
0
  6
BYBLOCK
 62
    11
 10
12426.139446
 20
260171.775126
 30
0.0
 40
35.0
  1
415
 50
90.0
  0
POINT
  5
70
  8
DEFPOINTS
  6
BYBLOCK
 62
     0
 10
12000.0
 20
260000.0
 30
0.0
  0
POINT
  5
71
  8
DEFPOINTS
  6
BYBLOCK
 62
     0
 10
12152.998834
 20
260415.0
 30
0.0
  0
POINT
  5
72
  8
DEFPOINTS
  6
BYBLOCK
 62
     0
 10
12408.639446
 20
260415.0
 30
0.0
  0
ENDBLK
  5
74
  8
0
  0
BLOCK
  8
0
  2
*D3
 70
     1
 10
0.0
 20
0.0
 30
0.0
  3
*D3
  1

  0
LINE
  5
5B
  8
0
  6
BYBLOCK
 62
     9
 10
12010.909483
 20
260045.000301
 30
0.0
 11
12296.700519
 21
260045.000301
 31
0.0
  0
LINE
  5
5C
  8
0
  6
BYBLOCK
 62
     9
 10
12162.998834
 20
260400.0
 30
0.0
 11
12296.700519
 21
260400.0
 31
0.0
  0
LINE
  5
5D
  8
0
  6
BYBLOCK
 62
     9
 10
12295.700519
 20
260065.000301
 30
0.0
 11
12295.700519
 21
260175.275277
 31
0.0
  0
LINE
  5
5E
  8
0
  6
BYBLOCK
 62
     9
 10
12295.700519
 20
260380.0
 30
0.0
 11
12295.700519
 21
260269.725024
 31
0.0
  0
SOLID
  5
5F
  8
0
  6
BYBLOCK
 62
     9
 10
12292.367185
 20
260065.000301
 30
0.0
 11
12299.033852
 21
260065.000301
 31
0.0
 12
12295.700519
 22
260045.000301
 32
0.0
 13
12295.700519
 23
260045.000301
 33
0.0
  0
SOLID
  5
60
  8
0
  6
BYBLOCK
 62
     9
 10
12292.367185
 20
260380.0
 30
0.0
 11
12299.033852
 21
260380.0
 31
0.0
 12
12295.700519
 22
260400.0
 32
0.0
 13
12295.700519
 23
260400.0
 33
0.0
  0
TEXT
  5
61
  8
0
  6
BYBLOCK
 62
    11
 10
12313.200519
 20
260185.025277
 30
0.0
 40
35.0
  1
355
 50
90.0
  0
POINT
  5
62
  8
DEFPOINTS
  6
BYBLOCK
 62
     0
 10
12000.909483
 20
260045.000301
 30
0.0
  0
POINT
  5
63
  8
DEFPOINTS
  6
BYBLOCK
 62
     0
 10
12152.998834
 20
260400.0
 30
0.0
  0
POINT
  5
64
  8
DEFPOINTS
  6
BYBLOCK
 62
     0
 10
12295.700519
 20
260400.0
 30
0.0
  0
ENDBLK
  5
66
  8
0
  0
BLOCK
  8
0
  2
*D4
 70
     1
 10
0.0
 20
0.0
 30
0.0
  3
*D4
  1

  0
LINE
  5
4D
  8
0
  6
BYBLOCK
 62
     9
 10
11910.0
 20
260340.0
 30
0.0
 11
11910.0
 21
260471.464739
 31
0.0
  0
LINE
  5
4E
  8
0
  6
BYBLOCK
 62
     9
 10
12090.0
 20
260340.0
 30
0.0
 11
12090.0
 21
260471.464739
 31
0.0
  0
LINE
  5
4F
  8
0
  6
BYBLOCK
 62
     9
 10
11930.0
 20
260470.464739
 30
0.0
 11
11956.98622
 21
260470.464739
 31
0.0
  0
LINE
  5
50
  8
0
  6
BYBLOCK
 62
     9
 10
12070.0
 20
260470.464739
 30
0.0
 11
12043.01378
 21
260470.464739
 31
0.0
  0
SOLID
  5
51
  8
0
  6
BYBLOCK
 62
     9
 10
11930.0
 20
260473.798073
 30
0.0
 11
11930.0
 21
260467.131406
 31
0.0
 12
11910.0
 22
260470.464739
 32
0.0
 13
11910.0
 23
260470.464739
 33
0.0
  0
SOLID
  5
52
  8
0
  6
BYBLOCK
 62
     9
 10
12070.0
 20
260473.798073
 30
0.0
 11
12070.0
 21
260467.131406
 31
0.0
 12
12090.0
 22
260470.464739
 32
0.0
 13
12090.0
 23
260470.464739
 33
0.0
  0
TEXT
  5
53
  8
0
  6
BYBLOCK
 62
    11
 10
11966.73622
 20
260452.964739
 30
0.0
 40
35.0
  1
180
  0
POINT
  5
54
  8
DEFPOINTS
  6
BYBLOCK
 62
     0
 10
11910.0
 20
260330.0
 30
0.0
  0
POINT
  5
55
  8
DEFPOINTS
  6
BYBLOCK
 62
     0
 10
12090.0
 20
260330.0
 30
0.0
  0
POINT
  5
56
  8
DEFPOINTS
  6
BYBLOCK
 62
     0
 10
12090.0
 20
260470.464739
 30
0.0
  0
ENDBLK
  5
58
  8
0
  0
BLOCK
  8
0
  2
*D5
 70
     1
 10
0.0
 20
0.0
 30
0.0
  3
*D5
  1

  0
LINE
  5
3F
  8
0
  6
BYBLOCK
 62
     9
 10
11990.0
 20
260000.0
 30
0.0
 11
11849.900407
 21
260000.0
 31
0.0
  0
LINE
  5
40
  8
0
  6
BYBLOCK
 62
     9
 10
11960.0
 20
260120.0
 30
0.0
 11
11849.900407
 21
260120.0
 31
0.0
  0
LINE
  5
41
  8
0
  6
BYBLOCK
 62
     9
 10
11850.900407
 20
260020.0
 30
0.0
 11
11850.900407
 21
260035.0
 31
0.0
  0
LINE
  5
42
  8
0
  6
BYBLOCK
 62
     9
 10
11850.900407
 20
260100.0
 30
0.0
 11
11850.900407
 21
260085.0
 31
0.0
  0
TEXT
  5
43
  8
0
  6
BYBLOCK
 62
    11
 10
11868.400407
 20
260026.73622
 30
0.0
 40
35.0
  1
120
 50
90.0
  0
SOLID
  5
44
  8
0
  6
BYBLOCK
 62
     9
 10
11847.567074
 20
260020.0
 30
0.0
 11
11854.23374
 21
260020.0
 31
0.0
 12
11850.900407
 22
260000.0
 32
0.0
 13
11850.900407
 23
260000.0
 33
0.0
  0
SOLID
  5
45
  8
0
  6
BYBLOCK
 62
     9
 10
11847.567074
 20
260100.0
 30
0.0
 11
11854.23374
 21
260100.0
 31
0.0
 12
11850.900407
 22
260120.0
 32
0.0
 13
11850.900407
 23
260120.0
 33
0.0
  0
POINT
  5
46
  8
DEFPOINTS
  6
BYBLOCK
 62
     0
 10
12000.0
 20
260000.0
 30
0.0
  0
POINT
  5
47
  8
DEFPOINTS
  6
BYBLOCK
 62
     0
 10
11970.0
 20
260120.0
 30
0.0
  0
POINT
  5
48
  8
DEFPOINTS
  6
BYBLOCK
 62
     0
 10
11850.900407
 20
260120.0
 30
0.0
  0
ENDBLK
  5
4A
  8
0
  0
BLOCK
  8
0
  2
*D6
 70
     1
 10
0.0
 20
0.0
 30
0.0
  3
*D6
  1

  0
LINE
  5
31
  8
0
  6
BYBLOCK
 62
     9
 10
11990.0
 20
260000.0
 30
0.0
 11
11793.119055
 21
260000.0
 31
0.0
  0
LINE
  5
32
  8
0
  6
BYBLOCK
 62
     9
 10
11930.0
 20
260215.0
 30
0.0
 11
11793.119055
 21
260215.0
 31
0.0
  0
LINE
  5
33
  8
0
  6
BYBLOCK
 62
     9
 10
11794.119055
 20
260020.0
 30
0.0
 11
11794.119055
 21
260063.330737
 31
0.0
  0
LINE
  5
34
  8
0
  6
BYBLOCK
 62
     9
 10
11794.119055
 20
260195.0
 30
0.0
 11
11794.119055
 21
260151.669263
 31
0.0
  0
TEXT
  5
35
  8
0
  6
BYBLOCK
 62
    11
 10
11811.619055
 20
260073.969516
 30
0.0
 40
35.0
  1
215
 50
90.0
  0
SOLID
  5
36
  8
0
  6
BYBLOCK
 62
     9
 10
11790.785722
 20
260020.0
 30
0.0
 11
11797.452389
 21
260020.0
 31
0.0
 12
11794.119055
 22
260000.0
 32
0.0
 13
11794.119055
 23
260000.0
 33
0.0
  0
SOLID
  5
37
  8
0
  6
BYBLOCK
 62
     9
 10
11790.785722
 20
260195.0
 30
0.0
 11
11797.452389
 21
260195.0
 31
0.0
 12
11794.119055
 22
260215.0
 32
0.0
 13
11794.119055
 23
260215.0
 33
0.0
  0
POINT
  5
38
  8
DEFPOINTS
  6
BYBLOCK
 62
     0
 10
12000.0
 20
260000.0
 30
0.0
  0
POINT
  5
39
  8
DEFPOINTS
  6
BYBLOCK
 62
     0
 10
11940.0
 20
260215.0
 30
0.0
  0
POINT
  5
3A
  8
DEFPOINTS
  6
BYBLOCK
 62
     0
 10
11794.119055
 20
260215.0
 30
0.0
  0
ENDBLK
  5
3C
  8
0
  0
BLOCK
  8
0
  2
*D7
 70
     1
 10
0.0
 20
0.0
 30
0.0
  3
*D7
  1

  0
LINE
  5
22
  8
0
  6
BYBLOCK
 62
     9
 10
11940.0
 20
260189.0
 30
0.0
 11
11940.0
 21
259893.828189
 31
0.0
  0
LINE
  5
23
  8
0
  6
BYBLOCK
 62
     9
 10
12060.0
 20
260189.0
 30
0.0
 11
12060.0
 21
259893.828189
 31
0.0
  0
LINE
  5
24
  8
0
  6
BYBLOCK
 62
     9
 10
11960.0
 20
259894.828189
 30
0.0
 11
11975.0
 21
259894.828189
 31
0.0
  0
LINE
  5
25
  8
0
  6
BYBLOCK
 62
     9
 10
12040.0
 20
259894.828189
 30
0.0
 11
12025.0
 21
259894.828189
 31
0.0
  0
TEXT
  5
26
  8
0
  6
BYBLOCK
 62
    11
 10
11966.73622
 20
259877.328189
 30
0.0
 40
35.0
  1
120
  0
SOLID
  5
27
  8
0
  6
BYBLOCK
 62
     9
 10
11960.0
 20
259898.161522
 30
0.0
 11
11960.0
 21
259891.494856
 31
0.0
 12
11940.0
 22
259894.828189
 32
0.0
 13
11940.0
 23
259894.828189
 33
0.0
  0
SOLID
  5
28
  8
0
  6
BYBLOCK
 62
     9
 10
12040.0
 20
259898.161522
 30
0.0
 11
12040.0
 21
259891.494856
 31
0.0
 12
12060.0
 22
259894.828189
 32
0.0
 13
12060.0
 23
259894.828189
 33
0.0
  0
POINT
  5
29
  8
DEFPOINTS
  6
BYBLOCK
 62
     0
 10
11940.0
 20
260199.0
 30
0.0
  0
POINT
  5
2B
  8
DEFPOINTS
  6
BYBLOCK
 62
     0
 10
12060.0
 20
260199.0
 30
0.0
  0
POINT
  5
2C
  8
DEFPOINTS
  6
BYBLOCK
 62
     0
 10
12060.0
 20
259894.828189
 30
0.0
  0
ENDBLK
  5
2E
  8
0
  0
ENDSEC
  0
SECTION
  2
ENTITIES
  0
DIMENSION
  5
20
  8
TEAM-MAS
  2
*D7
 10
60.0
 20
-105.171811
 30
0.0
 11
0.0
 21
-105.171811
 31
0.0
 12
-12000.0
 22
-260000.0
 32
0.0
 70
   128
 13
-60.0
 23
199.0
 33
0.0
 14
60.0
 24
199.0
 34
0.0
1001
ACAD
1000
DSTYLE
1002
{
1070
    40
1040
1.0
1002
}
  0
DIMENSION
  5
2F
  8
TEAM-MAS
  2
*D6
 10
-205.880945
 20
215.0
 30
0.0
 11
-205.880945
 21
107.5
 31
0.0
 12
-12000.0
 22
-260000.0
 32
0.0
 70
   128
 13
0.0
 23
0.0
 33
0.0
 14
-60.0
 24
215.0
 34
0.0
 50
90.0
1001
ACAD
1000
DSTYLE
1002
{
1070
    40
1040
1.0
1002
}
  0
DIMENSION
  5
3D
  8
TEAM-MAS
  2
*D5
 10
-149.099593
 20
120.0
 30
0.0
 11
-149.099593
 21
60.0
 31
0.0
 12
-12000.0
 22
-260000.0
 32
0.0
 70
   128
 13
0.0
 23
0.0
 33
0.0
 14
-30.0
 24
120.0
 34
0.0
 50
90.0
1001
ACAD
1000
DSTYLE
1002
{
1070
    40
1040
1.0
1002
}
  0
DIMENSION
  5
4B
  8
TEAM-MAS
  2
*D4
 10
90.0
 20
470.464739
 30
0.0
 11
0.0
 21
470.464739
 31
0.0
 12
-12000.0
 22
-260000.0
 32
0.0
 13
-90.0
 23
330.0
 33
0.0
 14
90.0
 24
330.0
 34
0.0
1001
ACAD
1000
DSTYLE
1002
{
1070
    40
1040
1.0
1002
}
  0
DIMENSION
  5
59
  8
TEAM-MAS
  2
*D3
 10
295.700519
 20
400.0
 30
0.0
 11
295.700519
 21
222.50015
 31
0.0
 12
-12000.0
 22
-260000.0
 32
0.0
 13
0.909482
 23
45.000301
 33
0.0
 14
152.998834
 24
400.0
 34
0.0
 50
90.0
1001
ACAD
1000
DSTYLE
1002
{
1070
    40
1040
1.0
1002
}
  0
DIMENSION
  5
67
  8
TEAM-MAS
  2
*D2
 10
408.639446
 20
415.0
 30
0.0
 11
408.639446
 21
207.5
 31
0.0
 12
-12000.0
 22
-260000.0
 32
0.0
 13
0.0
 23
0.0
 33
0.0
 14
152.998834
 24
415.0
 34
0.0
 50
90.0
1001
ACAD
1000
DSTYLE
1002
{
1070
    40
1040
1.0
1002
}
  0
DIMENSION
  5
75
  8
TEAM-MAS
  2
*D1
 10
354.066901
 20
400.0
 30
0.0
 11
354.066901
 21
200.0
 31
0.0
 12
-12000.0
 22
-260000.0
 32
0.0
 13
0.0
 23
0.0
 33
0.0
 14
195.0
 24
400.0
 34
0.0
 50
90.0
1001
ACAD
1000
DSTYLE
1002
{
1070
    40
1040
1.0
1002
}
  0
DIMENSION
  5
83
  8
TEAM-MAS
  2
*D0
 10
239.231123
 20
400.0
 30
0.0
 11
238.566278
 21
273.174093
 31
0.0
 12
-12000.0
 22
-260000.0
 32
0.0
 70
   128
 13
110.0
 23
310.0
 33
0.0
 14
152.998834
 24
400.0
 34
0.0
 50
90.0
1001
ACAD
1000
DSTYLE
1002
{
1070
    40
1040
1.0
1002
}
  0
LINE
  5
90
  8
TEAM-AXE
 10
55.0
 20
215.0
 30
0.0
 11
44.0
 21
215.0
 31
0.0
  0
LINE
  5
93
  8
TEAM-AXE
 10
60.0
 20
220.0
 30
0.0
 11
60.0
 21
231.0
 31
0.0
  0
CIRCLE
  5
94
  8
TEAM-COLD
 10
60.0
 20
215.0
 30
0.0
 40
7.0
  0
LINE
  5
96
  8
TEAM-AXE
 10
60.0
 20
210.0
 30
0.0
 11
60.0
 21
199.0
 31
0.0
  0
LINE
  5
97
  8
TEAM-AXE
 10
65.0
 20
215.0
 30
0.0
 11
76.0
 21
215.0
 31
0.0
  0
LINE
  5
98
  8
TEAM-AXE
 10
0.0
 20
120.0
 30
0.0
 11
0.0
 21
90.0
 31
0.0
  0
LINE
  5
99
  8
TEAM-AXE
 10
0.0
 20
120.0
 30
0.0
 11
-30.0
 21
120.0
 31
0.0
  0
LINE
  5
9A
  8
TEAM-AXE
 10
0.0
 20
120.0
 30
0.0
 11
30.0
 21
120.0
 31
0.0
  0
CIRCLE
  5
9B
  8
TEAM-KAN
 10
0.0
 20
120.0
 30
0.0
 40
20.0
  0
LINE
  5
9D
  8
TEAM-AXE
 10
0.0
 20
120.0
 30
0.0
 11
0.0
 21
150.0
 31
0.0
  0
LINE
  5
9E
  8
TEAM-AXE
 10
-60.0
 20
220.0
 30
0.0
 11
-60.0
 21
231.0
 31
0.0
  0
CIRCLE
  5
9F
  8
TEAM-WARM
 10
-60.0
 20
215.0
 30
0.0
 40
7.0
  0
LINE
  5
A1
  8
TEAM-AXE
 10
-60.0
 20
210.0
 30
0.0
 11
-60.0
 21
199.0
 31
0.0
  0
LINE
  5
A2
  8
TEAM-AXE
 10
-65.0
 20
215.0
 30
0.0
 11
-76.0
 21
215.0
 31
0.0
  0
LINE
  5
A3
  8
TEAM-AXE
 10
-55.0
 20
215.0
 30
0.0
 11
-44.0
 21
215.0
 31
0.0
  0
LINE
  5
A4
  8
TEAM-BODY
 10
195.0
 20
415.0
 30
0.0
 11
-195.0
 21
415.0
 31
0.0
  0
TEXT
  5
A6
  8
TEAM-TXT
 10
-134.374668
 20
239.545129
 30
0.0
 40
30.0
  1
team 227029
 41
0.8
 51
15.0
  7
TEAM
  0
ARC
  5
A9
  8
TEAM-BODY
 10
375.081384
 20
424.647598
 30
0.0
 40
570.613957
 50
182.475654
 51
221.707743
  0
LINE
  5
AA
  8
TEAM-AXE
 10
-90.0
 20
310.0
 30
0.0
 11
-70.0
 21
310.0
 31
0.0
  0
LINE
  5
AB
  8
TEAM-HIDE
 10
-93.0
 20
320.0
 30
0.0
 11
-96.0
 21
320.0
 31
0.0
  0
LINE
  5
AE
  8
TEAM-AXE
 10
-90.0
 20
310.0
 30
0.0
 11
-110.0
 21
310.0
 31
0.0
  0
LINE
  5
AF
  8
TEAM-AXE
 10
-90.0
 20
310.0
 30
0.0
 11
-90.0
 21
330.0
 31
0.0
  0
LINE
  5
B0
  8
TEAM-HIDE
 10
-93.0
 20
300.0
 30
0.0
 11
-96.0
 21
300.0
 31
0.0
  0
LINE
  5
B1
  8
TEAM-AXE
 10
-90.0
 20
310.0
 30
0.0
 11
-90.0
 21
290.0
 31
0.0
  0
ARC
  5
B2
  8
TEAM-HIDE
 10
-96.0
 20
310.0
 30
0.0
 40
10.0
 50
90.0
 51
270.0
  0
LINE
  5
B3
  8
TEAM-HIDE
 10
-84.0
 20
320.0
 30
0.0
 11
-87.0
 21
320.0
 31
0.0
  0
LINE
  5
B4
  8
TEAM-HIDE
 10
-84.0
 20
300.0
 30
0.0
 11
-87.0
 21
300.0
 31
0.0
  0
ARC
  5
B5
  8
TEAM-HIDE
 10
-84.0
 20
310.0
 30
0.0
 40
10.0
 50
270.0
 51
90.0
  0
ARC
  5
B6
  8
TEAM-BODY
 10
-375.081384
 20
424.647598
 30
0.0
 40
570.613957
 50
318.292257
 51
357.524346
  0
LINE
  5
B7
  8
TEAM-AXE
 10
90.0
 20
310.0
 30
0.0
 11
110.0
 21
310.0
 31
0.0
  0
LINE
  5
B8
  8
TEAM-HIDE
 10
87.0
 20
320.0
 30
0.0
 11
84.0
 21
320.0
 31
0.0
  0
LINE
  5
B9
  8
TEAM-HIDE
 10
96.0
 20
320.0
 30
0.0
 11
93.0
 21
320.0
 31
0.0
  0
LINE
  5
BA
  8
TEAM-AXE
 10
90.0
 20
310.0
 30
0.0
 11
70.0
 21
310.0
 31
0.0
  0
LINE
  5
BB
  8
TEAM-AXE
 10
90.0
 20
310.0
 30
0.0
 11
90.0
 21
330.0
 31
0.0
  0
LINE
  5
BC
  8
TEAM-HIDE
 10
87.0
 20
300.0
 30
0.0
 11
84.0
 21
300.0
 31
0.0
  0
LINE
  5
BD
  8
TEAM-HIDE
 10
96.0
 20
300.0
 30
0.0
 11
93.0
 21
300.0
 31
0.0
  0
LINE
  5
BE
  8
TEAM-AXE
 10
90.0
 20
310.0
 30
0.0
 11
90.0
 21
290.0
 31
0.0
  0
ARC
  5
BF
  8
TEAM-HIDE
 10
96.0
 20
310.0
 30
0.0
 40
10.0
 50
270.0
 51
90.0
  0
ARC
  5
C0
  8
TEAM-HIDE
 10
84.0
 20
310.0
 30
0.0
 40
10.0
 50
90.0
 51
270.0
  0
LINE
  5
C1
  8
TEAM-BODY
 10
-49.090518
 20
45.000301
 30
0.0
 11
50.909482
 21
45.000301
 31
0.0
  0
LINE
  5
C2
  8
TEAM-BODY
 10
195.0
 20
400.0
 30
0.0
 11
-195.0
 21
400.0
 31
0.0
  0
LINE
  5
C3
  8
TEAM-BODY
 10
-195.0
 20
400.0
 30
0.0
 11
-195.0
 21
415.0
 31
0.0
  0
LINE
  5
C4
  8
TEAM-BODY
 10
195.0
 20
400.0
 30
0.0
 11
195.0
 21
415.0
 31
0.0
  0
CIRCLE
  5
C5
  8
TEAM-INSP
 10
0.0
 20
0.0
 30
0.0
 40
10.0
  0
ENDSEC
  0
EOF
