  0
SECTION
  2
HEADER
  9
$ACADVER
  1
AC1009
  9
$INSBASE
 10
0.0
 20
0.0
 30
0.0
  9
$EXTMIN
 10
-346.255542
 20
-56.558678
 30
-0.000305
  9
$EXTMAX
 10
230.787286
 20
480.012651
 30
10.000305
  9
$LIMMIN
 10
-346.255542
 20
-56.558678
  9
$LIMMAX
 10
230.787286
 20
480.012651
  9
$ORTHOMODE
 70
     1
  9
$REGENMODE
 70
     1
  9
$FILLMODE
 70
     1
  9
$QTEXTMODE
 70
     0
  9
$MIRRTEXT
 70
     0
  9
$DRAGMODE
 70
     2
  9
$LTSCALE
 40
25.0
  9
$OSMODE
 70
     0
  9
$ATTMODE
 70
     1
  9
$TEXTSIZE
 40
200.0
  9
$TRACEWID
 40
1.0
  9
$TEXTSTYLE
  7
STANDARD
  9
$CLAYER
  8
TEAM-MAS
  9
$CELTYPE
  6
BYLAYER
  9
$CECOLOR
 62
   256
  9
$DIMSCALE
 40
1.0
  9
$DIMASZ
 40
20.0
  9
$DIMEXO
 40
10.0
  9
$DIMDLI
 40
1.0
  9
$DIMRND
 40
0.0
  9
$DIMDLE
 40
0.0
  9
$DIMEXE
 40
1.0
  9
$DIMTP
 40
0.0
  9
$DIMTM
 40
0.0
  9
$DIMTXT
 40
35.0
  9
$DIMCEN
 40
1.0
  9
$DIMTSZ
 40
0.0
  9
$DIMTOL
 70
     0
  9
$DIMLIM
 70
     0
  9
$DIMTIH
 70
     0
  9
$DIMTOH
 70
     0
  9
$DIMSE1
 70
     0
  9
$DIMSE2
 70
     0
  9
$DIMTAD
 70
     0
  9
$DIMZIN
 70
     0
  9
$DIMBLK
  1

  9
$DIMASO
 70
     1
  9
$DIMSHO
 70
     0
  9
$DIMPOST
  1

  9
$DIMAPOST
  1

  9
$DIMALT
 70
     0
  9
$DIMALTD
 70
     2
  9
$DIMALTF
 40
25.4
  9
$DIMLFAC
 40
1.0
  9
$DIMTOFL
 70
     0
  9
$DIMTVP
 40
0.0
  9
$DIMTIX
 70
     0
  9
$DIMSOXD
 70
     0
  9
$DIMSAH
 70
     0
  9
$DIMBLK1
  1

  9
$DIMBLK2
  1

  9
$DIMSTYLE
  2
TEAM
  9
$DIMCLRD
 70
     9
  9
$DIMCLRE
 70
     9
  9
$DIMCLRT
 70
    11
  9
$DIMTFAC
 40
1.0
  9
$DIMGAP
 40
15.0
  9
$LUNITS
 70
     2
  9
$LUPREC
 70
     1
  9
$SKETCHINC
 40
1.0
  9
$FILLETRAD
 40
30.0
  9
$AUNITS
 70
     0
  9
$AUPREC
 70
     0
  9
$MENU
  1
ROPLANS
  9
$ELEVATION
 40
0.0
  9
$PELEVATION
 40
0.0
  9
$THICKNESS
 40
0.0
  9
$LIMCHECK
 70
     0
  9
$BLIPMODE
 70
     1
  9
$CHAMFERA
 40
0.0
  9
$CHAMFERB
 40
0.0
  9
$SKPOLY
 70
     0
  9
$TDCREATE
 40
2450392.957851
  9
$TDUPDATE
 40
2455538.898483
  9
$TDINDWG
 40
2.647184
  9
$TDUSRTIMER
 40
2.647184
  9
$USRTIMER
 70
     1
  9
$ANGBASE
 50
0.0
  9
$ANGDIR
 70
     0
  9
$PDMODE
 70
     0
  9
$PDSIZE
 40
0.0
  9
$PLINEWID
 40
0.0
  9
$COORDS
 70
     2
  9
$SPLFRAME
 70
     0
  9
$SPLINETYPE
 70
     6
  9
$SPLINESEGS
 70
     8
  9
$ATTDIA
 70
     0
  9
$ATTREQ
 70
     0
  9
$HANDLING
 70
     1
  9
$HANDSEED
  5
144
  9
$SURFTAB1
 70
    24
  9
$SURFTAB2
 70
    24
  9
$SURFTYPE
 70
     6
  9
$SURFU
 70
     6
  9
$SURFV
 70
     6
  9
$UCSNAME
  2

  9
$UCSORG
 10
0.0
 20
0.0
 30
0.0
  9
$UCSXDIR
 10
1.0
 20
0.0
 30
0.0
  9
$UCSYDIR
 10
0.0
 20
1.0
 30
0.0
  9
$PUCSNAME
  2

  9
$PUCSORG
 10
0.0
 20
0.0
 30
0.0
  9
$PUCSXDIR
 10
1.0
 20
0.0
 30
0.0
  9
$PUCSYDIR
 10
0.0
 20
1.0
 30
0.0
  9
$USERI1
 70
     0
  9
$USERI2
 70
     0
  9
$USERI3
 70
     0
  9
$USERI4
 70
     0
  9
$USERI5
 70
     0
  9
$USERR1
 40
0.0
  9
$USERR2
 40
0.0
  9
$USERR3
 40
0.0
  9
$USERR4
 40
0.0
  9
$USERR5
 40
0.0
  9
$WORLDVIEW
 70
     1
  9
$SHADEDGE
 70
     0
  9
$SHADEDIF
 70
    70
  9
$TILEMODE
 70
     1
  9
$MAXACTVP
 70
    16
  9
$PLIMCHECK
 70
     0
  9
$PEXTMIN
 10
-0.805942
 20
0.005011
 30
0.0
  9
$PEXTMAX
 10
20.250094
 20
11.356329
 30
0.0
  9
$PLIMMIN
 10
0.0
 20
0.0
  9
$PLIMMAX
 10
12.0
 20
9.0
  9
$UNITMODE
 70
     0
  9
$VISRETAIN
 70
     0
  9
$PLINEGEN
 70
     0
  9
$PSLTSCALE
 70
     0
  0
ENDSEC
  0
SECTION
  2
TABLES
  0
TABLE
  2
VPORT
 70
     2
  0
VPORT
  2
*ACTIVE
 70
     0
 10
0.0
 20
0.0
 11
1.0
 21
1.0
 12
-57.734128
 22
211.726987
 13
0.0
 23
0.0
 14
1.0
 24
1.0
 15
50.0
 25
50.0
 16
0.0
 26
0.0
 36
1.0
 17
0.0
 27
0.0
 37
0.0
 40
539.866547
 41
1.865779
 42
50.0
 43
0.0
 44
0.0
 50
0.0
 51
0.0
 71
     0
 72
   100
 73
     1
 74
     1
 75
     0
 76
     0
 77
     0
 78
     0
  0
ENDTAB
  0
TABLE
  2
LTYPE
 70
     2
  0
LTYPE
  2
CONTINUOUS
 70
     0
  3
Solid Line
 72
    65
 73
     0
 40
0.0
  0
LTYPE
  2
22
 70
     0
  3

 72
    65
 73
     2
 40
1.4
 49
1.2
 49
-0.2
  0
ENDTAB
  0
TABLE
  2
LAYER
 70
    11
  0
LAYER
  2
0
 70
     0
 62
     7
  6
CONTINUOUS
  0
LAYER
  2
DEFPOINTS
 70
     0
 62
     7
  6
CONTINUOUS
  0
LAYER
  2
TEAM-BODY
 70
     0
 62
     2
  6
CONTINUOUS
  0
LAYER
  2
TEAM-MAS
 70
     0
 62
     9
  6
CONTINUOUS
  0
LAYER
  2
TEAM-TXT
 70
     0
 62
    11
  6
CONTINUOUS
  0
LAYER
  2
TEAM-DET1
 70
     0
 62
     4
  6
CONTINUOUS
  0
LAYER
  2
TEAM-COLD
 70
     0
 62
     3
  6
CONTINUOUS
  0
LAYER
  2
TEAM-HIDE
 70
     0
 62
     8
  6
22
  0
LAYER
  2
TEAM-KAN
 70
     0
 62
     6
  6
CONTINUOUS
  0
LAYER
  2
TEAM-WARM
 70
     0
 62
     1
  6
CONTINUOUS
  0
LAYER
  2
TEAM-INSP
 70
     0
 62
     5
  6
CONTINUOUS
  0
ENDTAB
  0
TABLE
  2
STYLE
 70
     2
  0
STYLE
  2
STANDARD
 70
     0
 40
0.0
 41
1.0
 50
0.0
 71
     0
 42
200.0
  3
txt
  4

  0
STYLE
  2
TEAM
 70
     0
 40
0.0
 41
0.8
 50
15.0
 71
     0
 42
7.0
  3
ROMANS.shx
  4

  0
ENDTAB
  0
TABLE
  2
VIEW
 70
     0
  0
ENDTAB
  0
TABLE
  2
UCS
 70
     0
  0
ENDTAB
  0
TABLE
  2
APPID
 70
     1
  0
APPID
  2
ACAD
 70
     0
  0
ENDTAB
  0
TABLE
  2
DIMSTYLE
 70
     1
  0
DIMSTYLE
  2
TEAM
 70
     0
  3

  4

  5

  6

  7

 40
1.0
 41
20.0
 42
10.0
 43
1.0
 44
1.0
 45
0.0
 46
0.0
 47
0.0
 48
0.0
140
35.0
141
1.0
142
0.0
143
25.4
144
1.0
145
0.0
146
1.0
147
15.0
 71
     0
 72
     0
 73
     0
 74
     0
 75
     0
 76
     0
 77
     0
 78
     0
170
     0
171
     2
172
     0
173
     0
174
     0
175
     0
176
     9
177
     9
178
    11
  0
ENDTAB
  0
ENDSEC
  0
SECTION
  2
BLOCKS
  0
BLOCK
  8
0
  2
$MODEL_SPACE
 70
     0
 10
0.0
 20
0.0
 30
0.0
  3
$MODEL_SPACE
  1

  0
ENDBLK
  5
11B
  8
0
  0
BLOCK
 67
     1
  8
0
  2
$PAPER_SPACE
 70
     0
 10
0.0
 20
0.0
 30
0.0
  3
$PAPER_SPACE
  1

  0
ENDBLK
  5
119
 67
     1
  8
0
  0
BLOCK
  8
0
  2
*D0
 70
     1
 10
0.0
 20
0.0
 30
0.0
  3
*D0
  1

  0
LINE
  5
3F
  8
0
  6
BYBLOCK
 62
     9
 10
7960.0
 20
28150.0
 30
0.0
 11
7960.0
 21
27958.221475
 31
0.0
  0
LINE
  5
40
  8
0
  6
BYBLOCK
 62
     9
 10
8040.0
 20
28150.0
 30
0.0
 11
8040.0
 21
27958.221475
 31
0.0
  0
LINE
  5
41
  8
0
  6
BYBLOCK
 62
     9
 10
7980.0
 20
27959.221475
 30
0.0
 11
7995.0
 21
27959.221475
 31
0.0
  0
LINE
  5
42
  8
0
  6
BYBLOCK
 62
     9
 10
8020.0
 20
27959.221475
 30
0.0
 11
8005.0
 21
27959.221475
 31
0.0
  0
TEXT
  5
43
  8
0
  6
BYBLOCK
 62
    11
 10
7975.48622
 20
27941.721475
 30
0.0
 40
35.0
  1
80
  0
SOLID
  5
44
  8
0
  6
BYBLOCK
 62
     9
 10
7980.0
 20
27962.554808
 30
0.0
 11
7980.0
 21
27955.888141
 31
0.0
 12
7960.0
 22
27959.221475
 32
0.0
 13
7960.0
 23
27959.221475
 33
0.0
  0
SOLID
  5
45
  8
0
  6
BYBLOCK
 62
     9
 10
8020.0
 20
27962.554808
 30
0.0
 11
8020.0
 21
27955.888141
 31
0.0
 12
8040.0
 22
27959.221475
 32
0.0
 13
8040.0
 23
27959.221475
 33
0.0
  0
POINT
  5
46
  8
DEFPOINTS
  6
BYBLOCK
 62
     0
 10
7960.0
 20
28160.0
 30
0.0
  0
POINT
  5
47
  8
DEFPOINTS
  6
BYBLOCK
 62
     0
 10
8040.0
 20
28160.0
 30
0.0
  0
POINT
  5
48
  8
DEFPOINTS
  6
BYBLOCK
 62
     0
 10
8040.0
 20
27959.221475
 30
10.0
  0
ENDBLK
  5
4A
  8
0
  0
BLOCK
  8
0
  2
*D1
 70
     1
 10
0.0
 20
0.0
 30
0.0
  3
*D1
  1

  0
LINE
  5
22
  8
0
  6
BYBLOCK
 62
     9
 10
8040.0
 20
28120.0
 30
0.0
 11
8211.0
 21
28120.0
 31
0.0
  0
LINE
  5
23
  8
0
  6
BYBLOCK
 62
     9
 10
8010.0
 20
28000.0
 30
0.0
 11
8211.0
 21
28000.0
 31
0.0
  0
LINE
  5
24
  8
0
  6
BYBLOCK
 62
     9
 10
8210.0
 20
28100.0
 30
0.0
 11
8210.0
 21
28085.0
 31
0.0
  0
LINE
  5
25
  8
0
  6
BYBLOCK
 62
     9
 10
8210.0
 20
28020.0
 30
0.0
 11
8210.0
 21
28035.0
 31
0.0
  0
TEXT
  5
26
  8
0
  6
BYBLOCK
 62
    11
 10
8227.5
 20
28026.73622
 30
0.0
 40
35.0
  1
120
 50
90.0
  0
SOLID
  5
27
  8
0
  6
BYBLOCK
 62
     9
 10
8206.666667
 20
28100.0
 30
0.0
 11
8213.333333
 21
28100.0
 31
0.0
 12
8210.0
 22
28120.0
 32
0.0
 13
8210.0
 23
28120.0
 33
0.0
  0
SOLID
  5
28
  8
0
  6
BYBLOCK
 62
     9
 10
8206.666667
 20
28020.0
 30
0.0
 11
8213.333333
 21
28020.0
 31
0.0
 12
8210.0
 22
28000.0
 32
0.0
 13
8210.0
 23
28000.0
 33
0.0
  0
POINT
  5
29
  8
DEFPOINTS
  6
BYBLOCK
 62
     0
 10
8030.0
 20
28120.0
 30
0.0
  0
POINT
  5
2B
  8
DEFPOINTS
  6
BYBLOCK
 62
     0
 10
8000.0
 20
28000.0
 30
0.0
  0
POINT
  5
2C
  8
DEFPOINTS
  6
BYBLOCK
 62
     0
 10
8210.0
 20
28000.0
 30
10.0
  0
ENDBLK
  5
2E
  8
0
  0
BLOCK
  8
0
  2
*D2
 70
     1
 10
0.0
 20
0.0
 30
0.0
  3
*D2
  1

  0
LINE
  5
31
  8
0
  6
BYBLOCK
 62
     9
 10
7910.0
 20
28354.965223
 30
0.0
 11
7910.0
 21
28465.232497
 31
0.0
  0
LINE
  5
32
  8
0
  6
BYBLOCK
 62
     9
 10
8090.0
 20
28354.965223
 30
0.0
 11
8090.0
 21
28465.232497
 31
0.0
  0
LINE
  5
33
  8
0
  6
BYBLOCK
 62
     9
 10
7930.0
 20
28464.232497
 30
0.0
 11
7956.98622
 21
28464.232497
 31
0.0
  0
LINE
  5
34
  8
0
  6
BYBLOCK
 62
     9
 10
8070.0
 20
28464.232497
 30
0.0
 11
8043.01378
 21
28464.232497
 31
0.0
  0
TEXT
  5
35
  8
0
  6
BYBLOCK
 62
    11
 10
7966.73622
 20
28446.732497
 30
0.0
 40
35.0
  1
180
  0
SOLID
  5
36
  8
0
  6
BYBLOCK
 62
     9
 10
7930.0
 20
28467.56583
 30
0.0
 11
7930.0
 21
28460.899163
 31
0.0
 12
7910.0
 22
28464.232497
 32
0.0
 13
7910.0
 23
28464.232497
 33
0.0
  0
SOLID
  5
37
  8
0
  6
BYBLOCK
 62
     9
 10
8070.0
 20
28467.56583
 30
0.0
 11
8070.0
 21
28460.899163
 31
0.0
 12
8090.0
 22
28464.232497
 32
0.0
 13
8090.0
 23
28464.232497
 33
0.0
  0
POINT
  5
38
  8
DEFPOINTS
  6
BYBLOCK
 62
     0
 10
7910.0
 20
28344.965223
 30
10.0
  0
POINT
  5
39
  8
DEFPOINTS
  6
BYBLOCK
 62
     0
 10
8090.0
 20
28344.965223
 30
10.0
  0
POINT
  5
3A
  8
DEFPOINTS
  6
BYBLOCK
 62
     0
 10
8090.0
 20
28464.232497
 30
10.0
  0
ENDBLK
  5
3C
  8
0
  0
BLOCK
  8
0
  2
*D3
 70
     1
 10
0.0
 20
0.0
 30
0.0
  3
*D3
  1

  0
LINE
  5
4D
  8
0
  6
BYBLOCK
 62
     9
 10
7990.0
 20
28000.0
 30
0.0
 11
7789.0
 21
28000.0
 31
0.0
  0
LINE
  5
4E
  8
0
  6
BYBLOCK
 62
     9
 10
7927.396483
 20
28180.0
 30
0.0
 11
7789.0
 21
28180.0
 31
0.0
  0
LINE
  5
4F
  8
0
  6
BYBLOCK
 62
     9
 10
7790.0
 20
28020.0
 30
0.0
 11
7790.0
 21
28090.735719
 31
0.0
  0
LINE
  5
50
  8
0
  6
BYBLOCK
 62
     9
 10
7790.0
 20
28160.0
 30
0.0
 11
7790.0
 21
28145.0
 31
0.0
  0
TEXT
  5
51
  8
0
  6
BYBLOCK
 62
    11
 10
7779.5
 20
28100.485719
 30
0.0
 40
35.0
  1
180
 50
90.0
  0
SOLID
  5
52
  8
0
  6
BYBLOCK
 62
     9
 10
7786.666667
 20
28020.0
 30
0.0
 11
7793.333333
 21
28020.0
 31
0.0
 12
7790.0
 22
28000.0
 32
0.0
 13
7790.0
 23
28000.0
 33
0.0
  0
SOLID
  5
53
  8
0
  6
BYBLOCK
 62
     9
 10
7786.666667
 20
28160.0
 30
0.0
 11
7793.333333
 21
28160.0
 31
0.0
 12
7790.0
 22
28180.0
 32
0.0
 13
7790.0
 23
28180.0
 33
0.0
  0
POINT
  5
54
  8
DEFPOINTS
  6
BYBLOCK
 62
     0
 10
8000.0
 20
28000.0
 30
0.0
  0
POINT
  5
55
  8
DEFPOINTS
  6
BYBLOCK
 62
     0
 10
7937.396483
 20
28180.0
 30
10.0
  0
POINT
  5
56
  8
DEFPOINTS
  6
BYBLOCK
 62
     0
 10
7790.0
 20
28180.0
 30
10.0
  0
ENDBLK
  5
58
  8
0
  0
BLOCK
  8
0
  2
*D4
 70
     1
 10
0.0
 20
0.0
 30
0.0
  3
*D4
  1

  0
LINE
  5
8F
  8
0
  6
BYBLOCK
 62
     9
 10
8162.755917
 20
28435.0
 30
0.0
 11
8214.570636
 21
28435.0
 31
0.0
  0
LINE
  5
90
  8
0
  6
BYBLOCK
 62
     9
 10
8130.0
 20
28320.0
 30
0.0
 11
8214.570636
 21
28320.0
 31
0.0
  0
LINE
  5
91
  8
0
  6
BYBLOCK
 62
     9
 10
8213.570636
 20
28415.0
 30
0.0
 11
8213.570636
 21
28340.0
 31
0.0
  0
TEXT
  5
92
  8
0
  6
BYBLOCK
 62
    11
 10
8231.070636
 20
28327.025126
 30
0.0
 40
35.0
  1
115
 50
90.0
  0
SOLID
  5
93
  8
0
  6
BYBLOCK
 62
     9
 10
8210.237303
 20
28415.0
 30
0.0
 11
8216.903969
 21
28415.0
 31
0.0
 12
8213.570636
 22
28435.0
 32
0.0
 13
8213.570636
 23
28435.0
 33
0.0
  0
SOLID
  5
94
  8
0
  6
BYBLOCK
 62
     9
 10
8210.237303
 20
28340.0
 30
0.0
 11
8216.903969
 21
28340.0
 31
0.0
 12
8213.570636
 22
28320.0
 32
0.0
 13
8213.570636
 23
28320.0
 33
0.0
  0
POINT
  5
95
  8
DEFPOINTS
  6
BYBLOCK
 62
     0
 10
8152.755917
 20
28435.0
 30
0.0
  0
POINT
  5
96
  8
DEFPOINTS
  6
BYBLOCK
 62
     0
 10
8120.0
 20
28320.0
 30
0.0
  0
POINT
  5
97
  8
DEFPOINTS
  6
BYBLOCK
 62
     0
 10
8213.570636
 20
28320.0
 30
0.0
  0
ENDBLK
  5
99
  8
0
  0
BLOCK
  8
0
  2
*D5
 70
     1
 10
0.0
 20
0.0
 30
0.0
  3
*D5
  1

  0
LINE
  5
63
  8
0
  6
BYBLOCK
 62
     9
 10
7917.463208
 20
28080.0
 30
0.0
 11
7719.331807
 21
28080.0
 31
0.0
  0
LINE
  5
64
  8
0
  6
BYBLOCK
 62
     9
 10
7830.0
 20
28435.0
 30
0.0
 11
7719.331807
 21
28435.0
 31
0.0
  0
LINE
  5
65
  8
0
  6
BYBLOCK
 62
     9
 10
7720.331807
 20
28100.0
 30
0.0
 11
7720.331807
 21
28210.275126
 31
0.0
  0
LINE
  5
66
  8
0
  6
BYBLOCK
 62
     9
 10
7720.331807
 20
28415.0
 30
0.0
 11
7720.331807
 21
28304.724874
 31
0.0
  0
SOLID
  5
67
  8
0
  6
BYBLOCK
 62
     9
 10
7716.998474
 20
28100.0
 30
0.0
 11
7723.66514
 21
28100.0
 31
0.0
 12
7720.331807
 22
28080.0
 32
0.0
 13
7720.331807
 23
28080.0
 33
0.0
  0
SOLID
  5
68
  8
0
  6
BYBLOCK
 62
     9
 10
7716.998474
 20
28415.0
 30
0.0
 11
7723.66514
 21
28415.0
 31
0.0
 12
7720.331807
 22
28435.0
 32
0.0
 13
7720.331807
 23
28435.0
 33
0.0
  0
TEXT
  5
69
  8
0
  6
BYBLOCK
 62
    11
 10
7737.831807
 20
28220.025126
 30
0.0
 40
35.0
  1
355
 50
90.0
  0
POINT
  5
6A
  8
DEFPOINTS
  6
BYBLOCK
 62
     0
 10
7927.463208
 20
28080.0
 30
0.0
  0
POINT
  5
6B
  8
DEFPOINTS
  6
BYBLOCK
 62
     0
 10
7840.0
 20
28435.0
 30
0.0
  0
POINT
  5
6C
  8
DEFPOINTS
  6
BYBLOCK
 62
     0
 10
7720.331807
 20
28435.0
 30
0.0
  0
ENDBLK
  5
6E
  8
0
  0
BLOCK
  8
0
  2
*D6
 70
     1
 10
0.0
 20
0.0
 30
0.0
  3
*D6
  1

  0
LINE
  5
71
  8
0
  6
BYBLOCK
 62
     9
 10
7990.0
 20
28000.0
 30
0.0
 11
7668.512021
 21
28000.0
 31
0.0
  0
LINE
  5
72
  8
0
  6
BYBLOCK
 62
     9
 10
7830.0
 20
28435.0
 30
0.0
 11
7668.512021
 21
28435.0
 31
0.0
  0
LINE
  5
73
  8
0
  6
BYBLOCK
 62
     9
 10
7669.512021
 20
28020.0
 30
0.0
 11
7669.512021
 21
28168.525126
 31
0.0
  0
LINE
  5
74
  8
0
  6
BYBLOCK
 62
     9
 10
7669.512021
 20
28415.0
 30
0.0
 11
7669.512021
 21
28266.474874
 31
0.0
  0
SOLID
  5
75
  8
0
  6
BYBLOCK
 62
     9
 10
7666.178688
 20
28020.0
 30
0.0
 11
7672.845354
 21
28020.0
 31
0.0
 12
7669.512021
 22
28000.0
 32
0.0
 13
7669.512021
 23
28000.0
 33
0.0
  0
SOLID
  5
76
  8
0
  6
BYBLOCK
 62
     9
 10
7666.178688
 20
28415.0
 30
0.0
 11
7672.845354
 21
28415.0
 31
0.0
 12
7669.512021
 22
28435.0
 32
0.0
 13
7669.512021
 23
28435.0
 33
0.0
  0
TEXT
  5
77
  8
0
  6
BYBLOCK
 62
    11
 10
7687.012021
 20
28178.275126
 30
0.0
 40
35.0
  1
435
 50
90.0
  0
POINT
  5
78
  8
DEFPOINTS
  6
BYBLOCK
 62
     0
 10
8000.0
 20
28000.0
 30
0.0
  0
POINT
  5
79
  8
DEFPOINTS
  6
BYBLOCK
 62
     0
 10
7840.0
 20
28435.0
 30
0.0
  0
POINT
  5
7A
  8
DEFPOINTS
  6
BYBLOCK
 62
     0
 10
7669.512021
 20
28435.0
 30
0.0
  0
ENDBLK
  5
7C
  8
0
  0
ENDSEC
  0
SECTION
  2
ENTITIES
  0
DIMENSION
  5
20
  8
TEAM-MAS
  2
*D1
 10
210.0
 20
0.0
 30
10.0
 11
210.0
 21
60.0
 31
0.0
 12
-8000.0
 22
-28000.0
 32
0.0
 70
   128
 13
30.0
 23
120.0
 33
0.0
 14
0.0
 24
0.0
 34
0.0
 50
90.0
1001
ACAD
1000
DSTYLE
1002
{
1070
    40
1040
1.0
1002
}
  0
DIMENSION
  5
2F
  8
TEAM-MAS
  2
*D2
 10
90.0
 20
464.232497
 30
10.0
 11
0.0
 21
464.232497
 31
0.0
 12
-8000.0
 22
-28000.0
 32
0.0
 70
   128
 13
-90.0
 23
344.965223
 33
10.0
 14
90.0
 24
344.965223
 34
10.0
1001
ACAD
1000
DSTYLE
1002
{
1070
    40
1040
1.0
1002
}
  0
DIMENSION
  5
3D
  8
TEAM-MAS
  2
*D0
 10
40.0
 20
-40.778525
 30
10.0
 11
0.0
 21
-40.778525
 31
0.0
 12
-8000.0
 22
-28000.0
 32
0.0
 70
   128
 13
-40.0
 23
160.0
 33
0.0
 14
40.0
 24
160.0
 34
0.0
1001
ACAD
1000
DSTYLE
1002
{
1070
    40
1040
1.0
1002
}
  0
DIMENSION
  5
4B
  8
TEAM-MAS
  2
*D3
 10
-210.0
 20
180.0
 30
10.0
 11
-238.0
 21
133.749499
 31
0.0
 12
-8000.0
 22
-28000.0
 32
0.0
 70
   128
 13
0.0
 23
0.0
 33
0.0
 14
-62.603517
 24
180.0
 34
10.0
 50
90.0
1001
ACAD
1000
DSTYLE
1002
{
1070
    40
1040
1.0
1002
}
  0
LINE
  5
59
  8
TEAM-BODY
 10
160.0
 20
435.0
 30
0.0
 11
-160.0
 21
435.0
 31
0.0
  0
LINE
  5
5B
  8
TEAM-DET1
 10
0.0
 20
395.0
 30
0.0
 11
150.0
 21
395.0
 31
0.0
  0
LINE
  5
5D
  8
TEAM-BODY
 10
-72.536792
 20
80.0
 30
0.0
 11
72.536792
 21
80.0
 31
0.0
  0
TEXT
  5
5E
  8
TEAM-TXT
 10
-127.0
 20
253.857469
 30
0.0
 40
30.0
  1
team 227036
 41
0.8
 51
15.0
  7
TEAM
  0
DIMENSION
  5
61
  8
TEAM-MAS
  2
*D5
 10
-279.668193
 20
435.0
 30
0.0
 11
-279.668193
 21
257.5
 31
0.0
 12
-8000.0
 22
-28000.0
 32
0.0
 13
-72.536792
 23
80.0
 33
0.0
 14
-160.0
 24
435.0
 34
0.0
 50
90.0
1001
ACAD
1000
DSTYLE
1002
{
1070
    40
1040
1.0
1002
}
  0
DIMENSION
  5
6F
  8
TEAM-MAS
  2
*D6
 10
-330.487979
 20
435.0
 30
0.0
 11
-330.487979
 21
217.5
 31
0.0
 12
-8000.0
 22
-28000.0
 32
0.0
 13
0.0
 23
0.0
 33
0.0
 14
-160.0
 24
435.0
 34
0.0
 50
90.0
1001
ACAD
1000
DSTYLE
1002
{
1070
    40
1040
1.0
1002
}
  0
CIRCLE
  5
7D
  8
TEAM-COLD
 10
40.0
 20
180.0
 30
0.0
 40
10.0
  0
CIRCLE
  5
7F
  8
TEAM-WARM
 10
-40.0
 20
180.0
 30
0.0
 40
10.0
  0
CIRCLE
  5
81
  8
TEAM-KAN
 10
0.0
 20
120.0
 30
0.0
 40
20.0
  0
CIRCLE
  5
83
  8
TEAM-INSP
 10
0.0
 20
0.0
 30
0.0
 40
10.0
  0
LINE
  5
85
  8
TEAM-DET1
 10
0.0
 20
395.0
 30
0.0
 11
-150.0
 21
395.0
 31
0.0
  0
ARC
  5
86
  8
TEAM-BODY
 10
-160.000004
 20
415.000001
 30
0.0
 40
19.999999
 50
89.999989
 51
251.088675
  0
ARC
  5
87
  8
TEAM-BODY
 10
-169.723142
 20
386.619359
 30
0.0
 40
10.000004
 50
6.31398
 51
71.088649
  0
ARC
  5
88
  8
TEAM-BODY
 10
549.072109
 20
411.390091
 30
0.0
 40
709.25102
 50
181.912578
 51
207.235636
  0
ARC
  5
89
  8
TEAM-BODY
 10
-73.328643
 20
88.318338
 30
0.0
 40
8.355942
 50
190.464821
 51
275.437798
  0
POLYLINE
  5
8A
  8
TEAM-HIDE
 66
     1
 10
0.0
 20
0.0
 30
0.0
 70
     1
  0
VERTEX
  5
121
  8
TEAM-HIDE
 10
-70.0
 20
320.0
 30
0.0
 42
-0.174705
  0
VERTEX
  5
122
  8
TEAM-HIDE
 10
-71.220912
 20
316.61243
 30
0.0
 42
-0.104203
  0
VERTEX
  5
123
  8
TEAM-HIDE
 10
-75.857864
 20
312.928932
 30
0.0
 42
-0.064948
  0
VERTEX
  5
124
  8
TEAM-HIDE
 10
-81.911384
 20
310.828809
 30
0.0
 42
-0.051099
  0
VERTEX
  5
125
  8
TEAM-HIDE
 10
-90.0
 20
310.0
 30
0.0
 42
-0.051099
  0
VERTEX
  5
126
  8
TEAM-HIDE
 10
-98.088616
 20
310.828809
 30
0.0
 42
-0.064948
  0
VERTEX
  5
127
  8
TEAM-HIDE
 10
-104.142136
 20
312.928932
 30
0.0
 42
-0.104203
  0
VERTEX
  5
128
  8
TEAM-HIDE
 10
-108.779088
 20
316.61243
 30
0.0
 42
-0.174705
  0
VERTEX
  5
129
  8
TEAM-HIDE
 10
-110.0
 20
320.0
 30
0.0
 42
-0.174705
  0
VERTEX
  5
12A
  8
TEAM-HIDE
 10
-108.779088
 20
323.38757
 30
0.0
 42
-0.104203
  0
VERTEX
  5
12B
  8
TEAM-HIDE
 10
-104.142136
 20
327.071068
 30
0.0
 42
-0.064948
  0
VERTEX
  5
12C
  8
TEAM-HIDE
 10
-98.088616
 20
329.171191
 30
0.0
 42
-0.051099
  0
VERTEX
  5
12D
  8
TEAM-HIDE
 10
-90.0
 20
330.0
 30
0.0
 42
-0.051099
  0
VERTEX
  5
12E
  8
TEAM-HIDE
 10
-81.911384
 20
329.171191
 30
0.0
 42
-0.064948
  0
VERTEX
  5
12F
  8
TEAM-HIDE
 10
-75.857864
 20
327.071068
 30
0.0
 42
-0.104203
  0
VERTEX
  5
130
  8
TEAM-HIDE
 10
-71.220912
 20
323.38757
 30
0.0
 42
-0.174705
  0
SEQEND
  5
131
  8
TEAM-HIDE
  0
DIMENSION
  5
8D
  8
TEAM-MAS
  2
*D4
 10
213.570636
 20
320.0
 30
0.0
 11
213.570636
 21
357.5
 31
0.0
 12
-8000.0
 22
-28000.0
 32
0.0
 70
   128
 13
152.755917
 23
435.0
 33
0.0
 14
120.0
 24
320.0
 34
0.0
 50
90.0
1001
ACAD
1000
DSTYLE
1002
{
1070
    40
1040
1.0
1002
}
  0
ARC
  5
9A
  8
TEAM-BODY
 10
169.723142
 20
386.619359
 30
0.0
 40
10.000004
 50
108.911351
 51
173.68602
  0
ARC
  5
9B
  8
TEAM-BODY
 10
-549.072109
 20
411.390091
 30
0.0
 40
709.25102
 50
332.764364
 51
358.087422
  0
ARC
  5
9C
  8
TEAM-BODY
 10
160.000004
 20
415.000001
 30
0.0
 40
19.999999
 50
288.911325
 51
90.000011
  0
ARC
  5
9D
  8
TEAM-BODY
 10
73.328643
 20
88.318338
 30
0.0
 40
8.355942
 50
264.562202
 51
349.535179
  0
POLYLINE
  5
9E
  8
TEAM-HIDE
 66
     1
 10
0.0
 20
0.0
 30
0.0
 70
     1
  0
VERTEX
  5
132
  8
TEAM-HIDE
 10
70.0
 20
320.0
 30
0.0
 42
0.174705
  0
VERTEX
  5
133
  8
TEAM-HIDE
 10
71.220912
 20
316.61243
 30
0.0
 42
0.104203
  0
VERTEX
  5
134
  8
TEAM-HIDE
 10
75.857864
 20
312.928932
 30
0.0
 42
0.064948
  0
VERTEX
  5
135
  8
TEAM-HIDE
 10
81.911384
 20
310.828809
 30
0.0
 42
0.051099
  0
VERTEX
  5
136
  8
TEAM-HIDE
 10
90.0
 20
310.0
 30
0.0
 42
0.051099
  0
VERTEX
  5
137
  8
TEAM-HIDE
 10
98.088616
 20
310.828809
 30
0.0
 42
0.064948
  0
VERTEX
  5
138
  8
TEAM-HIDE
 10
104.142136
 20
312.928932
 30
0.0
 42
0.104203
  0
VERTEX
  5
139
  8
TEAM-HIDE
 10
108.779088
 20
316.61243
 30
0.0
 42
0.174705
  0
VERTEX
  5
13A
  8
TEAM-HIDE
 10
110.0
 20
320.0
 30
0.0
 42
0.174705
  0
VERTEX
  5
13B
  8
TEAM-HIDE
 10
108.779088
 20
323.38757
 30
0.0
 42
0.104203
  0
VERTEX
  5
13C
  8
TEAM-HIDE
 10
104.142136
 20
327.071068
 30
0.0
 42
0.064948
  0
VERTEX
  5
13D
  8
TEAM-HIDE
 10
98.088616
 20
329.171191
 30
0.0
 42
0.051099
  0
VERTEX
  5
13E
  8
TEAM-HIDE
 10
90.0
 20
330.0
 30
0.0
 42
0.051099
  0
VERTEX
  5
13F
  8
TEAM-HIDE
 10
81.911384
 20
329.171191
 30
0.0
 42
0.064948
  0
VERTEX
  5
140
  8
TEAM-HIDE
 10
75.857864
 20
327.071068
 30
0.0
 42
0.104203
  0
VERTEX
  5
141
  8
TEAM-HIDE
 10
71.220912
 20
323.38757
 30
0.0
 42
0.174705
  0
SEQEND
  5
142
  8
TEAM-HIDE
  0
ENDSEC
  0
EOF
