  0
SECTION
  2
HEADER
  9
$ACADVER
  1
AC1009
  9
$INSBASE
 10
0.0
 20
0.0
 30
0.0
  9
$EXTMIN
 10
-400.052053
 20
-734.256963
 30
-10.000332
  9
$EXTMAX
 10
463.226392
 20
50.036199
 30
10.000722
  9
$LIMMIN
 10
-400.052053
 20
-734.256963
  9
$LIMMAX
 10
463.226392
 20
50.036199
  9
$ORTHOMODE
 70
     1
  9
$REGENMODE
 70
     1
  9
$FILLMODE
 70
     1
  9
$QTEXTMODE
 70
     0
  9
$MIRRTEXT
 70
     0
  9
$DRAGMODE
 70
     2
  9
$LTSCALE
 40
25.0
  9
$OSMODE
 70
     0
  9
$ATTMODE
 70
     1
  9
$TEXTSIZE
 40
200.0
  9
$TRACEWID
 40
1.0
  9
$TEXTSTYLE
  7
STANDARD
  9
$CLAYER
  8
TEAM-MAS
  9
$CELTYPE
  6
BYLAYER
  9
$CECOLOR
 62
   256
  9
$DIMSCALE
 40
1.0
  9
$DIMASZ
 40
20.0
  9
$DIMEXO
 40
10.0
  9
$DIMDLI
 40
1.0
  9
$DIMRND
 40
0.0
  9
$DIMDLE
 40
0.0
  9
$DIMEXE
 40
1.0
  9
$DIMTP
 40
0.0
  9
$DIMTM
 40
0.0
  9
$DIMTXT
 40
35.0
  9
$DIMCEN
 40
1.0
  9
$DIMTSZ
 40
0.0
  9
$DIMTOL
 70
     0
  9
$DIMLIM
 70
     0
  9
$DIMTIH
 70
     0
  9
$DIMTOH
 70
     0
  9
$DIMSE1
 70
     0
  9
$DIMSE2
 70
     0
  9
$DIMTAD
 70
     0
  9
$DIMZIN
 70
     0
  9
$DIMBLK
  1

  9
$DIMASO
 70
     1
  9
$DIMSHO
 70
     0
  9
$DIMPOST
  1

  9
$DIMAPOST
  1

  9
$DIMALT
 70
     0
  9
$DIMALTD
 70
     2
  9
$DIMALTF
 40
25.4
  9
$DIMLFAC
 40
1.0
  9
$DIMTOFL
 70
     0
  9
$DIMTVP
 40
0.0
  9
$DIMTIX
 70
     0
  9
$DIMSOXD
 70
     0
  9
$DIMSAH
 70
     0
  9
$DIMBLK1
  1

  9
$DIMBLK2
  1

  9
$DIMSTYLE
  2
TEAM
  9
$DIMCLRD
 70
     9
  9
$DIMCLRE
 70
     9
  9
$DIMCLRT
 70
    11
  9
$DIMTFAC
 40
1.0
  9
$DIMGAP
 40
15.0
  9
$LUNITS
 70
     2
  9
$LUPREC
 70
     1
  9
$SKETCHINC
 40
1.0
  9
$FILLETRAD
 40
50.0
  9
$AUNITS
 70
     0
  9
$AUPREC
 70
     0
  9
$MENU
  1
ROPLANS
  9
$ELEVATION
 40
0.0
  9
$PELEVATION
 40
0.0
  9
$THICKNESS
 40
0.0
  9
$LIMCHECK
 70
     0
  9
$BLIPMODE
 70
     1
  9
$CHAMFERA
 40
0.0
  9
$CHAMFERB
 40
0.0
  9
$SKPOLY
 70
     0
  9
$TDCREATE
 40
2450392.957851
  9
$TDUPDATE
 40
2455505.473099
  9
$TDINDWG
 40
2.023557
  9
$TDUSRTIMER
 40
2.023557
  9
$USRTIMER
 70
     1
  9
$ANGBASE
 50
0.0
  9
$ANGDIR
 70
     0
  9
$PDMODE
 70
     0
  9
$PDSIZE
 40
0.0
  9
$PLINEWID
 40
0.0
  9
$COORDS
 70
     2
  9
$SPLFRAME
 70
     0
  9
$SPLINETYPE
 70
     6
  9
$SPLINESEGS
 70
     8
  9
$ATTDIA
 70
     0
  9
$ATTREQ
 70
     0
  9
$HANDLING
 70
     1
  9
$HANDSEED
  5
121
  9
$SURFTAB1
 70
    24
  9
$SURFTAB2
 70
    24
  9
$SURFTYPE
 70
     6
  9
$SURFU
 70
     6
  9
$SURFV
 70
     6
  9
$UCSNAME
  2

  9
$UCSORG
 10
0.0
 20
0.0
 30
0.0
  9
$UCSXDIR
 10
1.0
 20
0.0
 30
0.0
  9
$UCSYDIR
 10
0.0
 20
1.0
 30
0.0
  9
$PUCSNAME
  2

  9
$PUCSORG
 10
0.0
 20
0.0
 30
0.0
  9
$PUCSXDIR
 10
1.0
 20
0.0
 30
0.0
  9
$PUCSYDIR
 10
0.0
 20
1.0
 30
0.0
  9
$USERI1
 70
     0
  9
$USERI2
 70
     0
  9
$USERI3
 70
     0
  9
$USERI4
 70
     0
  9
$USERI5
 70
     0
  9
$USERR1
 40
0.0
  9
$USERR2
 40
0.0
  9
$USERR3
 40
0.0
  9
$USERR4
 40
0.0
  9
$USERR5
 40
0.0
  9
$WORLDVIEW
 70
     1
  9
$SHADEDGE
 70
     0
  9
$SHADEDIF
 70
    70
  9
$TILEMODE
 70
     1
  9
$MAXACTVP
 70
    16
  9
$PLIMCHECK
 70
     0
  9
$PEXTMIN
 10
-0.805942
 20
0.005011
 30
0.0
  9
$PEXTMAX
 10
20.250094
 20
11.356329
 30
0.0
  9
$PLIMMIN
 10
0.0
 20
0.0
  9
$PLIMMAX
 10
12.0
 20
9.0
  9
$UNITMODE
 70
     0
  9
$VISRETAIN
 70
     0
  9
$PLINEGEN
 70
     0
  9
$PSLTSCALE
 70
     0
  0
ENDSEC
  0
SECTION
  2
TABLES
  0
TABLE
  2
VPORT
 70
     2
  0
VPORT
  2
*ACTIVE
 70
     0
 10
0.0
 20
0.0
 11
1.0
 21
1.0
 12
31.587169
 22
-342.110382
 13
0.0
 23
0.0
 14
1.0
 24
1.0
 15
50.0
 25
50.0
 16
0.0
 26
0.0
 36
1.0
 17
0.0
 27
0.0
 37
0.0
 40
789.109701
 41
1.865779
 42
50.0
 43
0.0
 44
0.0
 50
0.0
 51
0.0
 71
     0
 72
   100
 73
     1
 74
     1
 75
     0
 76
     0
 77
     0
 78
     0
  0
ENDTAB
  0
TABLE
  2
LTYPE
 70
     3
  0
LTYPE
  2
CONTINUOUS
 70
     0
  3
Solid Line
 72
    65
 73
     0
 40
0.0
  0
LTYPE
  2
31
 70
     0
  3

 72
    65
 73
     4
 40
2.1
 49
1.5
 49
-0.3
 49
0.0
 49
-0.3
  0
LTYPE
  2
22
 70
     0
  3

 72
    65
 73
     2
 40
1.4
 49
1.2
 49
-0.2
  0
ENDTAB
  0
TABLE
  2
LAYER
 70
     9
  0
LAYER
  2
0
 70
     0
 62
     7
  6
CONTINUOUS
  0
LAYER
  2
DEFPOINTS
 70
     0
 62
     7
  6
CONTINUOUS
  0
LAYER
  2
TEAM-BODY
 70
     0
 62
     2
  6
CONTINUOUS
  0
LAYER
  2
TEAM-AXE
 70
     0
 62
    10
  6
31
  0
LAYER
  2
TEAM-MAS
 70
     0
 62
     9
  6
CONTINUOUS
  0
LAYER
  2
TEAM-TXT
 70
     0
 62
    11
  6
CONTINUOUS
  0
LAYER
  2
TEAM-DET1
 70
     0
 62
     4
  6
CONTINUOUS
  0
LAYER
  2
TEAM-HIDE
 70
     0
 62
     8
  6
22
  0
LAYER
  2
TEAM-INSP
 70
     0
 62
     5
  6
CONTINUOUS
  0
ENDTAB
  0
TABLE
  2
STYLE
 70
     2
  0
STYLE
  2
STANDARD
 70
     0
 40
0.0
 41
1.0
 50
0.0
 71
     0
 42
200.0
  3
txt
  4

  0
STYLE
  2
TEAM
 70
     0
 40
0.0
 41
0.8
 50
15.0
 71
     0
 42
7.0
  3
ROMANS.shx
  4

  0
ENDTAB
  0
TABLE
  2
VIEW
 70
     0
  0
ENDTAB
  0
TABLE
  2
UCS
 70
     0
  0
ENDTAB
  0
TABLE
  2
APPID
 70
     1
  0
APPID
  2
ACAD
 70
     0
  0
ENDTAB
  0
TABLE
  2
DIMSTYLE
 70
     1
  0
DIMSTYLE
  2
TEAM
 70
     0
  3

  4

  5

  6

  7

 40
1.0
 41
20.0
 42
10.0
 43
1.0
 44
1.0
 45
0.0
 46
0.0
 47
0.0
 48
0.0
140
35.0
141
1.0
142
0.0
143
25.4
144
1.0
145
0.0
146
1.0
147
15.0
 71
     0
 72
     0
 73
     0
 74
     0
 75
     0
 76
     0
 77
     0
 78
     0
170
     0
171
     2
172
     0
173
     0
174
     0
175
     0
176
     9
177
     9
178
    11
  0
ENDTAB
  0
ENDSEC
  0
SECTION
  2
BLOCKS
  0
BLOCK
  8
0
  2
$MODEL_SPACE
 70
     0
 10
0.0
 20
0.0
 30
0.0
  3
$MODEL_SPACE
  1

  0
ENDBLK
  5
11A
  8
0
  0
BLOCK
 67
     1
  8
0
  2
$PAPER_SPACE
 70
     0
 10
0.0
 20
0.0
 30
0.0
  3
$PAPER_SPACE
  1

  0
ENDBLK
  5
118
 67
     1
  8
0
  0
BLOCK
  8
0
  2
*D0
 70
     1
 10
0.0
 20
0.0
 30
0.0
  3
*D0
  1

  0
LINE
  5
22
  8
0
  6
BYBLOCK
 62
     9
 10
214.0
 20
3934.0
 30
0.0
 11
374.0
 21
3934.0
 31
0.0
  0
LINE
  5
23
  8
0
  6
BYBLOCK
 62
     9
 10
205.0
 20
3526.0
 30
0.0
 11
374.0
 21
3526.0
 31
0.0
  0
LINE
  5
24
  8
0
  6
BYBLOCK
 62
     9
 10
373.0
 20
3914.0
 30
0.0
 11
373.0
 21
3778.26378
 31
0.0
  0
LINE
  5
25
  8
0
  6
BYBLOCK
 62
     9
 10
373.0
 20
3546.0
 30
0.0
 11
373.0
 21
3681.73622
 31
0.0
  0
SOLID
  5
26
  8
0
  6
BYBLOCK
 62
     9
 10
369.666667
 20
3914.0
 30
0.0
 11
376.333333
 21
3914.0
 31
0.0
 12
373.0
 22
3934.0
 32
0.0
 13
373.0
 23
3934.0
 33
0.0
  0
SOLID
  5
27
  8
0
  6
BYBLOCK
 62
     9
 10
369.666667
 20
3546.0
 30
0.0
 11
376.333333
 21
3546.0
 31
0.0
 12
373.0
 22
3526.0
 32
0.0
 13
373.0
 23
3526.0
 33
0.0
  0
TEXT
  5
28
  8
0
  6
BYBLOCK
 62
    11
 10
390.5
 20
3691.48622
 30
0.0
 40
35.0
  1
400
 50
90.0
  0
POINT
  5
29
  8
DEFPOINTS
  6
BYBLOCK
 62
     0
 10
204.0
 20
3934.0
 30
20.0
  0
POINT
  5
2B
  8
DEFPOINTS
  6
BYBLOCK
 62
     0
 10
195.0
 20
3526.0
 30
10.0
  0
POINT
  5
2C
  8
DEFPOINTS
  6
BYBLOCK
 62
     0
 10
373.0
 20
3526.0
 30
20.0
  0
ENDBLK
  5
2E
  8
0
  0
BLOCK
  8
0
  2
*D1
 70
     1
 10
0.0
 20
0.0
 30
0.0
  3
*D1
  1

  0
LINE
  5
A2
  8
0
  6
BYBLOCK
 62
     9
 10
95.0
 20
3945.0
 30
0.0
 11
447.0
 21
3945.0
 31
0.0
  0
LINE
  5
A3
  8
0
  6
BYBLOCK
 62
     9
 10
9.0
 20
3491.000683
 30
0.0
 11
447.0
 21
3491.000683
 31
0.0
  0
LINE
  5
A4
  8
0
  6
BYBLOCK
 62
     9
 10
446.0
 20
3925.0
 30
0.0
 11
446.0
 21
3766.975215
 31
0.0
  0
LINE
  5
A5
  8
0
  6
BYBLOCK
 62
     9
 10
446.0
 20
3511.000683
 30
0.0
 11
446.0
 21
3669.025468
 31
0.0
  0
SOLID
  5
A6
  8
0
  6
BYBLOCK
 62
     9
 10
442.666667
 20
3925.0
 30
0.0
 11
449.333333
 21
3925.0
 31
0.0
 12
446.0
 22
3945.0
 32
0.0
 13
446.0
 23
3945.0
 33
0.0
  0
SOLID
  5
A7
  8
0
  6
BYBLOCK
 62
     9
 10
442.666667
 20
3511.000683
 30
0.0
 11
449.333333
 21
3511.000683
 31
0.0
 12
446.0
 22
3491.000683
 32
0.0
 13
446.0
 23
3491.000683
 33
0.0
  0
TEXT
  5
A8
  8
0
  6
BYBLOCK
 62
    11
 10
463.5
 20
3678.775468
 30
0.0
 40
35.0
  1
455
 50
90.0
  0
POINT
  5
A9
  8
DEFPOINTS
  6
BYBLOCK
 62
     0
 10
85.0
 20
3945.0
 30
10.0
  0
POINT
  5
AA
  8
DEFPOINTS
  6
BYBLOCK
 62
     0
 10
-1.0
 20
3491.000683
 30
10.0
  0
POINT
  5
AB
  8
DEFPOINTS
  6
BYBLOCK
 62
     0
 10
446.0
 20
3491.000683
 30
10.0
  0
ENDBLK
  5
AD
  8
0
  0
BLOCK
  8
0
  2
*D2
 70
     1
 10
0.0
 20
0.0
 30
0.0
  3
*D2
  1

  0
LINE
  5
94
  8
0
  6
BYBLOCK
 62
     9
 10
-11.0
 20
3945.0
 30
0.0
 11
-321.0
 21
3945.0
 31
0.0
  0
LINE
  5
95
  8
0
  6
BYBLOCK
 62
     9
 10
-51.0
 20
3780.0
 30
0.0
 11
-321.0
 21
3780.0
 31
0.0
  0
LINE
  5
96
  8
0
  6
BYBLOCK
 62
     9
 10
-320.0
 20
3925.0
 30
0.0
 11
-320.0
 21
3906.224874
 31
0.0
  0
LINE
  5
97
  8
0
  6
BYBLOCK
 62
     9
 10
-320.0
 20
3800.0
 30
0.0
 11
-320.0
 21
3818.775126
 31
0.0
  0
SOLID
  5
98
  8
0
  6
BYBLOCK
 62
     9
 10
-323.333333
 20
3925.0
 30
0.0
 11
-316.666667
 21
3925.0
 31
0.0
 12
-320.0
 22
3945.0
 32
0.0
 13
-320.0
 23
3945.0
 33
0.0
  0
SOLID
  5
99
  8
0
  6
BYBLOCK
 62
     9
 10
-323.333333
 20
3800.0
 30
0.0
 11
-316.666667
 21
3800.0
 31
0.0
 12
-320.0
 22
3780.0
 32
0.0
 13
-320.0
 23
3780.0
 33
0.0
  0
TEXT
  5
9A
  8
0
  6
BYBLOCK
 62
    11
 10
-302.5
 20
3828.525126
 30
0.0
 40
35.0
  1
165
 50
90.0
  0
POINT
  5
9B
  8
DEFPOINTS
  6
BYBLOCK
 62
     0
 10
-1.0
 20
3945.0
 30
10.0
  0
POINT
  5
9C
  8
DEFPOINTS
  6
BYBLOCK
 62
     0
 10
-41.0
 20
3780.0
 30
10.0
  0
POINT
  5
9D
  8
DEFPOINTS
  6
BYBLOCK
 62
     0
 10
-320.0
 20
3780.0
 30
10.0
  0
ENDBLK
  5
9F
  8
0
  0
BLOCK
  8
0
  2
*D3
 70
     1
 10
0.0
 20
0.0
 30
0.0
  3
*D3
  1

  0
LINE
  5
86
  8
0
  6
BYBLOCK
 62
     9
 10
-260.0
 20
3551.603371
 30
0.0
 11
-260.0
 21
3282.0
 31
0.0
  0
LINE
  5
87
  8
0
  6
BYBLOCK
 62
     9
 10
260.0
 20
3551.603371
 30
0.0
 11
260.0
 21
3282.0
 31
0.0
  0
LINE
  5
88
  8
0
  6
BYBLOCK
 62
     9
 10
-240.0
 20
3283.0
 30
0.0
 11
-46.51378
 21
3283.0
 31
0.0
  0
LINE
  5
89
  8
0
  6
BYBLOCK
 62
     9
 10
240.0
 20
3283.0
 30
0.0
 11
46.51378
 21
3283.0
 31
0.0
  0
SOLID
  5
8A
  8
0
  6
BYBLOCK
 62
     9
 10
-240.0
 20
3286.333333
 30
0.0
 11
-240.0
 21
3279.666667
 31
0.0
 12
-260.0
 22
3283.0
 32
0.0
 13
-260.0
 23
3283.0
 33
0.0
  0
SOLID
  5
8B
  8
0
  6
BYBLOCK
 62
     9
 10
240.0
 20
3286.333333
 30
0.0
 11
240.0
 21
3279.666667
 31
0.0
 12
260.0
 22
3283.0
 32
0.0
 13
260.0
 23
3283.0
 33
0.0
  0
TEXT
  5
8C
  8
0
  6
BYBLOCK
 62
    11
 10
-36.76378
 20
3265.5
 30
0.0
 40
35.0
  1
520
  0
POINT
  5
8D
  8
DEFPOINTS
  6
BYBLOCK
 62
     0
 10
-260.0
 20
3561.603371
 30
10.0
  0
POINT
  5
8E
  8
DEFPOINTS
  6
BYBLOCK
 62
     0
 10
260.0
 20
3561.603371
 30
10.0
  0
POINT
  5
8F
  8
DEFPOINTS
  6
BYBLOCK
 62
     0
 10
260.0
 20
3283.0
 30
10.0
  0
ENDBLK
  5
91
  8
0
  0
BLOCK
  8
0
  2
*D4
 70
     1
 10
0.0
 20
0.0
 30
0.0
  3
*D4
  1

  0
LINE
  5
6D
  8
0
  6
BYBLOCK
 62
     9
 10
-240.0
 20
3577.0
 30
0.0
 11
-240.0
 21
3353.255323
 31
0.0
  0
LINE
  5
6E
  8
0
  6
BYBLOCK
 62
     9
 10
240.0
 20
3590.0
 30
0.0
 11
240.0
 21
3353.255323
 31
0.0
  0
LINE
  5
6F
  8
0
  6
BYBLOCK
 62
     9
 10
-220.0
 20
3354.255323
 30
0.0
 11
-48.26378
 21
3354.255323
 31
0.0
  0
LINE
  5
70
  8
0
  6
BYBLOCK
 62
     9
 10
220.0
 20
3354.255323
 30
0.0
 11
48.26378
 21
3354.255323
 31
0.0
  0
SOLID
  5
71
  8
0
  6
BYBLOCK
 62
     9
 10
-220.0
 20
3357.588656
 30
0.0
 11
-220.0
 21
3350.921989
 31
0.0
 12
-240.0
 22
3354.255323
 32
0.0
 13
-240.0
 23
3354.255323
 33
0.0
  0
SOLID
  5
72
  8
0
  6
BYBLOCK
 62
     9
 10
220.0
 20
3357.588656
 30
0.0
 11
220.0
 21
3350.921989
 31
0.0
 12
240.0
 22
3354.255323
 32
0.0
 13
240.0
 23
3354.255323
 33
0.0
  0
TEXT
  5
73
  8
0
  6
BYBLOCK
 62
    11
 10
-38.51378
 20
3336.755323
 30
0.0
 40
35.0
  1
480
  0
POINT
  5
74
  8
DEFPOINTS
  6
BYBLOCK
 62
     0
 10
-240.0
 20
3587.0
 30
0.0
  0
POINT
  5
75
  8
DEFPOINTS
  6
BYBLOCK
 62
     0
 10
240.0
 20
3600.0
 30
0.0
  0
POINT
  5
76
  8
DEFPOINTS
  6
BYBLOCK
 62
     0
 10
240.0
 20
3354.255323
 30
0.0
  0
ENDBLK
  5
78
  8
0
  0
ENDSEC
  0
SECTION
  2
ENTITIES
  0
DIMENSION
  5
20
  8
TEAM-MAS
  2
*D0
 10
373.0
 20
-474.0
 30
10.0
 11
373.0
 21
-270.0
 31
-10.0
 12
0.0
 22
-4000.0
 32
-10.0
  1
400
 13
204.0
 23
-66.0
 33
10.0
 14
195.0
 24
-474.0
 34
0.0
 50
90.0
1001
ACAD
1000
DSTYLE
1002
{
1070
    40
1040
1.0
1002
}
  0
LINE
  5
2F
  8
TEAM-AXE
 10
158.0
 20
-95.0
 30
0.0
 11
142.0
 21
-95.0
 31
0.0
  0
CIRCLE
  5
32
  8
TEAM-HIDE
 10
151.0
 20
-95.0
 30
0.0
 40
5.0
  0
LINE
  5
35
  8
TEAM-AXE
 10
151.0
 20
-88.0
 30
0.0
 11
151.0
 21
-103.0
 31
0.0
  0
ARC
  5
36
  8
TEAM-DET1
 10
136.968721
 20
-114.406281
 30
0.0
 40
45.511462
 50
351.669646
 51
102.652513
  0
ARC
  5
38
  8
TEAM-DET1
 10
11.49955
 20
-181.49949
 30
0.0
 40
159.104633
 50
127.338031
 51
135.5093
  0
ARC
  5
39
  8
TEAM-BODY
 10
1.233716
 20
-1072.075765
 30
0.0
 40
932.078441
 50
90.137309
 51
97.9698
  0
LINE
  5
3B
  8
TEAM-DET1
 10
-127.0
 20
-70.0
 30
0.0
 11
-102.0
 21
-70.0
 31
0.0
  0
LINE
  5
3C
  8
TEAM-AXE
 10
-158.0
 20
-95.0
 30
0.0
 11
-142.0
 21
-95.0
 31
0.0
  0
CIRCLE
  5
3D
  8
TEAM-HIDE
 10
-151.0
 20
-95.0
 30
0.0
 40
5.0
  0
LINE
  5
3E
  8
TEAM-AXE
 10
-151.0
 20
-88.0
 30
0.0
 11
-151.0
 21
-103.0
 31
0.0
  0
ARC
  5
3F
  8
TEAM-DET1
 10
-136.968721
 20
-114.406281
 30
0.0
 40
45.511462
 50
77.347487
 51
188.330354
  0
ARC
  5
40
  8
TEAM-DET1
 10
-11.49955
 20
-181.49949
 30
0.0
 40
159.104633
 50
44.4907
 51
52.661969
  0
LINE
  5
41
  8
TEAM-DET1
 10
-85.0
 20
-55.0
 30
0.0
 11
-1.0
 21
-55.0
 31
0.0
  0
LINE
  5
42
  8
TEAM-AXE
 10
-32.0
 20
-104.0
 30
0.0
 11
39.0
 21
-104.0
 31
0.0
  0
ARC
  5
43
  8
TEAM-DET1
 10
-1.0
 20
-105.0
 30
0.0
 40
20.0
 50
0.0
 51
180.0
  0
ARC
  5
44
  8
TEAM-DET1
 10
-1.0
 20
-105.0
 30
0.0
 40
20.0
 50
180.0
 51
0.0
  0
LINE
  5
45
  8
TEAM-DET1
 10
85.0
 20
-55.0
 30
0.0
 11
-1.0
 21
-55.0
 31
0.0
  0
CIRCLE
  5
46
  8
TEAM-INSP
 10
0.0
 20
0.0
 30
0.0
 40
10.0
  0
LINE
  5
48
  8
TEAM-HIDE
 10
300.0
 20
0.0
 30
0.0
 11
-400.0
 21
0.0
 31
0.0
  0
LINE
  5
49
  8
TEAM-DET1
 10
127.0
 20
-70.0
 30
0.0
 11
102.0
 21
-70.0
 31
0.0
  0
ARC
  5
4A
  8
TEAM-BODY
 10
-3.233716
 20
-1072.075765
 30
0.0
 40
932.078441
 50
82.0302
 51
89.862691
  0
TEXT
  5
4B
  8
TEAM-TXT
 10
28.514171
 20
-40.853561
 30
0.0
 40
30.0
  1
team 231003
 41
0.8
 51
15.0
  7
TEAM
  0
ARC
  5
4E
  8
TEAM-BODY
 10
183.830184
 20
-398.012336
 30
0.0
 40
56.204973
 50
344.534338
 51
357.973338
  0
ARC
  5
4F
  8
TEAM-DET1
 10
3448.609257
 20
-1880.531625
 30
0.0
 40
3499.568879
 50
155.663849
 51
156.676951
  0
ARC
  5
50
  8
TEAM-DET1
 10
215.787934
 20
-489.095325
 30
0.0
 40
20.098972
 50
262.026778
 51
342.915607
  0
LINE
  5
51
  8
TEAM-AXE
 10
195.0
 20
-467.0
 30
0.0
 11
195.0
 21
-482.0
 31
0.0
  0
LINE
  5
52
  8
TEAM-AXE
 10
202.0
 20
-474.0
 30
0.0
 11
186.0
 21
-474.0
 31
0.0
  0
CIRCLE
  5
53
  8
TEAM-HIDE
 10
195.0
 20
-474.0
 30
0.0
 40
5.0
  0
ARC
  5
54
  8
TEAM-DET1
 10
234.786588
 20
-351.718895
 30
0.0
 40
158.782875
 50
239.835217
 51
262.113571
  0
ARC
  5
55
  8
TEAM-BODY
 10
194.483657
 20
-398.649234
 30
0.0
 40
45.821573
 50
284.556237
 51
341.748542
  0
LINE
  5
56
  8
TEAM-DET1
 10
260.0
 20
-438.396629
 30
0.0
 11
260.0
 21
-258.3983
 31
0.0
  0
LINE
  5
57
  8
TEAM-BODY
 10
236.0
 20
-269.0
 30
0.0
 11
240.0
 21
-400.0
 31
0.0
  0
ARC
  5
58
  8
TEAM-DET1
 10
-0.031844
 20
101.375646
 30
0.0
 40
610.375731
 50
255.292191
 51
269.90912
  0
ARC
  5
59
  8
TEAM-BODY
 10
-8.274506
 20
184.890409
 30
0.0
 40
658.89046
 50
252.354667
 51
270.632589
  0
LINE
  5
5A
  8
TEAM-AXE
 10
-195.0
 20
-467.0
 30
0.0
 11
-195.0
 21
-482.0
 31
0.0
  0
ARC
  5
5B
  8
TEAM-BODY
 10
-185.830184
 20
-398.012336
 30
0.0
 40
56.204973
 50
182.026662
 51
195.465662
  0
ARC
  5
5C
  8
TEAM-BODY
 10
-196.483657
 20
-398.649234
 30
0.0
 40
45.821573
 50
198.251458
 51
255.443763
  0
ARC
  5
5D
  8
TEAM-DET1
 10
-3448.609257
 20
-1880.531625
 30
0.0
 40
3499.568879
 50
23.323049
 51
24.336151
  0
ARC
  5
5E
  8
TEAM-DET1
 10
-215.787934
 20
-489.095325
 30
0.0
 40
20.098972
 50
197.084393
 51
277.973222
  0
ARC
  5
5F
  8
TEAM-DET1
 10
-234.786588
 20
-351.718895
 30
0.0
 40
158.782875
 50
277.886429
 51
300.164783
  0
CIRCLE
  5
60
  8
TEAM-HIDE
 10
-195.0
 20
-474.0
 30
0.0
 40
5.0
  0
LINE
  5
61
  8
TEAM-AXE
 10
-202.0
 20
-474.0
 30
0.0
 11
-186.0
 21
-474.0
 31
0.0
  0
LINE
  5
62
  8
TEAM-DET1
 10
-260.0
 20
-438.396629
 30
0.0
 11
-260.0
 21
-258.3983
 31
0.0
  0
LINE
  5
63
  8
TEAM-BODY
 10
-242.0
 20
-400.0
 30
0.0
 11
-238.0
 21
-269.0
 31
0.0
  0
LINE
  5
64
  8
TEAM-AXE
 10
-41.0
 20
-220.0
 30
0.0
 11
39.0
 21
-220.0
 31
0.0
  0
ARC
  5
65
  8
TEAM-BODY
 10
-1.0
 20
-220.0
 30
0.0
 40
25.0
 50
0.0
 51
180.0
  0
ARC
  5
66
  8
TEAM-BODY
 10
-1.0
 20
-220.0
 30
0.0
 40
25.0
 50
180.0
 51
0.0
  0
CIRCLE
  5
67
  8
TEAM-DET1
 10
-1.0
 20
-220.0
 30
0.0
 40
30.0
  0
LINE
  5
68
  8
TEAM-HIDE
 10
-35.695316
 20
-508.129752
 30
0.0
 11
-20.773889
 21
-241.643602
 31
0.0
  0
LINE
  5
69
  8
TEAM-HIDE
 10
35.695316
 20
-508.129752
 30
0.0
 11
20.773889
 21
-241.643602
 31
0.0
  0
LINE
  5
6A
  8
TEAM-HIDE
 10
-400.0
 20
-534.0
 30
0.0
 11
300.0
 21
-534.0
 31
0.0
  0
DIMENSION
  5
6B
  8
TEAM-MAS
  2
*D4
 10
240.0
 20
-645.744677
 30
0.0
 11
0.0
 21
-645.744677
 31
0.0
 12
0.0
 22
-4000.0
 32
0.0
 13
-240.0
 23
-413.0
 33
0.0
 14
240.0
 24
-400.0
 34
0.0
1001
ACAD
1000
DSTYLE
1002
{
1070
    40
1040
1.0
1002
}
  0
ARC
  5
79
  8
TEAM-DET1
 10
0.031844
 20
101.375646
 30
0.0
 40
610.375731
 50
270.09088
 51
284.707809
  0
ARC
  5
7A
  8
TEAM-BODY
 10
6.274506
 20
184.890409
 30
0.0
 40
658.89046
 50
269.367411
 51
287.645333
  0
ARC
  5
7B
  8
TEAM-BODY
 10
2.635678
 20
-301.853768
 30
0.0
 40
242.86807
 50
90.621803
 51
172.225528
  0
ARC
  5
7C
  8
TEAM-DET1
 10
-30.624958
 20
-297.773655
 30
0.0
 40
232.730162
 50
130.574147
 51
170.259338
  0
ARC
  5
7D
  8
TEAM-BODY
 10
-96.012591
 20
-329.6806
 30
0.0
 40
183.490255
 50
100.039529
 51
130.426134
  0
LINE
  5
7E
  8
TEAM-AXE
 10
-400.0
 20
50.0
 30
0.0
 11
-400.0
 21
-558.0
 31
0.0
  0
ARC
  5
7F
  8
TEAM-DET1
 10
30.624958
 20
-297.773655
 30
0.0
 40
232.730162
 50
9.740662
 51
49.425853
  0
ARC
  5
80
  8
TEAM-BODY
 10
94.012591
 20
-329.6806
 30
0.0
 40
183.490255
 50
49.573866
 51
79.960471
  0
LINE
  5
81
  8
TEAM-HIDE
 10
300.0
 20
-534.0
 30
0.0
 11
300.0
 21
0.0
 31
0.0
  0
LINE
  5
82
  8
TEAM-AXE
 10
-1.0
 20
-514.0
 30
0.0
 11
-1.0
 21
-45.0
 31
0.0
  0
ARC
  5
83
  8
TEAM-BODY
 10
-4.635678
 20
-301.853768
 30
0.0
 40
242.86807
 50
7.774472
 51
89.378197
  0
DIMENSION
  5
84
  8
TEAM-MAS
  2
*D3
 10
260.0
 20
-717.0
 30
10.0
 11
0.0
 21
-717.0
 31
0.0
 12
0.0
 22
-4000.0
 32
0.0
 13
-260.0
 23
-438.396629
 33
10.0
 14
260.0
 24
-438.396629
 34
10.0
1001
ACAD
1000
DSTYLE
1002
{
1070
    40
1040
1.0
1002
}
  0
DIMENSION
  5
92
  8
TEAM-MAS
  2
*D2
 10
-320.0
 20
-220.0
 30
10.0
 11
-320.0
 21
-137.5
 31
0.0
 12
0.0
 22
-4000.0
 32
0.0
 13
-1.0
 23
-55.0
 33
10.0
 14
-41.0
 24
-220.0
 34
10.0
 50
90.0
1001
ACAD
1000
DSTYLE
1002
{
1070
    40
1040
1.0
1002
}
  0
DIMENSION
  5
A0
  8
TEAM-MAS
  2
*D1
 10
446.0
 20
-508.999317
 30
10.0
 11
446.0
 21
-281.999659
 31
0.0
 12
0.0
 22
-4000.0
 32
0.0
  1
455
 13
85.0
 23
-55.0
 33
10.0
 14
-1.0
 24
-508.999317
 34
10.0
 50
90.0
1001
ACAD
1000
DSTYLE
1002
{
1070
    40
1040
1.0
1002
}
  0
ENDSEC
  0
EOF
